  0
SECTION
  2
HEADER
  9
$ACADVER
  1
AC1015
  9
$ACADMAINTVER
 70
    10
  9
$DWGCODEPAGE
  3
ANSI_932
  9
$INSBASE
 10
0.0
 20
0.0
 30
0.0
  9
$EXTMIN
 10
2281.381411691036
 20
-1296.181766699868
 30
0.0
  9
$EXTMAX
 10
2586.112402609804
 20
-1049.736822351547
 30
0.0
  9
$LIMMIN
 10
0.0
 20
0.0
  9
$LIMMAX
 10
420.0
 20
297.0
  9
$ORTHOMODE
 70
     0
  9
$REGENMODE
 70
     1
  9
$FILLMODE
 70
     1
  9
$QTEXTMODE
 70
     0
  9
$MIRRTEXT
 70
     1
  9
$LTSCALE
 40
1.0
  9
$ATTMODE
 70
     1
  9
$TEXTSIZE
 40
2.5
  9
$TRACEWID
 40
1.0
  9
$TEXTSTYLE
  7
STANDARD
  9
$CLAYER
  8
0
  9
$CELTYPE
  6
BYLAYER
  9
$CECOLOR
 62
   256
  9
$CELTSCALE
 40
1.0
  9
$DISPSILH
 70
     0
  9
$DIMSCALE
 40
1.0
  9
$DIMASZ
 40
1.5
  9
$DIMEXO
 40
0.5
  9
$DIMDLI
 40
5.0
  9
$DIMRND
 40
0.0
  9
$DIMDLE
 40
0.0
  9
$DIMEXE
 40
0.75
  9
$DIMTP
 40
0.0
  9
$DIMTM
 40
0.0
  9
$DIMTXT
 40
3.0
  9
$DIMCEN
 40
2.5
  9
$DIMTSZ
 40
0.0
  9
$DIMTOL
 70
     0
  9
$DIMLIM
 70
     0
  9
$DIMTIH
 70
     0
  9
$DIMTOH
 70
     0
  9
$DIMSE1
 70
     0
  9
$DIMSE2
 70
     0
  9
$DIMTAD
 70
     1
  9
$DIMZIN
 70
     9
  9
$DIMBLK
  1

  9
$DIMASO
 70
     1
  9
$DIMSHO
 70
     1
  9
$DIMPOST
  1

  9
$DIMAPOST
  1

  9
$DIMALT
 70
     0
  9
$DIMALTD
 70
     4
  9
$DIMALTF
 40
0.0394
  9
$DIMLFAC
 40
1.0
  9
$DIMTOFL
 70
     1
  9
$DIMTVP
 40
0.0
  9
$DIMTIX
 70
     0
  9
$DIMSOXD
 70
     0
  9
$DIMSAH
 70
     1
  9
$DIMBLK1
  1
OPEN
  9
$DIMBLK2
  1
OPEN
  9
$DIMSTYLE
  2
STANDARD
  9
$DIMCLRD
 70
     0
  9
$DIMCLRE
 70
     0
  9
$DIMCLRT
 70
     7
  9
$DIMTFAC
 40
1.0
  9
$DIMGAP
 40
0.5
  9
$DIMJUST
 70
     0
  9
$DIMSD1
 70
     0
  9
$DIMSD2
 70
     0
  9
$DIMTOLJ
 70
     1
  9
$DIMTZIN
 70
     9
  9
$DIMALTZ
 70
     0
  9
$DIMALTTZ
 70
     0
  9
$DIMUPT
 70
     0
  9
$DIMDEC
 70
     4
  9
$DIMTDEC
 70
     4
  9
$DIMALTU
 70
     8
  9
$DIMALTTD
 70
     4
  9
$DIMTXSTY
  7
STANDARD
  9
$DIMAUNIT
 70
     0
  9
$DIMADEC
 70
     0
  9
$DIMALTRND
 40
0.0
  9
$DIMAZIN
 70
     2
  9
$DIMDSEP
 70
    46
  9
$DIMATFIT
 70
     3
  9
$DIMFRAC
 70
     0
  9
$DIMLDRBLK
  1
OPEN
  9
$DIMLUNIT
 70
     2
  9
$DIMLWD
 70
    -2
  9
$DIMLWE
 70
    -2
  9
$DIMTMOVE
 70
     2
  9
$LUNITS
 70
     2
  9
$LUPREC
 70
     4
  9
$SKETCHINC
 40
1.0
  9
$FILLETRAD
 40
0.5
  9
$AUNITS
 70
     0
  9
$AUPREC
 70
     0
  9
$MENU
  1
.
  9
$ELEVATION
 40
0.0
  9
$PELEVATION
 40
0.0
  9
$THICKNESS
 40
0.0
  9
$LIMCHECK
 70
     0
  9
$CHAMFERA
 40
0.5
  9
$CHAMFERB
 40
0.5
  9
$CHAMFERC
 40
20.0
  9
$CHAMFERD
 40
0.0
  9
$SKPOLY
 70
     0
  9
$TDCREATE
 40
2453095.611059641
  9
$TDUCREATE
 40
2453095.236059640
  9
$TDUPDATE
 40
2456072.429065023
  9
$TDUUPDATE
 40
2456072.054065023
  9
$TDINDWG
 40
3.2470604167
  9
$TDUSRTIMER
 40
3.2470593750
  9
$USRTIMER
 70
     1
  9
$ANGBASE
 50
0.0
  9
$ANGDIR
 70
     0
  9
$PDMODE
 70
     0
  9
$PDSIZE
 40
0.0
  9
$PLINEWID
 40
0.0
  9
$SPLFRAME
 70
     0
  9
$SPLINETYPE
 70
     6
  9
$SPLINESEGS
 70
     8
  9
$HANDSEED
  5
6305
  9
$SURFTAB1
 70
     6
  9
$SURFTAB2
 70
     6
  9
$SURFTYPE
 70
     6
  9
$SURFU
 70
     6
  9
$SURFV
 70
     6
  9
$UCSBASE
  2

  9
$UCSNAME
  2

  9
$UCSORG
 10
0.0
 20
0.0
 30
0.0
  9
$UCSXDIR
 10
1.0
 20
0.0
 30
0.0
  9
$UCSYDIR
 10
0.0
 20
1.0
 30
0.0
  9
$UCSORTHOREF
  2

  9
$UCSORTHOVIEW
 70
     0
  9
$UCSORGTOP
 10
0.0
 20
0.0
 30
0.0
  9
$UCSORGBOTTOM
 10
0.0
 20
0.0
 30
0.0
  9
$UCSORGLEFT
 10
0.0
 20
0.0
 30
0.0
  9
$UCSORGRIGHT
 10
0.0
 20
0.0
 30
0.0
  9
$UCSORGFRONT
 10
0.0
 20
0.0
 30
0.0
  9
$UCSORGBACK
 10
0.0
 20
0.0
 30
0.0
  9
$PUCSBASE
  2

  9
$PUCSNAME
  2

  9
$PUCSORG
 10
0.0
 20
0.0
 30
0.0
  9
$PUCSXDIR
 10
1.0
 20
0.0
 30
0.0
  9
$PUCSYDIR
 10
0.0
 20
1.0
 30
0.0
  9
$PUCSORTHOREF
  2

  9
$PUCSORTHOVIEW
 70
     0
  9
$PUCSORGTOP
 10
0.0
 20
0.0
 30
0.0
  9
$PUCSORGBOTTOM
 10
0.0
 20
0.0
 30
0.0
  9
$PUCSORGLEFT
 10
0.0
 20
0.0
 30
0.0
  9
$PUCSORGRIGHT
 10
0.0
 20
0.0
 30
0.0
  9
$PUCSORGFRONT
 10
0.0
 20
0.0
 30
0.0
  9
$PUCSORGBACK
 10
0.0
 20
0.0
 30
0.0
  9
$USERI1
 70
     0
  9
$USERI2
 70
     0
  9
$USERI3
 70
     0
  9
$USERI4
 70
     0
  9
$USERI5
 70
     0
  9
$USERR1
 40
0.0
  9
$USERR2
 40
0.0
  9
$USERR3
 40
0.0
  9
$USERR4
 40
0.0
  9
$USERR5
 40
0.0
  9
$WORLDVIEW
 70
     1
  9
$SHADEDGE
 70
     3
  9
$SHADEDIF
 70
    70
  9
$TILEMODE
 70
     0
  9
$MAXACTVP
 70
    48
  9
$PINSBASE
 10
0.0
 20
0.0
 30
0.0
  9
$PLIMCHECK
 70
     0
  9
$PEXTMIN
 10
-0.003803086345556
 20
-0.0132621954251704
 30
-0.0000000000112498
  9
$PEXTMAX
 10
288.0147743886301
 20
210.0035498060874
 30
0.0000000000002956
  9
$PLIMMIN
 10
-5.794078159539367
 20
-5.802514849072622
  9
$PLIMMAX
 10
291.1319167135075
 20
204.1708127876461
  9
$UNITMODE
 70
     0
  9
$VISRETAIN
 70
     1
  9
$PLINEGEN
 70
     0
  9
$PSLTSCALE
 70
     0
  9
$TREEDEPTH
 70
  3020
  9
$CMLSTYLE
  2
STANDARD
  9
$CMLJUST
 70
     0
  9
$CMLSCALE
 40
20.0
  9
$PROXYGRAPHICS
 70
     1
  9
$MEASUREMENT
 70
     1
  9
$CELWEIGHT
370
    -1
  9
$ENDCAPS
280
     0
  9
$JOINSTYLE
280
     0
  9
$LWDISPLAY
290
     0
  9
$INSUNITS
 70
     0
  9
$HYPERLINKBASE
  1

  9
$STYLESHEET
  1

  9
$XEDIT
290
     1
  9
$CEPSNTYPE
380
     0
  9
$PSTYLEMODE
290
     1
  9
$FINGERPRINTGUID
  2
{0FC43A6F-16A9-11D5-BFD6-00004C030E53}
  9
$VERSIONGUID
  2
{F4177D0F-C771-4A85-B862-59B96259803D}
  9
$EXTNAMES
290
     1
  9
$PSVPSCALE
 40
0.0
  9
$OLESTARTUP
290
     0
  0
ENDSEC
  0
SECTION
  2
CLASSES
  0
CLASS
  1
HATCH
  2
AcDbHatch
  3
AutoCAD 2000
 90
    32768
280
     0
281
     1
  0
CLASS
  1
LWPOLYLINE
  2
AcDbPolyline
  3
AutoCAD 2000
 90
    32768
280
     0
281
     1
  0
CLASS
  1
ACDBDICTIONARYWDFLT
  2
AcDbDictionaryWithDefault
  3
AutoCAD 2000
 90
        0
280
     0
281
     0
  0
CLASS
  1
ACDBPLACEHOLDER
  2
AcDbPlaceHolder
  3
AutoCAD 2000
 90
        0
280
     0
281
     0
  0
CLASS
  1
LAYOUT
  2
AcDbLayout
  3
AutoCAD 2000
 90
        0
280
     0
281
     0
  0
CLASS
  1
DICTIONARYVAR
  2
AcDbDictionaryVar
  3
AutoCAD 2000
 90
        0
280
     0
281
     0
  0
ENDSEC
  0
SECTION
  2
TABLES
  0
TABLE
  2
VPORT
  5
8
330
0
100
AcDbSymbolTable
 70
     1
  0
VPORT
  5
62EA
330
8
100
AcDbSymbolTableRecord
100
AcDbViewportTableRecord
  2
*Active
 70
     0
 10
0.0
 20
0.0
 11
1.0
 21
1.0
 12
2433.773437023929
 22
-1172.978559525799
 13
0.0
 23
0.0
 14
10.0
 24
10.0
 15
10.0
 25
10.0
 16
0.0
 26
0.0
 36
1.0
 17
0.0
 27
0.0
 37
0.0
 40
248.3386617696255
 41
1.52919254658385
 42
50.0
 43
0.0
 44
0.0
 50
0.0
 51
0.0
 71
     0
 72
   100
 73
     1
 74
     0
 75
     0
 76
     0
 77
     0
 78
     0
281
     0
 65
     1
110
0.0
120
0.0
130
0.0
111
1.0
121
0.0
131
0.0
112
0.0
122
1.0
132
0.0
 79
     0
146
0.0
  0
ENDTAB
  0
TABLE
  2
LTYPE
  5
5
330
0
100
AcDbSymbolTable
 70
     8
  0
LTYPE
  5
12
330
5
100
AcDbSymbolTableRecord
100
AcDbLinetypeTableRecord
  2
BYBLOCK
 70
     0
  3

 72
    65
 73
     0
 40
0.0
  0
LTYPE
  5
13
330
5
100
AcDbSymbolTableRecord
100
AcDbLinetypeTableRecord
  2
BYLAYER
 70
     0
  3

 72
    65
 73
     0
 40
0.0
  0
LTYPE
  5
14
330
5
100
AcDbSymbolTableRecord
100
AcDbLinetypeTableRecord
  2
CONTINUOUS
 70
     0
  3
Solid line
 72
    65
 73
     0
 40
0.0
  0
LTYPE
  5
82E
330
5
100
AcDbSymbolTableRecord
100
AcDbLinetypeTableRecord
  2
DASHDOT
 70
     0
  3
Dash dot __ . __ . __ . __ . __ . __ . __ . __
 72
    65
 73
     4
 40
25.4
 49
12.7
 74
     0
 49
-6.349999999999999
 74
     0
 49
0.0
 74
     0
 49
-6.349999999999999
 74
     0
  0
LTYPE
  5
82F
330
5
100
AcDbSymbolTableRecord
100
AcDbLinetypeTableRecord
  2
DASHED
 70
     0
  3
Dashed __ __ __ __ __ __ __ __ __ __ __ __ __ _
 72
    65
 73
     2
 40
19.04999999999999
 49
12.7
 74
     0
 49
-6.349999999999999
 74
     0
  0
LTYPE
  5
8BB
330
5
100
AcDbSymbolTableRecord
100
AcDbLinetypeTableRecord
  2
HIDDEN2
 70
     0
  3
Hidden (.5x) _ _ _ _ _ _ _ _ _ _ _ _ _ _ _ _ _
 72
    65
 73
     2
 40
0.1875
 49
0.125
 74
     0
 49
-0.0625
 74
     0
  0
LTYPE
  5
20E4
330
5
100
AcDbSymbolTableRecord
100
AcDbLinetypeTableRecord
  2
HIDDEN
 70
     0
  3
Hidden __ __ __ __ __ __ __ __ __ __ __ __ __ _
 72
    65
 73
     2
 40
9.524999999999998
 49
6.349999999999999
 74
     0
 49
-3.174999999999999
 74
     0
  0
LTYPE
  5
59F4
330
5
100
AcDbSymbolTableRecord
100
AcDbLinetypeTableRecord
  2
PHANTOM
 70
     0
  3
Phantom ______  __  __  ______  __  __  ______
 72
    65
 73
     6
 40
63.5
 49
31.75
 74
     0
 49
-6.349999999999999
 74
     0
 49
6.349999999999999
 74
     0
 49
-6.349999999999999
 74
     0
 49
6.349999999999999
 74
     0
 49
-6.349999999999999
 74
     0
  0
LTYPE
  5
5A07
330
5
100
AcDbSymbolTableRecord
100
AcDbLinetypeTableRecord
  2
CENTER
 70
     0
  3
____ _ ____ _ ____ _ ____ _ ____ _ ____ _ ____
 72
    65
 73
     4
 40
17.5
 49
13.0
 74
     0
 49
-1.5
 74
     0
 49
1.5
 74
     0
 49
-1.5
 74
     0
  0
ENDTAB
  0
TABLE
  2
LAYER
  5
2
102
{ACAD_XDICTIONARY
360
60FE
102
}
330
0
100
AcDbSymbolTable
 70
    27
  0
LAYER
  5
E
330
2
100
AcDbSymbolTableRecord
100
AcDbLayerTableRecord
  2
0
 70
     0
 62
     7
  6
CONTINUOUS
370
    -3
390
682
  0
LAYER
  5
2C
330
2
100
AcDbSymbolTableRecord
100
AcDbLayerTableRecord
  2
M_VIEW
 70
     0
 62
    -1
  6
CONTINUOUS
370
    -3
390
682
  0
LAYER
  5
68C
330
2
100
AcDbSymbolTableRecord
100
AcDbLayerTableRecord
  2
wakumoji
 70
     0
 62
     7
  6
CONTINUOUS
370
    -3
390
682
  0
LAYER
  5
68D
330
2
100
AcDbSymbolTableRecord
100
AcDbLayerTableRecord
  2
wakumoji1
 70
     0
 62
    -7
  6
CONTINUOUS
370
    -3
390
682
  0
LAYER
  5
8BC
330
2
100
AcDbSymbolTableRecord
100
AcDbLayerTableRecord
  2
DEFPOINTS
 70
     0
 62
     7
  6
CONTINUOUS
290
     0
370
    -3
390
682
  0
LAYER
  5
8BD
330
2
100
AcDbSymbolTableRecord
100
AcDbLayerTableRecord
  2
中心線
 70
     0
 62
    13
  6
DASHDOT
370
    13
390
682
  0
LAYER
  5
8BE
330
2
100
AcDbSymbolTableRecord
100
AcDbLayerTableRecord
  2
ﾌﾞﾛｯｸ
 70
     0
 62
    40
  6
CONTINUOUS
370
    30
390
682
  0
LAYER
  5
A19
330
2
100
AcDbSymbolTableRecord
100
AcDbLayerTableRecord
  2
基板
 70
     0
 62
     3
  6
CONTINUOUS
370
    -3
390
682
  0
LAYER
  5
A1B
330
2
100
AcDbSymbolTableRecord
100
AcDbLayerTableRecord
  2
ｾﾑｽ
 70
     0
 62
    11
  6
CONTINUOUS
370
    -3
390
682
  0
LAYER
  5
C05
330
2
100
AcDbSymbolTableRecord
100
AcDbLayerTableRecord
  2
寸法
 70
     0
 62
     4
  6
CONTINUOUS
370
    13
390
682
  0
LAYER
  5
5051
330
2
100
AcDbSymbolTableRecord
100
AcDbLayerTableRecord
  2
CIRCUIT
 70
     0
 62
     7
  6
CONTINUOUS
370
    -3
390
682
  0
LAYER
  5
5052
330
2
100
AcDbSymbolTableRecord
100
AcDbLayerTableRecord
  2
A
 70
     0
 62
     7
  6
CONTINUOUS
370
    -3
390
682
  0
LAYER
  5
5053
330
2
100
AcDbSymbolTableRecord
100
AcDbLayerTableRecord
  2
PIC11
 70
     0
 62
     7
  6
CONTINUOUS
370
    -3
390
682
  0
LAYER
  5
5850
330
2
100
AcDbSymbolTableRecord
100
AcDbLayerTableRecord
  2
FRAME025
 70
     0
 62
    -7
  6
CONTINUOUS
370
    -3
390
682
  0
LAYER
  5
58E8
330
2
100
AcDbSymbolTableRecord
100
AcDbLayerTableRecord
  2
文字
 70
     0
 62
    40
  6
CONTINUOUS
370
    13
390
682
  0
LAYER
  5
612D
330
2
100
AcDbSymbolTableRecord
100
AcDbLayerTableRecord
  2
CENTER
 70
     0
 62
     1
  6
CENTER
370
    13
390
682
  0
ENDTAB
  0
TABLE
  2
STYLE
  5
3
330
0
100
AcDbSymbolTable
 70
     9
  0
STYLE
  5
F
330
3
100
AcDbSymbolTableRecord
100
AcDbTextStyleTableRecord
  2
STANDARD
 70
     0
 40
0.0
 41
1.0
 50
0.0
 71
     0
 42
2.5
  3
isocp.shx
  4
bigfont.shx
  0
STYLE
  5
35
330
3
100
AcDbSymbolTableRecord
100
AcDbTextStyleTableRecord
  2
MSｺﾞｼｯｸ
 70
     0
 40
0.0
 41
1.0
 50
0.0
 71
     0
 42
5.0
  3
MS Gothic.ttf
  4

1001
ACAD
1000
MS Gothic
1071
    32817
  0
STYLE
  5
8BF
330
3
100
AcDbSymbolTableRecord
100
AcDbTextStyleTableRecord
  2
MSｺﾞｼｯｸ-0
 70
     0
 40
0.0
 41
1.0
 50
0.0
 71
     0
 42
4.0
  3
simplex.shx
  4
bigfont.shx
  0
STYLE
  5
5851
330
3
100
AcDbSymbolTableRecord
100
AcDbTextStyleTableRecord
  2
MS明朝
 70
     0
 40
0.0
 41
1.0
 50
0.0
 71
     0
 42
2.5
  3
MS Mincho.ttf
  4

1001
ACAD
1000
MS Mincho
1071
    32785
  0
ENDTAB
  0
TABLE
  2
VIEW
  5
6
330
0
100
AcDbSymbolTable
 70
     0
  0
ENDTAB
  0
TABLE
  2
UCS
  5
7
330
0
100
AcDbSymbolTable
 70
     0
  0
ENDTAB
  0
TABLE
  2
APPID
  5
9
330
0
100
AcDbSymbolTable
 70
     1
  0
APPID
  5
10
330
9
100
AcDbSymbolTableRecord
100
AcDbRegAppTableRecord
  2
ACAD
 70
     0
  0
ENDTAB
  0
TABLE
  2
DIMSTYLE
  5
A
330
0
100
AcDbSymbolTable
 70
    13
100
AcDbDimStyleTable
 71
     1
340
1D
  0
DIMSTYLE
105
1D
102
{ACAD_REACTORS
330
57EB
330
5DD4
330
5DD1
330
5DD9
330
5DD8
330
5DD7
330
5DDF
330
5DDE
330
5DDD
330
5F62
330
5F65
330
615E
330
615F
330
61D5
102
}
330
A
100
AcDbSymbolTableRecord
100
AcDbDimStyleTableRecord
  2
STANDARD
 70
     0
340
F
  0
DIMSTYLE
105
58F1
330
A
100
AcDbSymbolTableRecord
100
AcDbDimStyleTableRecord
  2
ｺﾋﾟｰ - まこ-10
 70
     0
 40
0.8299999999999998
 41
2.0
 42
0.5
 44
0.8
 73
     0
 74
     0
 77
     3
 78
     8
 79
     2
140
3.0
141
0.0
147
0.5
176
     4
177
     4
178
    40
179
     7
271
     8
272
     8
340
8BF
341
83F
342
83F
371
    13
372
    13
  0
ENDTAB
  0
TABLE
  2
BLOCK_RECORD
  5
1
330
0
100
AcDbSymbolTable
 70
    21
  0
BLOCK_RECORD
  5
18
330
1
100
AcDbSymbolTableRecord
100
AcDbBlockTableRecord
  2
*MODEL_SPACE
340
685
  0
BLOCK_RECORD
  5
15
330
1
100
AcDbSymbolTableRecord
100
AcDbBlockTableRecord
  2
*PAPER_SPACE
340
686
  0
BLOCK_RECORD
  5
24
330
1
100
AcDbSymbolTableRecord
100
AcDbBlockTableRecord
  2
_OPEN
340
0
102
{BLKREFS
331
F75
331
F76
331
F81
331
F82
331
6047
331
6048
331
6050
331
6051
331
6059
331
605A
331
6062
331
6063
331
606D
331
606E
331
6078
331
6079
331
6081
331
6082
331
608A
331
608B
331
6095
331
6096
331
609E
331
609F
331
60F8
331
60F9
331
61BE
331
61C5
331
61C6
331
6231
331
6232
102
}
  0
BLOCK_RECORD
  5
83F
330
1
100
AcDbSymbolTableRecord
100
AcDbBlockTableRecord
  2
_Open30
340
0
  0
BLOCK_RECORD
  5
581F
330
1
100
AcDbSymbolTableRecord
100
AcDbBlockTableRecord
  2
*D6
340
0
  0
BLOCK_RECORD
  5
5DF8
330
1
100
AcDbSymbolTableRecord
100
AcDbBlockTableRecord
  2
*D7
340
0
  0
BLOCK_RECORD
  5
5E04
330
1
100
AcDbSymbolTableRecord
100
AcDbBlockTableRecord
  2
*D8
340
0
  0
BLOCK_RECORD
  5
5E10
330
1
100
AcDbSymbolTableRecord
100
AcDbBlockTableRecord
  2
*D9
340
0
  0
BLOCK_RECORD
  5
5E1C
330
1
100
AcDbSymbolTableRecord
100
AcDbBlockTableRecord
  2
*D10
340
0
  0
BLOCK_RECORD
  5
5E28
330
1
100
AcDbSymbolTableRecord
100
AcDbBlockTableRecord
  2
*D11
340
0
  0
BLOCK_RECORD
  5
5E36
330
1
100
AcDbSymbolTableRecord
100
AcDbBlockTableRecord
  2
*D12
340
0
  0
BLOCK_RECORD
  5
5E42
330
1
100
AcDbSymbolTableRecord
100
AcDbBlockTableRecord
  2
*D13
340
0
  0
BLOCK_RECORD
  5
5E4E
330
1
100
AcDbSymbolTableRecord
100
AcDbBlockTableRecord
  2
*D14
340
0
  0
BLOCK_RECORD
  5
5FA6
330
1
100
AcDbSymbolTableRecord
100
AcDbBlockTableRecord
  2
*D15
340
0
  0
BLOCK_RECORD
  5
5FB2
330
1
100
AcDbSymbolTableRecord
100
AcDbBlockTableRecord
  2
*D16
340
0
  0
BLOCK_RECORD
  5
6161
330
1
100
AcDbSymbolTableRecord
100
AcDbBlockTableRecord
  2
*D17
340
0
  0
BLOCK_RECORD
  5
6169
330
1
100
AcDbSymbolTableRecord
100
AcDbBlockTableRecord
  2
*D18
340
0
  0
BLOCK_RECORD
  5
61D6
330
1
100
AcDbSymbolTableRecord
100
AcDbBlockTableRecord
  2
*D19
340
0
  0
ENDTAB
  0
ENDSEC
  0
SECTION
  2
BLOCKS
  0
BLOCK
  5
19
330
18
100
AcDbEntity
  8
0
100
AcDbBlockBegin
  2
*MODEL_SPACE
 70
     0
 10
0.0
 20
0.0
 30
0.0
  3
*MODEL_SPACE
  1

  0
ENDBLK
  5
1A
330
18
100
AcDbEntity
  8
0
100
AcDbBlockEnd
  0
BLOCK
  5
16
330
15
100
AcDbEntity
 67
     1
  8
0
100
AcDbBlockBegin
  2
*PAPER_SPACE
 70
     0
 10
0.0
 20
0.0
 30
0.0
  3
*PAPER_SPACE
  1

  0
ENDBLK
  5
17
330
15
100
AcDbEntity
 67
     1
  8
0
100
AcDbBlockEnd
  0
BLOCK
  5
25
330
24
100
AcDbEntity
  8
0
100
AcDbBlockBegin
  2
_OPEN
 70
     0
 10
0.0
 20
0.0
 30
0.0
  3
_OPEN
  1

  0
LINE
  5
26
330
24
100
AcDbEntity
  8
0
  6
ByBlock
 62
     0
100
AcDbLine
 10
-1.0
 20
0.1666666666666666
 30
0.0
 11
0.0
 21
0.0
 31
0.0
  0
LINE
  5
27
330
24
100
AcDbEntity
  8
0
  6
ByBlock
 62
     0
100
AcDbLine
 10
0.0
 20
0.0
 30
0.0
 11
-1.0
 21
-0.1666666666666666
 31
0.0
  0
LINE
  5
28
330
24
100
AcDbEntity
  8
0
  6
ByBlock
 62
     0
100
AcDbLine
 10
0.0
 20
0.0
 30
0.0
 11
-1.0
 21
0.0
 31
0.0
  0
ENDBLK
  5
29
330
24
100
AcDbEntity
  8
0
100
AcDbBlockEnd
  0
BLOCK
  5
843
330
83F
100
AcDbEntity
  8
0
100
AcDbBlockBegin
  2
_Open30
 70
     0
 10
0.0
 20
0.0
 30
0.0
  3
_Open30
  1

  0
LINE
  5
840
330
83F
100
AcDbEntity
  8
0
  6
ByBlock
 62
     0
370
    -2
100
AcDbLine
 10
-1.0
 20
0.26794919
 30
0.0
 11
0.0
 21
0.0
 31
0.0
  0
LINE
  5
841
330
83F
100
AcDbEntity
  8
0
  6
ByBlock
 62
     0
370
    -2
100
AcDbLine
 10
0.0
 20
0.0
 30
0.0
 11
-1.0
 21
-0.26794919
 31
0.0
  0
LINE
  5
842
330
83F
100
AcDbEntity
  8
0
  6
ByBlock
 62
     0
370
    -2
100
AcDbLine
 10
0.0
 20
0.0
 30
0.0
 11
-1.0
 21
0.0
 31
0.0
  0
ENDBLK
  5
844
330
83F
100
AcDbEntity
  8
0
100
AcDbBlockEnd
  0
BLOCK
  5
5829
330
581F
100
AcDbEntity
  8
0
100
AcDbBlockBegin
  2
*D6
 70
     1
 10
0.0
 20
0.0
 30
0.0
  3
*D6
  1

  0
LINE
  5
60F5
330
581F
100
AcDbEntity
  8
寸法
 62
     0
370
    -2
100
AcDbLine
 10
2442.816681890977
 20
-1187.316023114618
 30
0.0
 11
2442.816681890977
 21
-1170.081148820147
 31
0.0
  0
LINE
  5
60F6
330
581F
100
AcDbEntity
  8
寸法
 62
     0
370
    -2
100
AcDbLine
 10
2515.882330316456
 20
-1186.941016304945
 30
0.0
 11
2515.882330316456
 21
-1170.081148820147
 31
0.0
  0
LINE
  5
60F7
330
581F
100
AcDbEntity
  8
寸法
 62
     0
370
    -2
100
AcDbLine
 10
2444.816681890977
 20
-1171.581148820147
 30
0.0
 11
2513.882330316456
 21
-1171.581148820147
 31
0.0
  0
INSERT
  5
60F8
330
581F
100
AcDbEntity
  8
寸法
 62
     0
370
    -2
100
AcDbBlockReference
  2
_OPEN
 10
2442.816681890977
 20
-1171.581148820147
 30
0.0
 41
2.0
 42
2.0
 43
2.0
 50
180.0
  0
INSERT
  5
60F9
330
581F
100
AcDbEntity
  8
寸法
 62
     0
370
    -2
100
AcDbBlockReference
  2
_OPEN
 10
2515.882330316456
 20
-1171.581148820147
 30
0.0
 41
2.0
 42
2.0
 43
2.0
  0
MTEXT
  5
60FA
330
581F
100
AcDbEntity
  8
寸法
 62
     7
100
AcDbMText
 10
2479.349506103716
 20
-1169.081148820147
 30
0.0
 40
3.0
 41
0.0
 71
     5
 72
     1
  1
\A1;※　Ｌ
 73
     1
 44
1.0
  0
POINT
  5
60FB
330
581F
100
AcDbEntity
  8
DEFPOINTS
 62
     0
100
AcDbPoint
 10
2442.816681890977
 20
-1188.316023114619
 30
0.0
  0
POINT
  5
60FC
330
581F
100
AcDbEntity
  8
DEFPOINTS
 62
     0
100
AcDbPoint
 10
2515.882330316456
 20
-1187.941016304945
 30
0.0
  0
POINT
  5
60FD
330
581F
100
AcDbEntity
  8
DEFPOINTS
 62
     0
100
AcDbPoint
 10
2515.882330316456
 20
-1171.581148820147
 30
0.0
  0
ENDBLK
  5
582A
330
581F
100
AcDbEntity
  8
0
100
AcDbBlockEnd
  0
BLOCK
  5
5E02
330
5DF8
100
AcDbEntity
  8
0
100
AcDbBlockBegin
  2
*D7
 70
     1
 10
0.0
 20
0.0
 30
0.0
  3
*D7
  1

  0
LINE
  5
609B
330
5DF8
100
AcDbEntity
  8
寸法
 62
     0
370
    -2
100
AcDbLine
 10
2399.464208336059
 20
-1190.016023114618
 30
0.0
 11
2407.433799902234
 21
-1190.016023114618
 31
0.0
  0
LINE
  5
609C
330
5DF8
100
AcDbEntity
  8
寸法
 62
     0
370
    -2
100
AcDbLine
 10
2400.464208336059
 20
-1195.116023114618
 30
0.0
 11
2407.433799902234
 21
-1195.116023114618
 31
0.0
  0
LINE
  5
609D
330
5DF8
100
AcDbEntity
  8
寸法
 62
     0
370
    -2
100
AcDbLine
 10
2406.683799902234
 20
-1191.516023114618
 30
0.0
 11
2406.683799902234
 21
-1193.616023114618
 31
0.0
  0
INSERT
  5
609E
330
5DF8
100
AcDbEntity
  8
寸法
 62
     0
370
    -2
100
AcDbBlockReference
  2
_OPEN
 10
2406.683799902234
 20
-1190.016023114618
 30
0.0
 41
1.5
 42
1.5
 43
1.5
 50
90.0
  0
INSERT
  5
609F
330
5DF8
100
AcDbEntity
  8
寸法
 62
     0
370
    -2
100
AcDbBlockReference
  2
_OPEN
 10
2406.683799902234
 20
-1195.116023114618
 30
0.0
 41
1.5
 42
1.5
 43
1.5
 50
270.0
  0
MTEXT
  5
60A0
330
5DF8
100
AcDbEntity
  8
寸法
 62
     7
100
AcDbMText
 10
2404.533799902234
 20
-1192.566023114618
 30
0.0
 40
3.0
 41
0.0
 71
     5
 72
     1
  1
\A1;(5)
 11
0.0000000000000001
 21
1.0
 31
0.0
 73
     1
 44
1.0
  0
POINT
  5
60A1
330
5DF8
100
AcDbEntity
  8
DEFPOINTS
 62
     0
100
AcDbPoint
 10
2398.964208336059
 20
-1190.016023114618
 30
0.0
  0
POINT
  5
60A2
330
5DF8
100
AcDbEntity
  8
DEFPOINTS
 62
     0
100
AcDbPoint
 10
2399.964208336059
 20
-1195.116023114618
 30
0.0
  0
POINT
  5
60A3
330
5DF8
100
AcDbEntity
  8
DEFPOINTS
 62
     0
100
AcDbPoint
 10
2406.683799902234
 20
-1195.116023114618
 30
0.0
  0
ENDBLK
  5
5E03
330
5DF8
100
AcDbEntity
  8
0
100
AcDbBlockEnd
  0
BLOCK
  5
5E0E
330
5E04
100
AcDbEntity
  8
0
100
AcDbBlockBegin
  2
*D8
 70
     1
 10
0.0
 20
0.0
 30
0.0
  3
*D8
  1

  0
LINE
  5
6044
330
5E04
100
AcDbEntity
  8
寸法
 62
     0
370
    -2
100
AcDbLine
 10
2351.964208336057
 20
-1205.616023114619
 30
0.0
 11
2351.964208336057
 21
-1220.03927353589
 31
0.0
  0
LINE
  5
6045
330
5E04
100
AcDbEntity
  8
寸法
 62
     0
370
    -2
100
AcDbLine
 10
2399.964208336059
 20
-1195.616023114618
 30
0.0
 11
2399.964208336059
 21
-1220.03927353589
 31
0.0
  0
LINE
  5
6046
330
5E04
100
AcDbEntity
  8
寸法
 62
     0
370
    -2
100
AcDbLine
 10
2353.464208336057
 20
-1219.28927353589
 30
0.0
 11
2398.464208336059
 21
-1219.28927353589
 31
0.0
  0
INSERT
  5
6047
330
5E04
100
AcDbEntity
  8
寸法
 62
     0
370
    -2
100
AcDbBlockReference
  2
_OPEN
 10
2351.964208336057
 20
-1219.28927353589
 30
0.0
 41
1.5
 42
1.5
 43
1.5
 50
180.0
  0
INSERT
  5
6048
330
5E04
100
AcDbEntity
  8
寸法
 62
     0
370
    -2
100
AcDbBlockReference
  2
_OPEN
 10
2399.964208336059
 20
-1219.28927353589
 30
0.0
 41
1.5
 42
1.5
 43
1.5
  0
MTEXT
  5
6049
330
5E04
100
AcDbEntity
  8
寸法
 62
     7
100
AcDbMText
 10
2375.964208336058
 20
-1217.28927353589
 30
0.0
 40
3.0
 41
0.0
 71
     5
 72
     1
  1
\A1;48
 73
     1
 44
1.0
  0
POINT
  5
604A
330
5E04
100
AcDbEntity
  8
DEFPOINTS
 62
     0
100
AcDbPoint
 10
2351.964208336057
 20
-1205.116023114619
 30
0.0
  0
POINT
  5
604B
330
5E04
100
AcDbEntity
  8
DEFPOINTS
 62
     0
100
AcDbPoint
 10
2399.964208336059
 20
-1195.116023114618
 30
0.0
  0
POINT
  5
604C
330
5E04
100
AcDbEntity
  8
DEFPOINTS
 62
     0
100
AcDbPoint
 10
2399.964208336059
 20
-1219.28927353589
 30
0.0
  0
ENDBLK
  5
5E0F
330
5E04
100
AcDbEntity
  8
0
100
AcDbBlockEnd
  0
BLOCK
  5
5E1A
330
5E10
100
AcDbEntity
  8
0
100
AcDbBlockBegin
  2
*D9
 70
     1
 10
0.0
 20
0.0
 30
0.0
  3
*D9
  1

  0
LINE
  5
604D
330
5E10
100
AcDbEntity
  8
寸法
 62
     0
370
    -2
100
AcDbLine
 10
2338.464208336057
 20
-1203.941023114619
 30
0.0
 11
2338.464208336057
 21
-1214.03927353589
 31
0.0
  0
LINE
  5
604E
330
5E10
100
AcDbEntity
  8
寸法
 62
     0
370
    -2
100
AcDbLine
 10
2348.464208336057
 20
-1203.941023114619
 30
0.0
 11
2348.464208336057
 21
-1214.03927353589
 31
0.0
  0
LINE
  5
604F
330
5E10
100
AcDbEntity
  8
寸法
 62
     0
370
    -2
100
AcDbLine
 10
2339.964208336057
 20
-1213.28927353589
 30
0.0
 11
2346.964208336057
 21
-1213.28927353589
 31
0.0
  0
INSERT
  5
6050
330
5E10
100
AcDbEntity
  8
寸法
 62
     0
370
    -2
100
AcDbBlockReference
  2
_OPEN
 10
2338.464208336057
 20
-1213.28927353589
 30
0.0
 41
1.5
 42
1.5
 43
1.5
 50
180.0
  0
INSERT
  5
6051
330
5E10
100
AcDbEntity
  8
寸法
 62
     0
370
    -2
100
AcDbBlockReference
  2
_OPEN
 10
2348.464208336057
 20
-1213.28927353589
 30
0.0
 41
1.5
 42
1.5
 43
1.5
  0
MTEXT
  5
6052
330
5E10
100
AcDbEntity
  8
寸法
 62
     7
100
AcDbMText
 10
2343.464208336057
 20
-1211.28927353589
 30
0.0
 40
3.0
 41
0.0
 71
     5
 72
     1
  1
\A1;10
 73
     1
 44
1.0
  0
POINT
  5
6053
330
5E10
100
AcDbEntity
  8
DEFPOINTS
 62
     0
100
AcDbPoint
 10
2338.464208336057
 20
-1203.441023114619
 30
0.0
  0
POINT
  5
6054
330
5E10
100
AcDbEntity
  8
DEFPOINTS
 62
     0
100
AcDbPoint
 10
2348.464208336057
 20
-1203.441023114619
 30
0.0
  0
POINT
  5
6055
330
5E10
100
AcDbEntity
  8
DEFPOINTS
 62
     0
100
AcDbPoint
 10
2348.464208336057
 20
-1213.28927353589
 30
0.0
  0
ENDBLK
  5
5E1B
330
5E10
100
AcDbEntity
  8
0
100
AcDbBlockEnd
  0
BLOCK
  5
5E26
330
5E1C
100
AcDbEntity
  8
0
100
AcDbBlockBegin
  2
*D10
 70
     1
 10
0.0
 20
0.0
 30
0.0
  3
*D10
  1

  0
LINE
  5
6056
330
5E1C
100
AcDbEntity
  8
寸法
 62
     0
370
    -2
100
AcDbLine
 10
2334.964208336057
 20
-1205.616023114619
 30
0.0
 11
2334.964208336057
 21
-1220.03927353589
 31
0.0
  0
LINE
  5
6057
330
5E1C
100
AcDbEntity
  8
寸法
 62
     0
370
    -2
100
AcDbLine
 10
2351.964208336057
 20
-1205.616023114619
 30
0.0
 11
2351.964208336057
 21
-1220.03927353589
 31
0.0
  0
LINE
  5
6058
330
5E1C
100
AcDbEntity
  8
寸法
 62
     0
370
    -2
100
AcDbLine
 10
2336.464208336057
 20
-1219.28927353589
 30
0.0
 11
2350.464208336057
 21
-1219.28927353589
 31
0.0
  0
INSERT
  5
6059
330
5E1C
100
AcDbEntity
  8
寸法
 62
     0
370
    -2
100
AcDbBlockReference
  2
_OPEN
 10
2334.964208336057
 20
-1219.28927353589
 30
0.0
 41
1.5
 42
1.5
 43
1.5
 50
180.0
  0
INSERT
  5
605A
330
5E1C
100
AcDbEntity
  8
寸法
 62
     0
370
    -2
100
AcDbBlockReference
  2
_OPEN
 10
2351.964208336057
 20
-1219.28927353589
 30
0.0
 41
1.5
 42
1.5
 43
1.5
  0
MTEXT
  5
605B
330
5E1C
100
AcDbEntity
  8
寸法
 62
     7
100
AcDbMText
 10
2343.464208336057
 20
-1217.28927353589
 30
0.0
 40
3.0
 41
0.0
 71
     5
 72
     1
  1
\A1;17
 73
     1
 44
1.0
  0
POINT
  5
605C
330
5E1C
100
AcDbEntity
  8
DEFPOINTS
 62
     0
100
AcDbPoint
 10
2334.964208336057
 20
-1205.116023114619
 30
0.0
  0
POINT
  5
605D
330
5E1C
100
AcDbEntity
  8
DEFPOINTS
 62
     0
100
AcDbPoint
 10
2351.964208336057
 20
-1205.116023114619
 30
0.0
  0
POINT
  5
605E
330
5E1C
100
AcDbEntity
  8
DEFPOINTS
 62
     0
100
AcDbPoint
 10
2351.964208336057
 20
-1219.28927353589
 30
0.0
  0
ENDBLK
  5
5E27
330
5E1C
100
AcDbEntity
  8
0
100
AcDbBlockEnd
  0
BLOCK
  5
5E34
330
5E28
100
AcDbEntity
  8
0
100
AcDbBlockBegin
  2
*D11
 70
     1
 10
0.0
 20
0.0
 30
0.0
  3
*D11
  1

  0
LINE
  5
6073
330
5E28
100
AcDbEntity
  8
寸法
 62
     0
370
    -2
100
AcDbLine
 10
2334.964208336057
 20
-1205.616023114619
 30
0.0
 11
2334.964208336057
 21
-1214.03927353589
 31
0.0
  0
LINE
  5
6074
330
5E28
100
AcDbEntity
  8
寸法
 62
     0
370
    -2
100
AcDbLine
 10
2338.464208336057
 20
-1203.941023114619
 30
0.0
 11
2338.464208336057
 21
-1214.03927353589
 31
0.0
  0
LINE
  5
6075
330
5E28
100
AcDbEntity
  8
寸法
 62
     0
370
    -2
100
AcDbLine
 10
2339.964208336057
 20
-1213.28927353589
 30
0.0
 11
2341.464208336057
 21
-1213.28927353589
 31
0.0
  0
LINE
  5
6076
330
5E28
100
AcDbEntity
  8
寸法
 62
     0
370
    -2
100
AcDbLine
 10
2333.464208336057
 20
-1213.28927353589
 30
0.0
 11
2324.639924692672
 21
-1213.28927353589
 31
0.0
  0
LINE
  5
6077
330
5E28
100
AcDbEntity
  8
寸法
 62
     0
370
    -2
100
AcDbLine
 10
2338.464208336057
 20
-1213.28927353589
 30
0.0
 11
2334.964208336057
 21
-1213.28927353589
 31
0.0
  0
INSERT
  5
6078
330
5E28
100
AcDbEntity
  8
寸法
 62
     0
370
    -2
100
AcDbBlockReference
  2
_OPEN
 10
2338.464208336057
 20
-1213.28927353589
 30
0.0
 41
1.5
 42
1.5
 43
1.5
 50
180.0
  0
INSERT
  5
6079
330
5E28
100
AcDbEntity
  8
寸法
 62
     0
370
    -2
100
AcDbBlockReference
  2
_OPEN
 10
2334.964208336057
 20
-1213.28927353589
 30
0.0
 41
1.5
 42
1.5
 43
1.5
  0
MTEXT
  5
607A
330
5E28
100
AcDbEntity
  8
寸法
 62
     7
100
AcDbMText
 10
2327.302056727028
 20
-1211.28927353589
 30
0.0
 40
3.0
 41
0.0
 71
     5
 72
     1
  1
\A1;3.5
 73
     1
 44
1.0
  0
POINT
  5
607B
330
5E28
100
AcDbEntity
  8
DEFPOINTS
 62
     0
100
AcDbPoint
 10
2334.964208336057
 20
-1205.116023114619
 30
0.0
  0
POINT
  5
607C
330
5E28
100
AcDbEntity
  8
DEFPOINTS
 62
     0
100
AcDbPoint
 10
2338.464208336057
 20
-1203.441023114619
 30
0.0
  0
POINT
  5
607D
330
5E28
100
AcDbEntity
  8
DEFPOINTS
 62
     0
100
AcDbPoint
 10
2338.464208336057
 20
-1213.28927353589
 30
0.0
  0
ENDBLK
  5
5E35
330
5E28
100
AcDbEntity
  8
0
100
AcDbBlockEnd
  0
BLOCK
  5
5E40
330
5E36
100
AcDbEntity
  8
0
100
AcDbBlockBegin
  2
*D12
 70
     1
 10
0.0
 20
0.0
 30
0.0
  3
*D12
  1

  0
LINE
  5
605F
330
5E36
100
AcDbEntity
  8
寸法
 62
     0
370
    -2
100
AcDbLine
 10
2342.964208336057
 20
-1195.116023114619
 30
0.0
 11
2316.119354796378
 21
-1195.116023114619
 31
0.0
  0
LINE
  5
6060
330
5E36
100
AcDbEntity
  8
寸法
 62
     0
370
    -2
100
AcDbLine
 10
2334.464208336057
 20
-1205.116023114619
 30
0.0
 11
2316.119354796378
 21
-1205.116023114619
 31
0.0
  0
LINE
  5
6061
330
5E36
100
AcDbEntity
  8
寸法
 62
     0
370
    -2
100
AcDbLine
 10
2316.869354796379
 20
-1196.616023114619
 30
0.0
 11
2316.869354796379
 21
-1203.616023114619
 31
0.0
  0
INSERT
  5
6062
330
5E36
100
AcDbEntity
  8
寸法
 62
     0
370
    -2
100
AcDbBlockReference
  2
_OPEN
 10
2316.869354796379
 20
-1195.116023114619
 30
0.0
 41
1.5
 42
1.5
 43
1.5
 50
90.0
  0
INSERT
  5
6063
330
5E36
100
AcDbEntity
  8
寸法
 62
     0
370
    -2
100
AcDbBlockReference
  2
_OPEN
 10
2316.869354796379
 20
-1205.116023114619
 30
0.0
 41
1.5
 42
1.5
 43
1.5
 50
270.0
  0
MTEXT
  5
6064
330
5E36
100
AcDbEntity
  8
寸法
 62
     7
100
AcDbMText
 10
2314.869354796379
 20
-1200.116023114619
 30
0.0
 40
3.0
 41
0.0
 71
     5
 72
     1
  1
\A1;10
 11
0.0000000000000001
 21
1.0
 31
0.0
 73
     1
 44
1.0
  0
POINT
  5
6065
330
5E36
100
AcDbEntity
  8
DEFPOINTS
 62
     0
100
AcDbPoint
 10
2343.464208336057
 20
-1195.116023114619
 30
0.0
  0
POINT
  5
6066
330
5E36
100
AcDbEntity
  8
DEFPOINTS
 62
     0
100
AcDbPoint
 10
2334.964208336057
 20
-1205.116023114619
 30
0.0
  0
POINT
  5
6067
330
5E36
100
AcDbEntity
  8
DEFPOINTS
 62
     0
100
AcDbPoint
 10
2316.869354796379
 20
-1205.116023114619
 30
0.0
  0
ENDBLK
  5
5E41
330
5E36
100
AcDbEntity
  8
0
100
AcDbBlockEnd
  0
BLOCK
  5
5E4C
330
5E42
100
AcDbEntity
  8
0
100
AcDbBlockBegin
  2
*D13
 70
     1
 10
0.0
 20
0.0
 30
0.0
  3
*D13
  1

  0
LINE
  5
607E
330
5E42
100
AcDbEntity
  8
寸法
 62
     0
370
    -2
100
AcDbLine
 10
2335.639208336057
 20
-1201.116023114619
 30
0.0
 11
2322.119354796379
 21
-1201.116023114619
 31
0.0
  0
LINE
  5
607F
330
5E42
100
AcDbEntity
  8
寸法
 62
     0
370
    -2
100
AcDbLine
 10
2334.464208336057
 20
-1205.116023114619
 30
0.0
 11
2322.119354796379
 21
-1205.116023114619
 31
0.0
  0
LINE
  5
6080
330
5E42
100
AcDbEntity
  8
寸法
 62
     0
370
    -2
100
AcDbLine
 10
2322.869354796379
 20
-1202.616023114619
 30
0.0
 11
2322.869354796379
 21
-1203.616023114619
 31
0.0
  0
INSERT
  5
6081
330
5E42
100
AcDbEntity
  8
寸法
 62
     0
370
    -2
100
AcDbBlockReference
  2
_OPEN
 10
2322.869354796379
 20
-1201.116023114619
 30
0.0
 41
1.5
 42
1.5
 43
1.5
 50
90.0
  0
INSERT
  5
6082
330
5E42
100
AcDbEntity
  8
寸法
 62
     0
370
    -2
100
AcDbBlockReference
  2
_OPEN
 10
2322.869354796379
 20
-1205.116023114619
 30
0.0
 41
1.5
 42
1.5
 43
1.5
 50
270.0
  0
MTEXT
  5
6083
330
5E42
100
AcDbEntity
  8
寸法
 62
     7
100
AcDbMText
 10
2320.869354796379
 20
-1203.116023114619
 30
0.0
 40
3.0
 41
0.0
 71
     5
 72
     1
  1
\A1;4
 11
0.0000000000000001
 21
1.0
 31
0.0
 73
     1
 44
1.0
  0
POINT
  5
6084
330
5E42
100
AcDbEntity
  8
DEFPOINTS
 62
     0
100
AcDbPoint
 10
2336.139208336057
 20
-1201.116023114619
 30
0.0
  0
POINT
  5
6085
330
5E42
100
AcDbEntity
  8
DEFPOINTS
 62
     0
100
AcDbPoint
 10
2334.964208336057
 20
-1205.116023114619
 30
0.0
  0
POINT
  5
6086
330
5E42
100
AcDbEntity
  8
DEFPOINTS
 62
     0
100
AcDbPoint
 10
2322.869354796379
 20
-1205.116023114619
 30
0.0
  0
ENDBLK
  5
5E4D
330
5E42
100
AcDbEntity
  8
0
100
AcDbBlockEnd
  0
BLOCK
  5
5E5A
330
5E4E
100
AcDbEntity
  8
0
100
AcDbBlockBegin
  2
*D14
 70
     1
 10
0.0
 20
0.0
 30
0.0
  3
*D14
  1

  0
LINE
  5
6068
330
5E4E
100
AcDbEntity
  8
寸法
 62
     0
370
    -2
100
AcDbLine
 10
2342.964208336057
 20
-1195.116023114619
 30
0.0
 11
2322.119354796378
 21
-1195.116023114619
 31
0.0
  0
LINE
  5
6069
330
5E4E
100
AcDbEntity
  8
寸法
 62
     0
370
    -2
100
AcDbLine
 10
2334.464208336057
 20
-1197.116023114619
 30
0.0
 11
2322.119354796378
 21
-1197.116023114619
 31
0.0
  0
LINE
  5
606A
330
5E4E
100
AcDbEntity
  8
寸法
 62
     0
370
    -2
100
AcDbLine
 10
2322.869354796378
 20
-1198.616023114619
 30
0.0
 11
2322.869354796378
 21
-1200.116023114619
 31
0.0
  0
LINE
  5
606B
330
5E4E
100
AcDbEntity
  8
寸法
 62
     0
370
    -2
100
AcDbLine
 10
2322.869354796378
 20
-1193.616023114619
 30
0.0
 11
2322.869354796378
 21
-1186.009458525579
 31
0.0
  0
LINE
  5
606C
330
5E4E
100
AcDbEntity
  8
寸法
 62
     0
370
    -2
100
AcDbLine
 10
2322.869354796378
 20
-1197.116023114619
 30
0.0
 11
2322.869354796378
 21
-1195.116023114619
 31
0.0
  0
INSERT
  5
606D
330
5E4E
100
AcDbEntity
  8
寸法
 62
     0
370
    -2
100
AcDbBlockReference
  2
_OPEN
 10
2322.869354796378
 20
-1197.116023114619
 30
0.0
 41
1.5
 42
1.5
 43
1.5
 50
90.0
  0
INSERT
  5
606E
330
5E4E
100
AcDbEntity
  8
寸法
 62
     0
370
    -2
100
AcDbBlockReference
  2
_OPEN
 10
2322.869354796378
 20
-1195.116023114619
 30
0.0
 41
1.5
 42
1.5
 43
1.5
 50
270.0
  0
MTEXT
  5
606F
330
5E4E
100
AcDbEntity
  8
寸法
 62
     7
100
AcDbMText
 10
2320.869059520788
 20
-1187.237637659437
 30
0.0
 40
3.0
 41
0.0
 71
     5
 72
     1
  1
\A1;2
 11
0.0000000000000001
 21
1.0
 31
0.0
 73
     1
 44
1.0
  0
POINT
  5
6070
330
5E4E
100
AcDbEntity
  8
DEFPOINTS
 62
     0
100
AcDbPoint
 10
2343.464208336057
 20
-1195.116023114619
 30
0.0
  0
POINT
  5
6071
330
5E4E
100
AcDbEntity
  8
DEFPOINTS
 62
     0
100
AcDbPoint
 10
2334.964208336057
 20
-1197.116023114619
 30
0.0
  0
POINT
  5
6072
330
5E4E
100
AcDbEntity
  8
DEFPOINTS
 62
     0
100
AcDbPoint
 10
2322.869354796378
 20
-1197.116023114619
 30
0.0
  0
ENDBLK
  5
5E5B
330
5E4E
100
AcDbEntity
  8
0
100
AcDbBlockEnd
  0
BLOCK
  5
5FB0
330
5FA6
100
AcDbEntity
  8
0
100
AcDbBlockBegin
  2
*D15
 70
     1
 10
0.0
 20
0.0
 30
0.0
  3
*D15
  1

  0
LINE
  5
6087
330
5FA6
100
AcDbEntity
  8
寸法
 62
     0
370
    -2
100
AcDbLine
 10
2334.462303332248
 20
-1144.650406648425
 30
0.0
 11
2321.571275192273
 21
-1144.650406648425
 31
0.0
  0
LINE
  5
6088
330
5FA6
100
AcDbEntity
  8
寸法
 62
     0
370
    -2
100
AcDbLine
 10
2334.462303332248
 20
-1132.150406648425
 30
0.0
 11
2321.571275192273
 21
-1132.150406648425
 31
0.0
  0
LINE
  5
6089
330
5FA6
100
AcDbEntity
  8
寸法
 62
     0
370
    -2
100
AcDbLine
 10
2322.321275192273
 20
-1143.150406648425
 30
0.0
 11
2322.321275192273
 21
-1133.650406648424
 31
0.0
  0
INSERT
  5
608A
330
5FA6
100
AcDbEntity
  8
寸法
 62
     0
370
    -2
100
AcDbBlockReference
  2
_OPEN
 10
2322.321275192273
 20
-1144.650406648425
 30
0.0
 41
1.5
 42
1.5
 43
1.5
 50
270.0
  0
INSERT
  5
608B
330
5FA6
100
AcDbEntity
  8
寸法
 62
     0
370
    -2
100
AcDbBlockReference
  2
_OPEN
 10
2322.321275192273
 20
-1132.150406648425
 30
0.0
 41
1.5
 42
1.5
 43
1.5
 50
90.0
  0
MTEXT
  5
608C
330
5FA6
100
AcDbEntity
  8
寸法
 62
     7
100
AcDbMText
 10
2320.320979916683
 20
-1138.400406648424
 30
0.0
 40
3.0
 41
0.0
 71
     5
 72
     1
  1
\A1;12.5
 11
0.0000000000000001
 21
1.0
 31
0.0
 73
     1
 44
1.0
  0
POINT
  5
608D
330
5FA6
100
AcDbEntity
  8
DEFPOINTS
 62
     0
100
AcDbPoint
 10
2334.962303332248
 20
-1144.650406648425
 30
0.0
  0
POINT
  5
608E
330
5FA6
100
AcDbEntity
  8
DEFPOINTS
 62
     0
100
AcDbPoint
 10
2334.962303332248
 20
-1132.150406648425
 30
0.0
  0
POINT
  5
608F
330
5FA6
100
AcDbEntity
  8
DEFPOINTS
 62
     0
100
AcDbPoint
 10
2322.321275192273
 20
-1132.150406648425
 30
0.0
  0
ENDBLK
  5
5FB1
330
5FA6
100
AcDbEntity
  8
0
100
AcDbBlockEnd
  0
BLOCK
  5
5FBE
330
5FB2
100
AcDbEntity
  8
0
100
AcDbBlockBegin
  2
*D16
 70
     1
 10
0.0
 20
0.0
 30
0.0
  3
*D16
  1

  0
LINE
  5
6090
330
5FB2
100
AcDbEntity
  8
寸法
 62
     0
370
    -2
100
AcDbLine
 10
2334.462303332248
 20
-1132.150406648425
 30
0.0
 11
2321.566306899028
 21
-1132.150406648425
 31
0.0
  0
LINE
  5
6091
330
5FB2
100
AcDbEntity
  8
寸法
 62
     0
370
    -2
100
AcDbLine
 10
2335.587301526918
 20
-1129.150406648425
 30
0.0
 11
2321.566306899028
 21
-1129.150406648425
 31
0.0
  0
LINE
  5
6092
330
5FB2
100
AcDbEntity
  8
寸法
 62
     0
370
    -2
100
AcDbLine
 10
2322.316306899028
 20
-1133.650406648424
 30
0.0
 11
2322.316306899028
 21
-1135.150406648425
 31
0.0
  0
LINE
  5
6093
330
5FB2
100
AcDbEntity
  8
寸法
 62
     0
370
    -2
100
AcDbLine
 10
2322.316306899028
 20
-1127.650406648424
 30
0.0
 11
2322.316306899028
 21
-1121.552768853149
 31
0.0
  0
LINE
  5
6094
330
5FB2
100
AcDbEntity
  8
寸法
 62
     0
370
    -2
100
AcDbLine
 10
2322.316306899028
 20
-1132.150406648425
 30
0.0
 11
2322.316306899028
 21
-1129.150406648425
 31
0.0
  0
INSERT
  5
6095
330
5FB2
100
AcDbEntity
  8
寸法
 62
     0
370
    -2
100
AcDbBlockReference
  2
_OPEN
 10
2322.316306899028
 20
-1132.150406648425
 30
0.0
 41
1.5
 42
1.5
 43
1.5
 50
90.0
  0
INSERT
  5
6096
330
5FB2
100
AcDbEntity
  8
寸法
 62
     0
370
    -2
100
AcDbBlockReference
  2
_OPEN
 10
2322.316306899028
 20
-1129.150406648425
 30
0.0
 41
1.5
 42
1.5
 43
1.5
 50
270.0
  0
MTEXT
  5
6097
330
5FB2
100
AcDbEntity
  8
寸法
 62
     7
100
AcDbMText
 10
2320.166306899028
 20
-1123.851587750786
 30
0.0
 40
3.0
 41
0.0
 71
     5
 72
     1
  1
\A1;(3)
 11
0.0000000000000001
 21
1.0
 31
0.0
 73
     1
 44
1.0
  0
POINT
  5
6098
330
5FB2
100
AcDbEntity
  8
DEFPOINTS
 62
     0
100
AcDbPoint
 10
2334.962303332248
 20
-1132.150406648425
 30
0.0
  0
POINT
  5
6099
330
5FB2
100
AcDbEntity
  8
DEFPOINTS
 62
     0
100
AcDbPoint
 10
2336.087301526918
 20
-1129.150406648425
 30
0.0
  0
POINT
  5
609A
330
5FB2
100
AcDbEntity
  8
DEFPOINTS
 62
     0
100
AcDbPoint
 10
2322.316306899028
 20
-1129.150406648425
 30
0.0
  0
ENDBLK
  5
5FBF
330
5FB2
100
AcDbEntity
  8
0
100
AcDbBlockEnd
  0
BLOCK
  5
6167
330
6161
100
AcDbEntity
  8
0
100
AcDbBlockBegin
  2
*D17
 70
     1
 10
0.0
 20
0.0
 30
0.0
  3
*D17
  1

  0
LINE
  5
61BC
330
6161
100
AcDbEntity
  8
寸法
 62
     0
370
    -2
100
AcDbLine
 10
2382.169649247181
 20
-1089.67506993119
 30
0.0
 11
2348.703440540395
 21
-1103.539058610991
 31
0.0
  0
MTEXT
  5
61BD
330
6161
100
AcDbEntity
  8
寸法
 62
     7
100
AcDbMText
 10
2365.363874969508
 20
-1094.472023224259
 30
0.0
 40
3.0
 41
0.0
 71
     5
 72
     1
  1
\A1;R21（曲げ半径MIN.）
 11
0.9238616592266716
 21
0.3827265794414358
 31
0.0
 73
     1
 44
1.0
  0
INSERT
  5
61BE
330
6161
100
AcDbEntity
  8
寸法
 62
     0
370
    -2
100
AcDbBlockReference
  2
_OPEN
 10
2347.317648051555
 20
-1104.113148480154
 30
0.0
 41
1.5
 42
1.5
 43
1.5
 50
202.5026758567526
  0
POINT
  5
61BF
330
6161
100
AcDbEntity
  8
DEFPOINTS
 62
     0
100
AcDbPoint
 10
2347.317648051555
 20
-1104.113148480154
 30
0.0
  0
POINT
  5
61C0
330
6161
100
AcDbEntity
  8
DEFPOINTS
 62
     0
100
AcDbPoint
 10
2327.916553207795
 20
-1112.150406648424
 30
0.0
  0
ENDBLK
  5
6168
330
6161
100
AcDbEntity
  8
0
100
AcDbBlockEnd
  0
BLOCK
  5
6174
330
6169
100
AcDbEntity
  8
0
100
AcDbBlockBegin
  2
*D18
 70
     1
 10
0.0
 20
0.0
 30
0.0
  3
*D18
  1

  0
LINE
  5
61C1
330
6169
100
AcDbEntity
  8
寸法
 62
     0
370
    -2
100
AcDbLine
 10
2342.493195428534
 20
-1100.910677934235
 30
0.0
 11
2342.345972289289
 21
-1100.708625101365
 31
0.0
  0
LINE
  5
61C2
330
6169
100
AcDbEntity
  8
寸法
 62
     0
370
    -2
100
AcDbLine
 10
2346.69589435223
 20
-1097.848436637934
 30
0.0
 11
2346.548671212985
 21
-1097.646383805064
 31
0.0
  0
LINE
  5
61C3
330
6169
100
AcDbEntity
  8
寸法
 62
     0
370
    -2
100
AcDbLine
 10
2343.999958704244
 20
-1100.431444764504
 30
0.0
 11
2345.778023633501
 21
-1099.135881139146
 31
0.0
  0
LINE
  5
61C4
330
6169
100
AcDbEntity
  8
寸法
 62
     0
370
    -2
100
AcDbLine
 10
2346.99034063072
 20
-1098.252542303674
 30
0.0
 11
2360.466669795141
 21
-1088.433192300475
 31
0.0
  0
INSERT
  5
61C5
330
6169
100
AcDbEntity
  8
寸法
 62
     0
370
    -2
100
AcDbBlockReference
  2
_OPEN
 10
2342.787641707025
 20
-1101.314783599975
 30
0.0
 41
1.5
 42
1.5
 43
1.5
 50
216.0784600100732
  0
INSERT
  5
61C6
330
6169
100
AcDbEntity
  8
寸法
 62
     0
370
    -2
100
AcDbBlockReference
  2
_OPEN
 10
2346.99034063072
 20
-1098.252542303674
 30
0.0
 41
1.5
 42
1.5
 43
1.5
 50
36.0784600100733
  0
MTEXT
  5
61C7
330
6169
100
AcDbEntity
  8
寸法
 62
     7
100
AcDbMText
 10
2353.156704711982
 20
-1091.284536576301
 30
0.0
 40
3.0
 41
0.0
 71
     5
 72
     1
  1
\A1;（φ5.2）
 11
0.8082113314798771
 21
0.5888925569809183
 31
0.0
 73
     1
 44
1.0
  0
POINT
  5
61C8
330
6169
100
AcDbEntity
  8
DEFPOINTS
 62
     0
100
AcDbPoint
 10
2342.787641707025
 20
-1101.314783599975
 30
0.0
  0
POINT
  5
61C9
330
6169
100
AcDbEntity
  8
DEFPOINTS
 62
     0
100
AcDbPoint
 10
2346.99034063072
 20
-1098.252542303674
 30
0.0
  0
POINT
  5
61CA
330
6169
100
AcDbEntity
  8
DEFPOINTS
 62
     0
100
AcDbPoint
 10
2346.99034063072
 20
-1098.252542303674
 30
0.0
  0
ENDBLK
  5
6175
330
6169
100
AcDbEntity
  8
0
100
AcDbBlockEnd
  0
BLOCK
  5
61E0
330
61D6
100
AcDbEntity
  8
0
100
AcDbBlockBegin
  2
*D19
 70
     1
 10
0.0
 20
0.0
 30
0.0
  3
*D19
  1

  0
LINE
  5
622D
330
61D6
100
AcDbEntity
  8
寸法
 62
     0
370
    -2
100
AcDbLine
 10
2334.462303332248
 20
-1132.150406648425
 30
0.0
 11
2308.219860347905
 21
-1132.150406648425
 31
0.0
  0
LINE
  5
622E
330
61D6
100
AcDbEntity
  8
寸法
 62
     0
370
    -2
100
AcDbLine
 10
2348.416553207795
 20
-1112.150406648424
 30
0.0
 11
2308.219860347905
 21
-1112.150406648424
 31
0.0
  0
LINE
  5
622F
330
61D6
100
AcDbEntity
  8
寸法
 62
     0
370
    -2
100
AcDbLine
 10
2308.969860347905
 20
-1113.650406648424
 30
0.0
 11
2308.969860347905
 21
-1130.650406648425
 31
0.0
  0
LINE
  5
6230
330
61D6
100
AcDbEntity
  8
寸法
 62
     0
370
    -2
100
AcDbLine
 10
2308.969860347905
 20
-1132.150406648425
 30
0.0
 11
2308.969860347905
 21
-1166.650851819498
 31
0.0
  0
INSERT
  5
6231
330
61D6
100
AcDbEntity
  8
寸法
 62
     0
370
    -2
100
AcDbBlockReference
  2
_OPEN
 10
2308.969860347905
 20
-1112.150406648424
 30
0.0
 41
1.5
 42
1.5
 43
1.5
 50
90.0
  0
INSERT
  5
6232
330
61D6
100
AcDbEntity
  8
寸法
 62
     0
370
    -2
100
AcDbBlockReference
  2
_OPEN
 10
2308.969860347905
 20
-1132.150406648425
 30
0.0
 41
1.5
 42
1.5
 43
1.5
 50
270.0
  0
MTEXT
  5
6233
330
61D6
100
AcDbEntity
  8
寸法
 62
     7
100
AcDbMText
 10
2306.969565072316
 20
-1150.150629233961
 30
0.0
 40
3.0
 41
0.0
 71
     5
 72
     1
  1
\A1;20（曲げ起点MIN.）
 11
0.0000000000000001
 21
1.0
 31
0.0
 73
     1
 44
1.0
  0
POINT
  5
6234
330
61D6
100
AcDbEntity
  8
DEFPOINTS
 62
     0
100
AcDbPoint
 10
2334.962303332248
 20
-1132.150406648425
 30
0.0
  0
POINT
  5
6235
330
61D6
100
AcDbEntity
  8
DEFPOINTS
 62
     0
100
AcDbPoint
 10
2348.916553207796
 20
-1112.150406648424
 30
0.0
  0
POINT
  5
6236
330
61D6
100
AcDbEntity
  8
DEFPOINTS
 62
     0
100
AcDbPoint
 10
2308.969860347905
 20
-1112.150406648424
 30
0.0
  0
ENDBLK
  5
61E1
330
61D6
100
AcDbEntity
  8
0
100
AcDbBlockEnd
  0
ENDSEC
  0
SECTION
  2
ENTITIES
  0
LWPOLYLINE
  5
57E9
330
18
100
AcDbEntity
  8
0
100
AcDbPolyline
 90
        4
 70
     1
 43
0.0
 10
2478.816681890977
 20
-1194.141023114618
 10
2479.816681890977
 20
-1194.141023114618
 10
2479.816681890977
 20
-1187.041023114618
 10
2478.816681890977
 20
-1187.041023114618
  0
LWPOLYLINE
  5
57EA
330
18
100
AcDbEntity
  8
0
100
AcDbPolyline
 90
        4
 70
     1
 43
0.0
 10
2474.316681890977
 20
-1187.041023114618
 10
2484.316681890977
 20
-1187.041023114618
 10
2484.316681890977
 20
-1182.041023114619
 10
2474.316681890977
 20
-1182.041023114619
  0
DIMENSION
  5
57EB
330
18
100
AcDbEntity
  8
寸法
100
AcDbDimension
  2
*D6
 10
2515.882330316456
 20
-1171.581148820147
 30
0.0
 11
2479.349506103716
 21
-1169.081148820147
 31
0.0
 70
    32
  1
※　Ｌ
 71
     5
 42
73.06564842547913
  3
STANDARD
100
AcDbAlignedDimension
 13
2442.816681890977
 23
-1188.316023114619
 33
0.0
 14
2515.882330316456
 24
-1187.941016304945
 34
0.0
100
AcDbRotatedDimension
1001
ACAD
1000
DSTYLE
1002
{
1070
    47
1040
20.0
1070
    48
1040
20.00000002
1070
    72
1070
     0
1070
    71
1070
     0
1070
    40
1040
2.0
1070
    41
1040
1.0
1070
    42
1040
0.5
1070
    43
1040
5.0
1070
    44
1040
0.75
1070
    73
1070
     0
1070
    74
1070
     0
1070
    77
1070
     1
1070
    78
1070
     9
1070
   140
1040
1.5
1070
   141
1040
2.5
1070
   143
1040
0.0394
1070
   147
1040
0.5
1070
   171
1070
     4
1070
   172
1070
     1
1070
   173
1070
     1
1070
   178
1070
     7
1070
   273
1070
     8
1070
   274
1070
     4
1070
   279
1070
     2
1070
   284
1070
     9
1070
   341
1005
24
1070
   343
1005
24
1070
   344
1005
24
1002
}
  0
SPLINE
  5
57EC
330
18
100
AcDbEntity
  8
0
100
AcDbSpline
210
0.0
220
0.0
230
1.0
 70
     8
 71
     3
 72
    11
 73
     7
 74
     5
 42
0.0000000001
 43
0.0000000001
 44
0.0000000001
 40
0.0
 40
0.0
 40
0.0
 40
0.0
 40
1.397542485937368
 40
2.795084971874737
 40
4.747807430392501
 40
6.14534991632987
 40
6.14534991632987
 40
6.14534991632987
 40
6.14534991632987
 10
2459.316683073755
 20
-1188.156024393421
 30
0.0
 10
2459.00060397233
 20
-1188.574616589217
 30
0.0
 10
2458.368445769482
 20
-1189.411800980809
 30
0.0
 10
2459.490883376539
 20
-1190.794616106576
 30
0.0
 10
2460.263538979714
 20
-1192.365611269071
 30
0.0
 10
2459.595395168977
 20
-1193.346748860921
 30
0.0
 10
2459.316683073755
 20
-1193.756024393421
 30
0.0
 11
2459.316683073755
 21
-1188.156024393421
 31
0.0
 11
2458.691683073755
 21
-1189.406024393421
 31
0.0
 11
2459.316683073755
 21
-1190.656024393421
 31
0.0
 11
2459.941683073755
 21
-1192.506024393421
 31
0.0
 11
2459.316683073755
 21
-1193.756024393421
 31
0.0
  0
SPLINE
  5
57ED
330
18
100
AcDbEntity
  8
0
100
AcDbSpline
210
0.0
220
0.0
230
1.0
 70
     8
 71
     3
 72
    11
 73
     7
 74
     5
 42
0.0000000001
 43
0.0000000001
 44
0.0000000001
 40
0.0
 40
0.0
 40
0.0
 40
0.0
 40
1.397542485937368
 40
2.795084971874737
 40
4.747807430392501
 40
6.14534991632987
 40
6.14534991632987
 40
6.14534991632987
 40
6.14534991632987
 10
2460.316683073755
 20
-1188.156024393421
 30
0.0
 10
2460.00060397233
 20
-1188.574616589217
 30
0.0
 10
2459.368445769483
 20
-1189.411800980809
 30
0.0
 10
2460.490883376539
 20
-1190.794616106576
 30
0.0
 10
2461.263538979714
 20
-1192.365611269071
 30
0.0
 10
2460.595395168978
 20
-1193.346748860921
 30
0.0
 10
2460.316683073755
 20
-1193.756024393421
 30
0.0
 11
2460.316683073755
 21
-1188.156024393421
 31
0.0
 11
2459.691683073755
 21
-1189.406024393421
 31
0.0
 11
2460.316683073755
 21
-1190.656024393421
 31
0.0
 11
2460.941683073755
 21
-1192.506024393421
 31
0.0
 11
2460.316683073755
 21
-1193.756024393421
 31
0.0
  0
LWPOLYLINE
  5
57EE
330
18
100
AcDbEntity
  8
基板
100
AcDbPolyline
 90
        4
 70
     0
 43
0.0
 10
2432.809061875737
 20
-1190.116023114618
 10
2432.809061875737
 20
-1195.116023114618
 10
2442.809061875737
 20
-1195.116023114618
 10
2442.809061875738
 20
-1190.116023114618
  0
LWPOLYLINE
  5
57EF
330
18
100
AcDbEntity
  8
ﾌﾞﾛｯｸ
 48
5.0
100
AcDbPolyline
 90
        4
 70
     1
 43
0.0
 10
2443.309061875737
 20
-1195.116023114618
 10
2430.809061875737
 20
-1195.116023114618
 10
2430.809061875737
 20
-1205.116023114618
 10
2443.309061875737
 20
-1205.116023114618
  0
LINE
  5
57F0
330
18
100
AcDbEntity
  8
ﾌﾞﾛｯｸ
  6
HIDDEN2
 48
5.0
370
    13
100
AcDbLine
 10
2433.809042301064
 20
-1195.116023114618
 30
0.0
 11
2436.809042301064
 21
-1195.116023114618
 31
0.0
  0
LINE
  5
57F2
330
18
100
AcDbEntity
  8
0
 62
     3
100
AcDbLine
 10
2432.809061875737
 20
-1193.516023114618
 30
0.0
 11
2442.816681890977
 21
-1193.516023114618
 31
0.0
  0
LINE
  5
57F3
330
18
100
AcDbEntity
  8
0
 62
     3
100
AcDbLine
 10
2432.809061875737
 20
-1190.116023114618
 30
0.0
 11
2442.816681890977
 21
-1190.116023114618
 31
0.0
  0
LWPOLYLINE
  5
57F4
330
18
100
AcDbEntity
  8
0
370
    30
100
AcDbPolyline
 90
        2
 70
     0
 43
0.0
 10
2460.494472157501
 20
-1193.516023114618
 10
2478.816681890977
 20
-1193.516023114618
  0
LEADER
  5
57F8
330
18
100
AcDbEntity
  8
寸法
100
AcDbLeader
  3
STANDARD
 76
     3
 10
2483.589591227763
 20
-1180.596175647218
 30
0.0
 10
2495.453680372216
 20
-1160.646970463498
 30
0.0
 10
2525.157231555978
 20
-1160.646970463498
 30
0.0
1001
ACAD
1000
DSTYLE
1002
{
1070
    41
1040
1.5
1070
    42
1040
0.5
1070
    43
1040
5.0
1070
    44
1040
0.75
1070
    73
1070
     0
1070
    74
1070
     0
1070
    77
1070
     0
1070
    78
1070
     9
1070
    79
1070
     2
1070
   140
1040
3.0
1070
   141
1040
2.5
1070
   143
1040
0.0394
1070
   147
1040
0.5
1070
   171
1070
     4
1070
   172
1070
     1
1070
   173
1070
     1
1070
   178
1070
     7
1070
   273
1070
     8
1070
   274
1070
     4
1070
   279
1070
     2
1070
   284
1070
     9
1070
   341
1005
24
1070
   343
1005
24
1070
   344
1005
24
1002
}
  0
LINE
  5
57F9
330
18
100
AcDbEntity
  8
A
 62
     7
100
AcDbLine
 10
2485.882296490351
 20
-1193.716023114618
 30
0.0
 11
2485.882296490351
 21
-1188.116023114619
 31
0.0
  0
LINE
  5
57FA
330
18
100
AcDbEntity
  8
A
 62
     7
100
AcDbLine
 10
2496.632296490351
 20
-1187.116023114619
 30
0.0
 11
2496.63229649035
 21
-1194.716023114619
 31
0.0
  0
LINE
  5
57FB
330
18
100
AcDbEntity
  8
A
 62
     7
100
AcDbLine
 10
2498.632296490351
 20
-1194.541020844727
 30
0.0
 11
2498.632296490351
 21
-1187.191025384509
 31
0.0
  0
LINE
  5
57FD
330
18
100
AcDbEntity
  8
A
 62
     7
100
AcDbLine
 10
2509.132296490349
 20
-1194.541020844727
 30
0.0
 11
2509.132296490349
 21
-1187.191020844727
 31
0.0
  0
LWPOLYLINE
  5
57FE
330
18
100
AcDbEntity
  8
0
100
AcDbPolyline
 90
        4
 70
     1
 43
0.0
 10
2509.132330316456
 20
-1193.791025384509
 10
2515.882330316456
 20
-1193.791025384509
 10
2515.882330316456
 20
-1191.166025384509
 10
2509.132330316456
 20
-1191.166025384509
  0
LINE
  5
5802
330
18
100
AcDbEntity
  8
A
 62
     7
100
AcDbLine
 10
2499.382296490351
 20
-1195.291020844727
 30
0.0
 11
2499.382296490351
 21
-1194.541020844727
 31
0.0
  0
LINE
  5
5803
330
18
100
AcDbEntity
  8
A
 62
     7
100
AcDbLine
 10
2498.632296490351
 20
-1195.291020844727
 30
0.0
 11
2498.632296490351
 21
-1194.541020844727
 31
0.0
  0
LINE
  5
5804
330
18
100
AcDbEntity
  8
A
 62
     7
100
AcDbLine
 10
2498.632330316456
 20
-1195.291025384509
 30
0.0
 11
2499.382330316456
 21
-1195.291025384509
 31
0.0
  0
LINE
  5
5805
330
18
100
AcDbEntity
  8
A
 62
     7
100
AcDbLine
 10
2498.632330316456
 20
-1194.541025384509
 30
0.0
 11
2509.132330316456
 21
-1194.541025384509
 31
0.0
  0
LINE
  5
5806
330
18
100
AcDbEntity
  8
A
 62
     7
100
AcDbLine
 10
2498.632296490351
 20
-1193.366020088097
 30
0.0
 11
2496.632296490351
 21
-1193.366020088097
 31
0.0
  0
LINE
  5
5807
330
18
100
AcDbEntity
  8
PIC11
  6
Continuous
100
AcDbLine
 10
2502.71979649035
 20
-1183.666020844728
 30
0.0
 11
2511.49479649035
 21
-1185.128520844727
 31
0.0
  0
LINE
  5
5808
330
18
100
AcDbEntity
  8
PIC11
  6
Continuous
100
AcDbLine
 10
2511.49479649035
 20
-1186.115158594728
 30
0.0
 11
2509.132296490349
 21
-1186.441020844727
 31
0.0
  0
LWPOLYLINE
  5
5809
330
18
100
AcDbEntity
  8
0
100
AcDbPolyline
 90
        4
 70
     1
 43
0.0
 10
2509.132330316456
 20
-1187.941016304945
 10
2515.882330316456
 20
-1187.941016304945
 10
2515.882330316456
 20
-1190.566016304945
 10
2509.132330316456
 20
-1190.566016304945
  0
LINE
  5
580A
330
18
100
AcDbEntity
  8
PIC11
  6
Continuous
100
AcDbLine
 10
2506.861142740349
 20
-1186.591020844726
 30
0.0
 11
2503.05729649035
 21
-1184.978520844727
 31
0.0
  0
LWPOLYLINE
  5
5810
330
18
100
AcDbEntity
  8
0
370
    30
100
AcDbPolyline
 90
        2
 70
     0
 43
0.0
 10
2479.816681890977
 20
-1193.516023114618
 10
2482.627698083979
 20
-1193.516023114618
  0
LINE
  5
5811
330
18
100
AcDbEntity
  8
0
100
AcDbLine
 10
2509.132296490349
 20
-1186.441020844727
 30
0.0
 11
2509.132330316456
 21
-1187.191025384509
 31
0.0
  0
LINE
  5
5812
330
18
100
AcDbEntity
  8
0
100
AcDbLine
 10
2506.861142740349
 20
-1186.591020844726
 30
0.0
 11
2506.861142740349
 21
-1187.191025384509
 31
0.0
  0
LINE
  5
5813
330
18
100
AcDbEntity
  8
A
 62
     7
100
AcDbLine
 10
2498.632330316456
 20
-1186.441025384509
 30
0.0
 11
2499.382330316456
 21
-1186.441025384509
 31
0.0
  0
LINE
  5
5814
330
18
100
AcDbEntity
  8
A
 62
     7
100
AcDbLine
 10
2498.632296490351
 20
-1187.191020844727
 30
0.0
 11
2498.632296490351
 21
-1186.441020844727
 31
0.0
  0
LINE
  5
5815
330
18
100
AcDbEntity
  8
A
 62
     7
100
AcDbLine
 10
2499.382296490351
 20
-1187.191020844727
 30
0.0
 11
2499.382296490351
 21
-1186.441020844727
 31
0.0
  0
LINE
  5
5816
330
18
100
AcDbEntity
  8
A
 62
     7
100
AcDbLine
 10
2498.632330316456
 20
-1187.191025384509
 30
0.0
 11
2509.132330316456
 21
-1187.191025384509
 31
0.0
  0
LINE
  5
5817
330
18
100
AcDbEntity
  8
A
 62
     7
100
AcDbLine
 10
2498.632296490351
 20
-1190.366020088097
 30
0.0
 11
2496.632296490351
 21
-1190.366020088097
 31
0.0
  0
LINE
  5
5818
330
18
100
AcDbEntity
  8
A
 62
     7
100
AcDbLine
 10
2498.632296490351
 20
-1189.366020088097
 30
0.0
 11
2496.632296490351
 21
-1189.366020088097
 31
0.0
  0
LINE
  5
5819
330
18
100
AcDbEntity
  8
A
 62
     7
100
AcDbLine
 10
2498.632296490351
 20
-1192.366020088097
 30
0.0
 11
2496.632296490351
 21
-1192.366020088097
 31
0.0
  0
LINE
  5
581A
330
18
100
AcDbEntity
  8
A
 62
     7
100
AcDbLine
 10
2498.632296490351
 20
-1191.366020088097
 30
0.0
 11
2496.632296490351
 21
-1191.366020088097
 31
0.0
  0
LINE
  5
581B
330
18
100
AcDbEntity
  8
A
 62
     7
100
AcDbLine
 10
2498.632296490351
 20
-1188.366020088097
 30
0.0
 11
2496.632296490351
 21
-1188.366020088097
 31
0.0
  0
LINE
  5
581C
330
18
100
AcDbEntity
  8
PIC11
  6
Continuous
100
AcDbLine
 10
2503.05729649035
 20
-1184.978520844728
 30
0.0
 11
2502.71979649035
 21
-1183.666020844728
 31
0.0
  0
LINE
  5
581D
330
18
100
AcDbEntity
  8
PIC11
  6
Continuous
100
AcDbLine
 10
2511.49479649035
 20
-1185.128520844727
 30
0.0
 11
2511.49479649035
 21
-1186.115158594728
 31
0.0
  0
MTEXT
  5
581E
330
18
100
AcDbEntity
  8
寸法
 62
     7
100
AcDbMText
 10
2497.043151075124
 20
-1159.934633345869
 30
0.0
 40
2.5
 41
0.0
 71
     7
 72
     1
  1
{\fＭＳ Ｐゴシック|b0|i0|c128|p50;装置銘板，検査証}
 73
     1
 44
1.0
1001
ACAD
1000
MTEXTBEGIN
1070
    73
1070
     1
1070
    44
1040
0.8
1070
    74
1070
     0
1000
MTEXTEND
1000
MTEXTBEGIN
1070
    73
1070
     1
1070
    44
1040
0.8
1070
    74
1070
     0
1000
MTEXTEND
  0
SPLINE
  5
588D
330
18
100
AcDbEntity
  8
0
100
AcDbSpline
210
0.0
220
0.0
230
1.0
 70
     8
 71
     3
 72
    11
 73
     7
 74
     5
 42
0.0000000001
 43
0.0000000001
 44
0.0000000001
 40
0.0
 40
0.0
 40
0.0
 40
0.0
 40
1.397542485937368
 40
2.795084971874737
 40
4.747807430392501
 40
6.14534991632987
 40
6.14534991632987
 40
6.14534991632987
 40
6.14534991632987
 10
2483.449909000233
 20
-1188.156024393421
 30
0.0
 10
2483.133829898809
 20
-1188.574616589217
 30
0.0
 10
2482.501671695962
 20
-1189.411800980809
 30
0.0
 10
2483.624109303017
 20
-1190.794616106576
 30
0.0
 10
2484.396764906193
 20
-1192.365611269071
 30
0.0
 10
2483.728621095456
 20
-1193.346748860921
 30
0.0
 10
2483.449909000233
 20
-1193.756024393421
 30
0.0
 11
2483.449909000233
 21
-1188.156024393421
 31
0.0
 11
2482.824909000234
 21
-1189.406024393421
 31
0.0
 11
2483.449909000233
 21
-1190.656024393421
 31
0.0
 11
2484.074909000233
 21
-1192.506024393421
 31
0.0
 11
2483.449909000233
 21
-1193.756024393421
 31
0.0
  0
SPLINE
  5
588E
330
18
100
AcDbEntity
  8
0
100
AcDbSpline
210
0.0
220
0.0
230
1.0
 70
     8
 71
     3
 72
    11
 73
     7
 74
     5
 42
0.0000000001
 43
0.0000000001
 44
0.0000000001
 40
0.0
 40
0.0
 40
0.0
 40
0.0
 40
1.397542485937368
 40
2.795084971874737
 40
4.747807430392501
 40
6.14534991632987
 40
6.14534991632987
 40
6.14534991632987
 40
6.14534991632987
 10
2482.449909000234
 20
-1188.156024393421
 30
0.0
 10
2482.133829898809
 20
-1188.574616589217
 30
0.0
 10
2481.501671695961
 20
-1189.411800980809
 30
0.0
 10
2482.624109303017
 20
-1190.794616106576
 30
0.0
 10
2483.396764906192
 20
-1192.365611269071
 30
0.0
 10
2482.728621095456
 20
-1193.346748860921
 30
0.0
 10
2482.449909000234
 20
-1193.756024393421
 30
0.0
 11
2482.449909000234
 21
-1188.156024393421
 31
0.0
 11
2481.824909000233
 21
-1189.406024393421
 31
0.0
 11
2482.449909000234
 21
-1190.656024393421
 31
0.0
 11
2483.074909000233
 21
-1192.506024393421
 31
0.0
 11
2482.449909000234
 21
-1193.756024393421
 31
0.0
  0
LWPOLYLINE
  5
5890
330
18
100
AcDbEntity
  8
0
370
    30
100
AcDbPolyline
 90
        2
 70
     0
 43
0.0
 10
2483.627698083979
 20
-1193.516023114618
 10
2485.882296490351
 20
-1193.516023114618
  0
MTEXT
  5
58A0
330
18
100
AcDbEntity
  8
CIRCUIT
 62
     7
100
AcDbMText
 10
2444.013491245507
 20
-1132.841426426237
 30
0.0
 40
3.0
 41
0.0
 71
     7
 72
     1
  1
Ｌ寸法：330±20mm　（300+30±20）
 73
     1
 44
1.0
1001
ACAD
1000
MTEXTBEGIN
1070
    73
1070
     1
1070
    44
1040
0.8
1070
    74
1070
     0
1000
MTEXTEND
1000
MTEXTBEGIN
1070
    73
1070
     1
1070
    44
1040
0.8
1070
    74
1070
     0
1000
MTEXTEND
  0
MTEXT
  5
58A1
330
18
100
AcDbEntity
  8
CIRCUIT
 62
     7
100
AcDbMText
 10
2436.730343178784
 20
-1114.396042162241
 30
0.0
 40
3.0
 41
0.0
 71
     7
 72
     1
  1
1m以上の場合、Ｌ＝製品型式長さ±50mm
 73
     1
 44
1.0
1001
ACAD
1000
MTEXTBEGIN
1070
    73
1070
     1
1070
    44
1040
0.8
1070
    74
1070
     0
1000
MTEXTEND
1000
MTEXTBEGIN
1070
    73
1070
     1
1070
    44
1040
0.8
1070
    74
1070
     0
1000
MTEXTEND
  0
MTEXT
  5
58A2
330
18
100
AcDbEntity
  8
CIRCUIT
 62
     7
100
AcDbMText
 10
2436.730343178784
 20
-1119.340689912691
 30
0.0
 40
3.0
 41
0.0
 71
     7
 72
     1
  1
1m未満の場合、Ｌ＝製品型式長さ＋30 ±20mm
 73
     1
 44
1.0
1001
ACAD
1000
MTEXTBEGIN
1070
    73
1070
     1
1070
    44
1040
0.8
1070
    74
1070
     0
1000
MTEXTEND
1000
MTEXTBEGIN
1070
    73
1070
     1
1070
    44
1040
0.8
1070
    74
1070
     0
1000
MTEXTEND
  0
MTEXT
  5
58A3
330
18
100
AcDbEntity
  8
CIRCUIT
 62
     7
100
AcDbMText
 10
2436.475202910946
 20
-1123.91371349494
 30
0.0
 40
3.0
 41
0.0
 71
     7
 72
     1
  1
例：NSR-PAA4D1A-030 \U+2192 製品型式長さ：300mm
 73
     1
 44
1.0
1001
ACAD
1000
MTEXTBEGIN
1070
    73
1070
     1
1070
    44
1040
0.8
1070
    74
1070
     0
1000
MTEXTEND
1000
MTEXTBEGIN
1070
    73
1070
     1
1070
    44
1040
0.8
1070
    74
1070
     0
1000
MTEXTEND
  0
MTEXT
  5
58A4
330
18
100
AcDbEntity
  8
CIRCUIT
 62
     7
100
AcDbMText
 10
2479.894656141092
 20
-1128.416128026508
 30
0.0
 40
3.0
 41
0.0
 71
     7
 72
     1
  1
10mm単位
 73
     1
 44
1.0
1001
ACAD
1000
MTEXTBEGIN
1070
    73
1070
     1
1070
    44
1040
0.8
1070
    74
1070
     0
1000
MTEXTEND
1000
MTEXTBEGIN
1070
    73
1070
     1
1070
    44
1040
0.8
1070
    74
1070
     0
1000
MTEXTEND
  0
LWPOLYLINE
  5
58A5
330
18
100
AcDbEntity
  8
0
 48
0.5
100
AcDbPolyline
 90
        4
 70
     1
 43
0.0
 10
2429.200595967337
 20
-1100.398991529364
 10
2529.26997173468
 20
-1100.398991529364
 10
2529.26997173468
 20
-1134.651615852818
 10
2429.200595967337
 20
-1134.651615852818
  0
LINE
  5
58A6
330
18
100
AcDbEntity
  8
0
100
AcDbLine
 10
2471.85167273405
 20
-1124.425108933236
 30
0.0
 11
2478.350076984726
 21
-1124.425108933236
 31
0.0
  0
LINE
  5
58A7
330
18
100
AcDbEntity
  8
0
100
AcDbLine
 10
2475.616061927245
 20
-1127.490487894989
 30
0.0
 11
2478.616061927245
 21
-1127.490487894989
 31
0.0
  0
LINE
  5
58A8
330
18
100
AcDbEntity
  8
0
100
AcDbLine
 10
2475.616061927245
 20
-1124.425108933236
 30
0.0
 11
2475.616061927245
 21
-1127.425108933236
 31
0.0
  0
MTEXT
  5
58A9
330
18
100
AcDbEntity
  8
CIRCUIT
 62
     7
100
AcDbMText
 10
2432.423087765053
 20
-1106.035322010435
 30
0.0
 40
3.0
 41
0.0
 71
     7
 72
     1
  1
{\L\U+203BＬ寸法は以下の通りになります。}
  7
MSｺﾞｼｯｸ
 73
     1
 44
1.0
1001
ACAD
1000
MTEXTBEGIN
1070
    73
1070
     1
1070
    44
1040
0.8
1070
    74
1070
     0
1000
MTEXTEND
1000
MTEXTBEGIN
1070
    73
1070
     1
1070
    44
1040
0.8
1070
    74
1070
     0
1000
MTEXTEND
  0
MTEXT
  5
58AA
330
18
100
AcDbEntity
  8
CIRCUIT
 62
     7
100
AcDbMText
 10
2434.730343178784
 20
-1109.932938245737
 30
0.0
 40
3.0
 41
0.0
 71
     7
 72
     1
  1
製品型式長さが
 73
     1
 44
1.0
1001
ACAD
1000
MTEXTBEGIN
1070
    73
1070
     1
1070
    44
1040
0.8
1070
    74
1070
     0
1000
MTEXTEND
1000
MTEXTBEGIN
1070
    73
1070
     1
1070
    44
1040
0.8
1070
    74
1070
     0
1000
MTEXTEND
  0
TEXT
  5
58CC
330
18
100
AcDbEntity
  8
CIRCUIT
 62
     7
100
AcDbText
 10
2550.725632466425
 20
-1113.667284987915
 30
0.0
 40
2.7
  1
ＰＳ
  7
MSｺﾞｼｯｸ
 72
     1
 11
2554.234261908049
 21
-1112.317284987915
 31
0.0
100
AcDbText
 73
     2
  0
TEXT
  5
58CD
330
18
100
AcDbEntity
  8
CIRCUIT
 62
     7
100
AcDbText
 10
2541.07961879973
 20
-1113.667284987915
 30
0.0
 40
2.7
  1
2
  7
MSｺﾞｼｯｸ
 72
     1
 11
2541.956776160136
 21
-1112.317284987915
 31
0.0
100
AcDbText
 73
     2
  0
LINE
  5
58CE
330
18
100
AcDbEntity
  8
CIRCUIT
 62
     7
100
AcDbLine
 10
2562.724414977358
 20
-1100.120928622462
 30
0.0
 11
2562.724414977359
 21
-1132.620928622462
 31
0.0
  0
LINE
  5
58CF
330
18
100
AcDbEntity
  8
CIRCUIT
 62
     7
100
AcDbLine
 10
2538.224418221089
 20
-1132.620928622462
 30
0.0
 11
2538.224429934557
 21
-1100.120928622462
 31
0.0
  0
LINE
  5
58D0
330
18
100
AcDbEntity
  8
CIRCUIT
 62
     7
100
AcDbLine
 10
2545.724429934557
 20
-1132.620928622462
 30
0.0
 11
2545.724429934557
 21
-1100.120928622462
 31
0.0
  0
TEXT
  5
58D1
330
18
100
AcDbEntity
  8
CIRCUIT
 62
     7
100
AcDbText
 10
2548.971317745612
 20
-1127.056087605023
 30
0.0
 40
2.7
  1
ＰＳ＊
  7
MSｺﾞｼｯｸ
 72
     1
 11
2554.234261908049
 21
-1125.706087605023
 31
0.0
100
AcDbText
 73
     2
  0
TEXT
  5
58D2
330
18
100
AcDbEntity
  8
CIRCUIT
 62
     7
100
AcDbText
 10
2541.07961879973
 20
-1127.056087605023
 30
0.0
 40
2.7
  1
5
  7
MSｺﾞｼｯｸ
 72
     1
 11
2541.956776160136
 21
-1125.706087605023
 31
0.0
100
AcDbText
 73
     2
  0
LINE
  5
58D3
330
18
100
AcDbEntity
  8
CIRCUIT
 62
     7
100
AcDbLine
 10
2538.224414977358
 20
-1132.620928622462
 30
0.0
 11
2562.724414977358
 21
-1132.620928622462
 31
0.0
  0
LINE
  5
58D4
330
18
100
AcDbEntity
  8
CIRCUIT
 62
     7
100
AcDbLine
 10
2538.224414977358
 20
-1128.120928622462
 30
0.0
 11
2562.724414977358
 21
-1128.120928622462
 31
0.0
  0
TEXT
  5
58D5
330
18
100
AcDbEntity
  8
CIRCUIT
 62
     7
100
AcDbText
 10
2541.07961879973
 20
-1131.720941928664
 30
0.0
 40
2.7
  1
6
  7
MSｺﾞｼｯｸ
 72
     1
 11
2541.956776160136
 21
-1130.370941928664
 31
0.0
100
AcDbText
 73
     2
  0
TEXT
  5
58D6
330
18
100
AcDbEntity
  8
CIRCUIT
 62
     7
100
AcDbText
 10
2548.971317745612
 20
-1131.720941928664
 30
0.0
 40
2.7
  1
ＰＣ＊
  7
MSｺﾞｼｯｸ
 72
     1
 11
2554.234261908049
 21
-1130.370941928664
 31
0.0
100
AcDbText
 73
     2
  0
LINE
  5
58D7
330
18
100
AcDbEntity
  8
CIRCUIT
 62
     7
100
AcDbLine
 10
2538.224414977358
 20
-1114.620928622462
 30
0.0
 11
2562.724414977358
 21
-1114.620928622462
 31
0.0
  0
LINE
  5
58D8
330
18
100
AcDbEntity
  8
CIRCUIT
 62
     7
100
AcDbLine
 10
2538.224414977358
 20
-1119.120928622462
 30
0.0
 11
2562.724414977358
 21
-1119.120928622462
 31
0.0
  0
LINE
  5
58D9
330
18
100
AcDbEntity
  8
CIRCUIT
 62
     7
100
AcDbLine
 10
2538.224414977358
 20
-1123.620928622462
 30
0.0
 11
2562.724414977358
 21
-1123.620928622462
 31
0.0
  0
TEXT
  5
58DA
330
18
100
AcDbEntity
  8
CIRCUIT
 62
     7
100
AcDbText
 10
2541.07961879973
 20
-1118.199485651811
 30
0.0
 40
2.7
  1
3
  7
MSｺﾞｼｯｸ
 72
     1
 11
2541.956776160136
 21
-1116.849485651812
 31
0.0
100
AcDbText
 73
     2
  0
TEXT
  5
58DB
330
18
100
AcDbEntity
  8
CIRCUIT
 62
     7
100
AcDbText
 10
2541.07961879973
 20
-1122.74239820552
 30
0.0
 40
2.7
  1
4
  7
MSｺﾞｼｯｸ
 72
     1
 11
2541.956776160136
 21
-1121.39239820552
 31
0.0
100
AcDbText
 73
     2
  0
TEXT
  5
58DC
330
18
100
AcDbEntity
  8
CIRCUIT
 62
     7
100
AcDbText
 10
2550.725632466425
 20
-1118.199485651811
 30
0.0
 40
2.7
  1
ＰＣ
  7
MSｺﾞｼｯｸ
 72
     1
 11
2554.234261908049
 21
-1116.849485651812
 31
0.0
100
AcDbText
 73
     2
  0
TEXT
  5
58DD
330
18
100
AcDbEntity
  8
CIRCUIT
 62
     7
100
AcDbText
 10
2548.971317745612
 20
-1122.74239820552
 30
0.0
 40
2.7
  1
ＧＮＤ
  7
MSｺﾞｼｯｸ
 72
     1
 11
2554.234261908049
 21
-1121.39239820552
 31
0.0
100
AcDbText
 73
     2
  0
TEXT
  5
58DE
330
18
100
AcDbEntity
  8
CIRCUIT
 62
     7
100
AcDbText
 10
2541.700519817775
 20
-1098.465783679819
 30
0.0
 40
2.7
  1
ﾋﾟﾝ配置表
  7
MSｺﾞｼｯｸ
 72
     1
 11
2549.59493606143
 21
-1097.115783679819
 31
0.0
100
AcDbText
 73
     2
  0
TEXT
  5
58DF
330
18
100
AcDbEntity
  8
CIRCUIT
 62
     7
100
AcDbText
 10
2539.325304078918
 20
-1103.720941928664
 30
0.0
 40
2.7
  1
ﾋﾟﾝ
  7
MSｺﾞｼｯｸ
 72
     1
 11
2541.956776160136
 21
-1102.370941928664
 31
0.0
100
AcDbText
 73
     2
  0
LINE
  5
58E0
330
18
100
AcDbEntity
  8
CIRCUIT
 62
     7
100
AcDbLine
 10
2538.224429934557
 20
-1100.120928622462
 30
0.0
 11
2562.724414977358
 21
-1100.120928622462
 31
0.0
  0
LINE
  5
58E1
330
18
100
AcDbEntity
  8
CIRCUIT
 62
     7
100
AcDbLine
 10
2538.224414977358
 20
-1110.120928622462
 30
0.0
 11
2562.724414977358
 21
-1110.120928622462
 31
0.0
  0
LINE
  5
58E2
330
18
100
AcDbEntity
  8
CIRCUIT
 62
     7
100
AcDbLine
 10
2538.224414977358
 20
-1105.620928622462
 30
0.0
 11
2562.724414977358
 21
-1105.620928622462
 31
0.0
  0
LINE
  5
58E3
330
18
100
AcDbEntity
  8
CIRCUIT
 62
     7
100
AcDbLine
 10
2538.224414977358
 20
-1104.620928622462
 30
0.0
 11
2562.724414977358
 21
-1104.620928622462
 31
0.0
  0
TEXT
  5
58E4
330
18
100
AcDbEntity
  8
CIRCUIT
 62
     7
100
AcDbText
 10
2541.07961879973
 20
-1109.220941928664
 30
0.0
 40
2.7
  1
1
  7
MSｺﾞｼｯｸ
 72
     1
 11
2541.956776160136
 21
-1107.870941928664
 31
0.0
100
AcDbText
 73
     2
  0
TEXT
  5
58E5
330
18
100
AcDbEntity
  8
CIRCUIT
 62
     7
100
AcDbText
 10
2550.306900145611
 20
-1103.720941928664
 30
0.0
 40
2.7
  1
信号
  7
MSｺﾞｼｯｸ
 72
     1
 11
2553.815529587236
 21
-1102.370941928664
 31
0.0
100
AcDbText
 73
     2
  0
TEXT
  5
58E6
330
18
100
AcDbEntity
  8
CIRCUIT
 62
     7
100
AcDbText
 10
2550.725632466425
 20
-1109.220941928664
 30
0.0
 40
2.7
  1
Ｐ５
  7
MSｺﾞｼｯｸ
 72
     1
 11
2554.234261908049
 21
-1107.870941928664
 31
0.0
100
AcDbText
 73
     2
  0
LEADER
  5
58EF
330
18
100
AcDbEntity
  8
寸法
100
AcDbLeader
  3
STANDARD
 76
     3
 10
2503.96047794635
 20
-1195.161971195876
 30
0.0
 10
2499.808760963304
 20
-1224.443095123538
 30
0.0
 10
2461.507928402994
 20
-1224.4663653879
 30
0.0
1001
ACAD
1000
DSTYLE
1002
{
1070
    40
1040
2.0
1070
    41
1040
1.5
1070
    42
1040
0.5
1070
    43
1040
5.0
1070
    44
1040
0.75
1070
    73
1070
     0
1070
    74
1070
     0
1070
    77
1070
     0
1070
    78
1070
     9
1070
   140
1040
3.0
1070
   141
1040
2.5
1070
   143
1040
0.0394
1070
   147
1040
0.5
1070
   171
1070
     4
1070
   172
1070
     1
1070
   173
1070
     1
1070
   178
1070
     7
1070
   273
1070
     8
1070
   274
1070
     4
1070
   279
1070
     2
1070
   284
1070
     9
1070
   341
1005
24
1070
   343
1005
24
1070
   344
1005
24
1002
}
  0
MTEXT
  5
58F0
330
18
100
AcDbEntity
  8
文字
 62
     7
100
AcDbMText
 10
2463.807145156291
 20
-1223.116773069963
 30
0.0
 40
2.5
 41
0.0
 71
     7
 72
     1
  1
{\fＭＳ Ｐゴシック|b0|i0|c128|p50;ｺﾝﾀｸﾄ：AMP 170363-1\Pｷｬｯﾌﾟ：AMP 172168-1}
  7
MSｺﾞｼｯｸ
 73
     1
 44
1.0
1001
ACAD
1000
MTEXTBEGIN
1070
    73
1070
     1
1070
    44
1040
0.8
1070
    74
1070
     0
1000
MTEXTEND
1000
MTEXTBEGIN
1070
    73
1070
     1
1070
    44
1040
0.8
1070
    74
1070
     0
1000
MTEXTEND
  0
LINE
  5
5B53
330
18
100
AcDbEntity
  8
0
370
    30
100
AcDbLine
 10
2442.816681890977
 20
-1188.316023114619
 30
0.0
 11
2442.816681890977
 21
-1193.516023114618
 31
0.0
  0
LINE
  5
5B54
330
18
100
AcDbEntity
  8
0
370
    30
100
AcDbLine
 10
2442.816681890977
 20
-1193.516023114618
 30
0.0
 11
2459.494472157501
 21
-1193.516023114618
 31
0.0
  0
LINE
  5
5B55
330
18
100
AcDbEntity
  8
0
370
    30
100
AcDbLine
 10
2459.197339377143
 20
-1188.316023114619
 30
0.0
 11
2442.816681890977
 21
-1188.316023114619
 31
0.0
  0
LWPOLYLINE
  5
5B56
330
18
100
AcDbEntity
  8
0
370
    30
100
AcDbPolyline
 90
        2
 70
     0
 43
0.0
 10
2478.816681890977
 20
-1188.316023114619
 10
2460.197339377143
 20
-1188.316023114619
  0
LWPOLYLINE
  5
5B57
330
18
100
AcDbEntity
  8
0
370
    30
100
AcDbPolyline
 90
        2
 70
     0
 43
0.0
 10
2482.330565303621
 20
-1188.316023114619
 10
2479.816681890977
 20
-1188.316023114619
  0
LWPOLYLINE
  5
5B58
330
18
100
AcDbEntity
  8
0
370
    30
100
AcDbPolyline
 90
        2
 70
     0
 43
0.0
 10
2485.882296490351
 20
-1188.316023114619
 10
2483.330565303622
 20
-1188.316023114619
  0
LINE
  5
5BA2
330
18
100
AcDbEntity
  8
A
 62
     7
100
AcDbLine
 10
2485.882296490351
 20
-1188.116023114619
 30
0.0
 11
2490.632296490352
 21
-1188.116023114618
 31
0.0
  0
LINE
  5
5BA3
330
18
100
AcDbEntity
  8
A
 62
     7
100
AcDbLine
 10
2490.632296490352
 20
-1193.716023114619
 30
0.0
 11
2485.882296490351
 21
-1193.716023114618
 31
0.0
  0
LINE
  5
5BA4
330
18
100
AcDbEntity
  8
A
 62
     7
100
AcDbLine
 10
2491.632296490352
 20
-1187.116023114618
 30
0.0
 11
2496.632296490351
 21
-1187.116023114618
 31
0.0
  0
LINE
  5
5BA5
330
18
100
AcDbEntity
  8
A
 62
     7
100
AcDbLine
 10
2491.632296490351
 20
-1194.716023114618
 30
0.0
 11
2496.632296490351
 21
-1194.716023114619
 31
0.0
  0
ARC
  5
5BAC
330
18
100
AcDbEntity
  8
A
 62
     7
100
AcDbCircle
 10
2490.632296490352
 20
-1187.616023114618
 30
0.0
 40
0.5
100
AcDbArc
 50
270.0000000000022
 51
359.9999999999941
  0
ARC
  5
5BAD
330
18
100
AcDbEntity
  8
A
 62
     7
100
AcDbCircle
 10
2491.632296490352
 20
-1187.616023114618
 30
0.0
 40
0.5
100
AcDbArc
 50
90.0
 51
179.9999999999941
  0
ARC
  5
5BAE
330
18
100
AcDbEntity
  8
A
 62
     7
100
AcDbCircle
 10
2490.632296490352
 20
-1194.216023114619
 30
0.0
 40
0.5
100
AcDbArc
 50
359.9999999999941
 51
89.99999999999774
  0
ARC
  5
5BAF
330
18
100
AcDbEntity
  8
A
 62
     7
100
AcDbCircle
 10
2491.632296490351
 20
-1194.216023114618
 30
0.0
 40
0.5
100
AcDbArc
 50
179.9999999999941
 51
269.9999999999977
  0
DIMENSION
  5
5DD1
330
18
100
AcDbEntity
  8
寸法
100
AcDbDimension
  2
*D8
 10
2399.964208336059
 20
-1219.28927353589
 30
0.0
 11
2375.964208336058
 21
-1217.28927353589
 31
0.0
 70
    32
 71
     5
 42
48.00000000000181
  3
STANDARD
100
AcDbAlignedDimension
 13
2351.964208336057
 23
-1205.116023114619
 33
0.0
 14
2399.964208336059
 24
-1195.116023114618
 34
0.0
 50
180.0
100
AcDbRotatedDimension
1001
ACAD
1000
DSTYLE
1002
{
1070
    41
1040
1.5
1070
    42
1040
0.5
1070
    43
1040
5.0
1070
    44
1040
0.75
1070
    73
1070
     0
1070
    74
1070
     0
1070
    77
1070
     1
1070
    78
1070
     9
1070
    79
1070
     2
1070
   140
1040
3.0
1070
   141
1040
2.5
1070
   143
1040
0.0394
1070
   147
1040
0.5
1070
   171
1070
     4
1070
   172
1070
     1
1070
   173
1070
     1
1070
   178
1070
     7
1070
   273
1070
     8
1070
   274
1070
     4
1070
   279
1070
     2
1070
   284
1070
     9
1070
   341
1005
24
1070
   343
1005
24
1070
   344
1005
24
1002
}
  0
LWPOLYLINE
  5
5DD2
330
18
100
AcDbEntity
  8
基板
 48
0.5
100
AcDbPolyline
 90
        4
 70
     1
 43
0.0
 10
2355.964208336059
 20
-1190.016023114619
 10
2398.964208336059
 20
-1190.016023114618
 10
2399.964208336059
 20
-1193.516023114618
 10
2354.964208336059
 20
-1193.516023114619
  0
DIMENSION
  5
5DD4
330
18
100
AcDbEntity
  8
寸法
100
AcDbDimension
  2
*D7
 10
2406.683799902234
 20
-1195.116023114618
 30
0.0
 11
2404.533799902234
 21
-1192.566023114618
 31
0.0
 70
    32
  1
(5)
 71
     5
 42
5.099999999999909
  3
STANDARD
100
AcDbAlignedDimension
 13
2398.964208336059
 23
-1190.016023114618
 33
0.0
 14
2399.964208336059
 24
-1195.116023114618
 34
0.0
 50
90.0
100
AcDbRotatedDimension
1001
ACAD
1000
DSTYLE
1002
{
1070
    41
1040
1.5
1070
    42
1040
0.5
1070
    43
1040
5.0
1070
    44
1040
0.75
1070
    73
1070
     0
1070
    74
1070
     0
1070
    77
1070
     1
1070
    78
1070
     9
1070
    79
1070
     2
1070
   140
1040
3.0
1070
   141
1040
2.5
1070
   143
1040
0.0394
1070
   147
1040
0.5
1070
   171
1070
     4
1070
   172
1070
     1
1070
   173
1070
     1
1070
   178
1070
     7
1070
   273
1070
     8
1070
   274
1070
     4
1070
   279
1070
     2
1070
   284
1070
     9
1070
   341
1005
24
1070
   343
1005
24
1070
   344
1005
24
1002
}
  0
LEADER
  5
5DD6
330
18
100
AcDbEntity
  8
文字
 48
0.5
100
AcDbLeader
  3
ｺﾋﾟｰ - まこ-10
 40
3.578680203045685
 41
21.1979695431472
 76
     3
 10
2337.163222459926
 20
-1202.599080273323
 30
0.0
 10
2326.115190802429
 20
-1228.526208823893
 30
0.0
 10
2302.671913749379
 20
-1228.531982266381
 30
0.0
211
-1.0
221
0.0
231
0.0
210
0.0
220
0.0
230
-1.0
213
-27.29070383634825
223
-4.32861431273238
233
0.0
1001
ACAD
1000
DSTYLE
1002
{
1070
   147
1040
0.5
1070
    77
1070
     0
1002
}
  0
DIMENSION
  5
5DD7
330
18
100
AcDbEntity
  8
寸法
100
AcDbDimension
  2
*D11
 10
2338.464208336057
 20
-1213.28927353589
 30
0.0
 11
2327.302056727028
 21
-1213.28927353589
 31
0.0
 70
   160
 71
     5
 42
3.5
  3
STANDARD
100
AcDbAlignedDimension
 13
2334.964208336057
 23
-1205.116023114619
 33
0.0
 14
2338.464208336057
 24
-1203.441023114619
 34
0.0
 50
180.0
100
AcDbRotatedDimension
1001
ACAD
1000
DSTYLE
1002
{
1070
    41
1040
1.5
1070
    42
1040
0.5
1070
    43
1040
5.0
1070
    44
1040
0.75
1070
    73
1070
     0
1070
    74
1070
     0
1070
    77
1070
     1
1070
    78
1070
     9
1070
    79
1070
     2
1070
   140
1040
3.0
1070
   141
1040
2.5
1070
   143
1040
0.0394
1070
   147
1040
0.5
1070
   171
1070
     4
1070
   172
1070
     1
1070
   173
1070
     1
1070
   178
1070
     7
1070
   273
1070
     8
1070
   274
1070
     4
1070
   279
1070
     0
1070
   284
1070
     9
1070
   341
1005
24
1070
   343
1005
24
1070
   344
1005
24
1002
}
  0
DIMENSION
  5
5DD8
330
18
100
AcDbEntity
  8
寸法
100
AcDbDimension
  2
*D10
 10
2351.964208336057
 20
-1219.28927353589
 30
0.0
 11
2343.464208336057
 21
-1217.28927353589
 31
0.0
 70
    32
 71
     5
 42
17.0
  3
STANDARD
100
AcDbAlignedDimension
 13
2334.964208336057
 23
-1205.116023114619
 33
0.0
 14
2351.964208336057
 24
-1205.116023114619
 34
0.0
 50
180.0
100
AcDbRotatedDimension
1001
ACAD
1000
DSTYLE
1002
{
1070
    41
1040
1.5
1070
    42
1040
0.5
1070
    43
1040
5.0
1070
    44
1040
0.75
1070
    73
1070
     0
1070
    74
1070
     0
1070
    77
1070
     1
1070
    78
1070
     9
1070
    79
1070
     2
1070
   140
1040
3.0
1070
   141
1040
2.5
1070
   143
1040
0.0394
1070
   147
1040
0.5
1070
   171
1070
     4
1070
   172
1070
     1
1070
   173
1070
     1
1070
   178
1070
     7
1070
   273
1070
     8
1070
   274
1070
     4
1070
   279
1070
     2
1070
   284
1070
     9
1070
   341
1005
24
1070
   343
1005
24
1070
   344
1005
24
1002
}
  0
DIMENSION
  5
5DD9
330
18
100
AcDbEntity
  8
寸法
100
AcDbDimension
  2
*D9
 10
2348.464208336057
 20
-1213.28927353589
 30
0.0
 11
2343.464208336057
 21
-1211.28927353589
 31
0.0
 70
    32
 71
     5
 42
10.0
  3
STANDARD
100
AcDbAlignedDimension
 13
2338.464208336057
 23
-1203.441023114619
 33
0.0
 14
2348.464208336057
 24
-1203.441023114619
 34
0.0
 50
180.0
100
AcDbRotatedDimension
1001
ACAD
1000
DSTYLE
1002
{
1070
    41
1040
1.5
1070
    42
1040
0.5
1070
    43
1040
5.0
1070
    44
1040
0.75
1070
    73
1070
     0
1070
    74
1070
     0
1070
    77
1070
     1
1070
    78
1070
     9
1070
    79
1070
     2
1070
   140
1040
3.0
1070
   141
1040
2.5
1070
   143
1040
0.0394
1070
   147
1040
0.5
1070
   171
1070
     4
1070
   172
1070
     1
1070
   173
1070
     1
1070
   178
1070
     7
1070
   273
1070
     8
1070
   274
1070
     4
1070
   279
1070
     2
1070
   284
1070
     9
1070
   341
1005
24
1070
   343
1005
24
1070
   344
1005
24
1002
}
  0
DIMENSION
  5
5DDD
330
18
100
AcDbEntity
  8
寸法
100
AcDbDimension
  2
*D14
 10
2322.869354796378
 20
-1197.116023114619
 30
0.0
 11
2322.869354796379
 21
-1187.237637659437
 31
0.0
 70
   160
 71
     5
 42
2.000000000000454
  3
STANDARD
100
AcDbAlignedDimension
 13
2343.464208336057
 23
-1195.116023114619
 33
0.0
 14
2334.964208336057
 24
-1197.116023114619
 34
0.0
 50
90.0
100
AcDbRotatedDimension
1001
ACAD
1000
DSTYLE
1002
{
1070
    41
1040
1.5
1070
    42
1040
0.5
1070
    43
1040
5.0
1070
    44
1040
0.75
1070
    73
1070
     0
1070
    74
1070
     0
1070
    77
1070
     1
1070
    78
1070
     9
1070
    79
1070
     2
1070
   140
1040
3.0
1070
   141
1040
2.5
1070
   143
1040
0.0394
1070
   147
1040
0.5
1070
   171
1070
     4
1070
   172
1070
     1
1070
   173
1070
     1
1070
   178
1070
     7
1070
   273
1070
     8
1070
   274
1070
     4
1070
   279
1070
     0
1070
   284
1070
     9
1070
   341
1005
24
1070
   343
1005
24
1070
   344
1005
24
1002
}
  0
DIMENSION
  5
5DDE
330
18
100
AcDbEntity
  8
寸法
100
AcDbDimension
  2
*D13
 10
2322.869354796379
 20
-1205.116023114619
 30
0.0
 11
2320.869354796379
 21
-1203.116023114619
 31
0.0
 70
    32
 71
     5
 42
4.000000000000454
  3
STANDARD
100
AcDbAlignedDimension
 13
2336.139208336057
 23
-1201.116023114619
 33
0.0
 14
2334.964208336057
 24
-1205.116023114619
 34
0.0
 50
90.0
100
AcDbRotatedDimension
1001
ACAD
1000
DSTYLE
1002
{
1070
    41
1040
1.5
1070
    42
1040
0.5
1070
    43
1040
5.0
1070
    44
1040
0.75
1070
    73
1070
     0
1070
    74
1070
     0
1070
    77
1070
     1
1070
    78
1070
     9
1070
    79
1070
     2
1070
   140
1040
3.0
1070
   141
1040
2.5
1070
   143
1040
0.0394
1070
   147
1040
0.5
1070
   171
1070
     4
1070
   172
1070
     1
1070
   173
1070
     1
1070
   178
1070
     7
1070
   273
1070
     8
1070
   274
1070
     4
1070
   279
1070
     0
1070
   284
1070
     9
1070
   341
1005
24
1070
   343
1005
24
1070
   344
1005
24
1002
}
  0
DIMENSION
  5
5DDF
330
18
100
AcDbEntity
  8
寸法
100
AcDbDimension
  2
*D12
 10
2316.869354796379
 20
-1205.116023114619
 30
0.0
 11
2314.869354796379
 21
-1200.116023114619
 31
0.0
 70
    32
 71
     5
 42
10.00000000000045
  3
STANDARD
100
AcDbAlignedDimension
 13
2343.464208336057
 23
-1195.116023114619
 33
0.0
 14
2334.964208336057
 24
-1205.116023114619
 34
0.0
 50
90.0
100
AcDbRotatedDimension
1001
ACAD
1000
DSTYLE
1002
{
1070
    41
1040
1.5
1070
    42
1040
0.5
1070
    43
1040
5.0
1070
    44
1040
0.75
1070
    73
1070
     0
1070
    74
1070
     0
1070
    77
1070
     1
1070
    78
1070
     9
1070
    79
1070
     2
1070
   140
1040
3.0
1070
   141
1040
2.5
1070
   143
1040
0.0394
1070
   147
1040
0.5
1070
   171
1070
     4
1070
   172
1070
     1
1070
   173
1070
     1
1070
   178
1070
     7
1070
   273
1070
     8
1070
   274
1070
     4
1070
   279
1070
     0
1070
   284
1070
     9
1070
   341
1005
24
1070
   343
1005
24
1070
   344
1005
24
1002
}
  0
ARC
  5
5DEB
330
18
100
AcDbEntity
  8
ｾﾑｽ
100
AcDbCircle
 10
2348.449208336057
 20
-1193.516023114619
 30
0.0
 40
3.0
100
AcDbArc
 50
0.000000000000007
 51
180.0
  0
LINE
  5
5DEC
330
18
100
AcDbEntity
  8
中心線
  6
DASHDOT
 48
0.25
100
AcDbLine
 10
2348.464208336057
 20
-1203.441023114619
 30
0.0
 11
2348.464208336057
 21
-1198.791023114618
 31
0.0
  0
LINE
  5
5DED
330
18
100
AcDbEntity
  8
中心線
  6
DASHDOT
 48
0.25
100
AcDbLine
 10
2350.789208336057
 20
-1201.116023114619
 30
0.0
 11
2346.139208336057
 21
-1201.116023114619
 31
0.0
  0
CIRCLE
  5
5DEE
330
18
100
AcDbEntity
  8
ﾌﾞﾛｯｸ
370
    30
100
AcDbCircle
 10
2348.464208336057
 20
-1201.116023114619
 30
0.0
 40
1.599999999999965
  0
CIRCLE
  5
5DEF
330
18
100
AcDbEntity
  8
ﾌﾞﾛｯｸ
370
    30
100
AcDbCircle
 10
2338.464208336057
 20
-1201.116023114619
 30
0.0
 40
1.599999999999965
  0
LINE
  5
5DF0
330
18
100
AcDbEntity
  8
中心線
  6
DASHDOT
 48
0.25
100
AcDbLine
 10
2338.464208336057
 20
-1203.441023114619
 30
0.0
 11
2338.464208336057
 21
-1198.791023114618
 31
0.0
  0
LINE
  5
5DF1
330
18
100
AcDbEntity
  8
中心線
  6
DASHDOT
 48
0.25
100
AcDbLine
 10
2340.789208336057
 20
-1201.116023114619
 30
0.0
 11
2336.139208336057
 21
-1201.116023114619
 31
0.0
  0
LINE
  5
5DF2
330
18
100
AcDbEntity
  8
ﾌﾞﾛｯｸ
370
    30
100
AcDbLine
 10
2343.464208336057
 20
-1195.116023114619
 30
0.0
 11
2351.964208336057
 21
-1195.116023114619
 31
0.0
  0
LINE
  5
5DF3
330
18
100
AcDbEntity
  8
ﾌﾞﾛｯｸ
370
    30
100
AcDbLine
 10
2351.964208336057
 20
-1205.116023114619
 30
0.0
 11
2334.964208336057
 21
-1205.116023114619
 31
0.0
  0
LINE
  5
5DF4
330
18
100
AcDbEntity
  8
ﾌﾞﾛｯｸ
370
    30
100
AcDbLine
 10
2343.464208336057
 20
-1197.116023114619
 30
0.0
 11
2334.964208336057
 21
-1197.116023114619
 31
0.0
  0
LINE
  5
5DF5
330
18
100
AcDbEntity
  8
ﾌﾞﾛｯｸ
370
    30
100
AcDbLine
 10
2334.964208336057
 20
-1205.116023114619
 30
0.0
 11
2334.964208336057
 21
-1197.116023114619
 31
0.0
  0
LINE
  5
5DF6
330
18
100
AcDbEntity
  8
ﾌﾞﾛｯｸ
370
    30
100
AcDbLine
 10
2351.964208336057
 20
-1195.116023114619
 30
0.0
 11
2351.964208336057
 21
-1205.116023114619
 31
0.0
  0
LINE
  5
5DF7
330
18
100
AcDbEntity
  8
ﾌﾞﾛｯｸ
370
    30
100
AcDbLine
 10
2343.464208336057
 20
-1197.116023114619
 30
0.0
 11
2343.464208336057
 21
-1195.116023114619
 31
0.0
  0
LINE
  5
5EF9
330
18
100
AcDbEntity
  8
基板
 48
0.5
100
AcDbLine
 10
2344.964208336059
 20
-1193.516023114619
 30
0.0
 11
2344.964208336059
 21
-1195.116023114619
 31
0.0
  0
LINE
  5
5EFA
330
18
100
AcDbEntity
  8
基板
 48
0.5
100
AcDbLine
 10
2344.964208336059
 20
-1195.116023114619
 30
0.0
 11
2399.964208336059
 21
-1195.116023114618
 31
0.0
  0
LINE
  5
5EFB
330
18
100
AcDbEntity
  8
基板
 48
0.5
100
AcDbLine
 10
2399.964208336059
 20
-1195.116023114618
 30
0.0
 11
2399.964208336059
 21
-1193.516023114618
 31
0.0
  0
LINE
  5
5EFC
330
18
100
AcDbEntity
  8
基板
 48
0.5
100
AcDbLine
 10
2399.964208336059
 20
-1193.516023114618
 30
0.0
 11
2344.964208336058
 21
-1193.516023114619
 31
0.0
  0
LINE
  5
5F4A
330
18
100
AcDbEntity
  8
A
  6
PHANTOM
 48
0.2
100
AcDbLine
 10
2326.962303332248
 20
-1172.040814102553
 30
0.0
 11
2326.962303332248
 21
-1144.650406648425
 31
0.0
  0
SPLINE
  5
5F4B
330
18
100
AcDbEntity
  8
0
100
AcDbSpline
210
0.0
220
0.0
230
1.0
 70
     8
 71
     3
 72
    11
 73
     7
 74
     0
 42
0.0000000001
 43
0.0000000001
 40
0.0
 40
0.0
 40
0.0
 40
0.0
 40
1.397542485937368
 40
2.795084971874737
 40
4.192627457812106
 40
5.533455748120923
 40
5.533455748120923
 40
5.533455748120923
 40
5.533455748120923
 10
2363.2392297448
 20
-1168.234117704312
 30
0.0
 10
2368.405410069948
 20
-1172.108752948173
 30
0.0
 10
2378.737770720243
 20
-1179.858023435895
 30
0.0
 10
2394.236311695687
 20
-1168.234117704312
 30
0.0
 10
2409.525201970302
 20
-1156.76744999835
 30
0.0
 10
2419.647911919769
 20
-1164.051387344484
 30
0.0
 10
2424.604441544092
 20
-1167.762662574578
 30
0.0
  0
SPLINE
  5
5F4C
330
18
100
AcDbEntity
  8
0
100
AcDbSpline
210
0.0
220
0.0
230
1.0
 70
     8
 71
     3
 72
    10
 73
     6
 74
     0
 42
0.0000000001
 43
0.0000000001
 40
20.52640604602157
 40
20.52640604602157
 40
20.52640604602157
 40
20.52640604602157
 40
34.65579117315778
 40
51.98368675973586
 40
69.31158234631556
 40
69.31158234631556
 40
69.31158234631556
 40
69.31158234631556
 10
2319.604441544091
 20
-1175.611701692591
 30
0.0
 10
2323.817010294032
 20
-1174.552970829223
 30
0.0
 10
2333.19575936912
 20
-1167.518909022907
 30
0.0
 10
2347.740688769356
 20
-1156.61021197273
 30
0.0
 10
2358.073049419652
 20
-1164.359482460451
 30
0.0
 10
2363.2392297448
 20
-1168.234117704312
 30
0.0
  0
LINE
  5
5F4E
330
18
100
AcDbEntity
  8
A
  6
PHANTOM
 48
0.2
100
AcDbLine
 10
2414.462303332248
 20
-1145.650406648424
 30
0.0
 11
2351.962303332249
 21
-1145.650406648425
 31
0.0
  0
LWPOLYLINE
  5
5F4F
330
18
100
AcDbEntity
  8
基板
100
AcDbPolyline
 90
        5
 70
     0
 43
0.0
 10
2344.964208336056
 20
-1139.633467149896
 10
2344.964208336056
 20
-1142.657010661633
 10
2399.964208336058
 20
-1142.657010661633
 10
2399.964208336058
 20
-1132.657010661633
 10
2352.216881813773
 20
-1132.65700044239
  0
LINE
  5
5F53
330
18
100
AcDbEntity
  8
A
  6
PHANTOM
 48
0.2
100
AcDbLine
 10
2414.462303332248
 20
-1161.456380890896
 30
0.0
 11
2414.462303332248
 21
-1145.650406648425
 31
0.0
  0
LINE
  5
5F54
330
18
100
AcDbEntity
  8
0
 62
     3
100
AcDbLine
 10
2355.964208336058
 20
-1142.657010661633
 30
0.0
 11
2355.964208336058
 21
-1132.649390646393
 31
0.0
  0
LINE
  5
5F55
330
18
100
AcDbEntity
  8
0
 62
     3
100
AcDbLine
 10
2398.964208336058
 20
-1142.657010661633
 30
0.0
 11
2398.964208336058
 21
-1132.649390646393
 31
0.0
  0
LINE
  5
5F5B
330
18
100
AcDbEntity
  8
ｾﾑｽ
370
    30
100
AcDbLine
 10
2349.524868507837
 20
-1138.717670833412
 30
0.0
 11
2347.403548164277
 21
-1136.596350489852
 31
0.0
  0
LINE
  5
5F5C
330
18
100
AcDbEntity
  8
ｾﾑｽ
370
    30
100
AcDbLine
 10
2347.403548164277
 20
-1138.717670833412
 30
0.0
 11
2349.524868507837
 21
-1136.596350489852
 31
0.0
  0
CIRCLE
  5
5F5D
330
18
100
AcDbEntity
  8
ｾﾑｽ
370
    30
100
AcDbCircle
 10
2348.464208336057
 20
-1137.657010661632
 30
0.0
 40
3.0
  0
LINE
  5
5F5E
330
18
100
AcDbEntity
  8
ﾌﾞﾛｯｸ
100
AcDbLine
 10
2343.462303332248
 20
-1132.150406648425
 30
0.0
 11
2343.462303332248
 21
-1144.650406648425
 31
0.0
  0
LWPOLYLINE
  5
5F5F
330
18
100
AcDbEntity
  8
ﾌﾞﾛｯｸ
100
AcDbPolyline
 90
        5
 70
     0
 43
0.0
 10
2348.82180156578
 20
-1132.150406648425
 10
2334.962303332248
 20
-1132.150406648425
 10
2334.962303332248
 20
-1144.650406648425
 10
2351.962303332248
 20
-1144.650406648425
 10
2351.962303332248
 20
-1142.657010661633
  0
LINE
  5
5F60
330
18
100
AcDbEntity
  8
0
 62
     3
100
AcDbLine
 10
2354.964208336058
 20
-1142.657010661633
 30
0.0
 11
2354.964208336058
 21
-1132.649390646393
 31
0.0
  0
DIMENSION
  5
5F62
330
18
100
AcDbEntity
  8
寸法
100
AcDbDimension
  2
*D15
 10
2322.321275192273
 20
-1132.150406648425
 30
0.0
 11
2320.320979916683
 21
-1138.400406648424
 31
0.0
 70
    32
 71
     5
 42
12.5
  3
STANDARD
100
AcDbAlignedDimension
 13
2334.962303332248
 23
-1144.650406648425
 33
0.0
 14
2334.962303332248
 24
-1132.150406648425
 34
0.0
 50
270.0
100
AcDbRotatedDimension
1001
ACAD
1000
DSTYLE
1002
{
1070
    41
1040
1.5
1070
    42
1040
0.5
1070
    43
1040
5.0
1070
    44
1040
0.75
1070
    73
1070
     0
1070
    74
1070
     0
1070
    77
1070
     1
1070
    78
1070
     9
1070
    79
1070
     2
1070
   140
1040
3.0
1070
   141
1040
2.5
1070
   143
1040
0.0394
1070
   147
1040
0.5
1070
   171
1070
     4
1070
   172
1070
     1
1070
   173
1070
     1
1070
   178
1070
     7
1070
   271
1070
     6
1070
   273
1070
     8
1070
   274
1070
     4
1070
   284
1070
     9
1070
   341
1005
24
1070
   343
1005
24
1070
   344
1005
24
1002
}
  0
DIMENSION
  5
5F65
330
18
100
AcDbEntity
  8
寸法
100
AcDbDimension
  2
*D16
 10
2322.316306899028
 20
-1129.150406648425
 30
0.0
 11
2322.316306899029
 21
-1123.851587750786
 31
0.0
 70
   160
 71
     5
 42
3.0
  3
STANDARD
100
AcDbAlignedDimension
 13
2334.962303332248
 23
-1132.150406648425
 33
0.0
 14
2336.087301526918
 24
-1129.150406648425
 34
0.0
 50
270.0
100
AcDbRotatedDimension
1001
ACAD
1000
DSTYLE
1002
{
1070
     3
1000
(<>)
1070
    41
1040
1.5
1070
    42
1040
0.5
1070
    43
1040
5.0
1070
    44
1040
0.75
1070
    73
1070
     0
1070
    74
1070
     0
1070
    77
1070
     1
1070
    78
1070
     9
1070
    79
1070
     2
1070
   140
1040
3.0
1070
   141
1040
2.5
1070
   143
1040
0.0394
1070
   147
1040
0.5
1070
   171
1070
     4
1070
   172
1070
     1
1070
   173
1070
     1
1070
   178
1070
     7
1070
   273
1070
     8
1070
   274
1070
     4
1070
   284
1070
     9
1070
   341
1005
24
1070
   343
1005
24
1070
   344
1005
24
1002
}
  0
LINE
  5
5F66
330
18
100
AcDbEntity
  8
A
  6
DASHED
 48
0.2
100
AcDbLine
 10
2336.46230333225
 20
-1144.650406648425
 30
0.0
 11
2336.462303332248
 21
-1108.745445027521
 31
0.0
  0
LINE
  5
5F67
330
18
100
AcDbEntity
  8
A
  6
DASHED
 48
0.2
100
AcDbLine
 10
2343.462303332248
 20
-1144.650406648425
 30
0.0
 11
2343.462303332248
 21
-1108.745445027521
 31
0.0
  0
LINE
  5
5F6B
330
18
100
AcDbEntity
  8
0
 48
0.5
100
AcDbLine
 10
2348.82180156578
 20
-1132.150406648425
 30
0.0
 11
2345.837303332249
 21
-1132.150406648425
 31
0.0
  0
LINE
  5
5F6C
330
18
100
AcDbEntity
  8
0
 48
0.5
100
AcDbLine
 10
2341.087303332249
 20
-1132.150406648425
 30
0.0
 11
2335.837303332247
 21
-1132.150406648425
 31
0.0
  0
LINE
  5
5F6D
330
18
100
AcDbEntity
  8
0
  6
DASHED
 48
0.05
100
AcDbLine
 10
2340.837301526918
 20
-1129.150406798869
 30
0.0
 11
2336.087301526918
 21
-1129.150406648425
 31
0.0
  0
LINE
  5
5F6E
330
18
100
AcDbEntity
  8
0
  6
DASHED
 48
0.05
100
AcDbLine
 10
2341.087301526918
 20
-1129.650406648424
 30
0.0
 11
2335.837301526917
 21
-1129.650406648424
 31
0.0
  0
LINE
  5
5F6F
330
18
100
AcDbEntity
  8
0
  6
DASHED
 48
0.05
100
AcDbLine
 10
2341.087301526918
 20
-1129.650406648424
 30
0.0
 11
2341.087303332249
 21
-1132.150406648425
 31
0.0
  0
LINE
  5
5F70
330
18
100
AcDbEntity
  8
0
  6
DASHED
 48
0.05
100
AcDbLine
 10
2341.087301526918
 20
-1129.650406648424
 30
0.0
 11
2340.837301526918
 21
-1129.150406798869
 31
0.0
  0
LINE
  5
5F71
330
18
100
AcDbEntity
  8
0
  6
DASHED
 48
0.05
100
AcDbLine
 10
2335.837301827805
 20
-1129.650406648424
 30
0.0
 11
2335.837303332247
 21
-1132.150406648425
 31
0.0
  0
LINE
  5
5F72
330
18
100
AcDbEntity
  8
0
  6
DASHED
 48
0.05
100
AcDbLine
 10
2335.837301526917
 20
-1129.650406648424
 30
0.0
 11
2336.087301526918
 21
-1129.150406648425
 31
0.0
  0
LINE
  5
5F73
330
18
100
AcDbEntity
  8
0
  6
DASHED
 48
0.05
100
AcDbLine
 10
2345.837301827807
 20
-1129.650406648424
 30
0.0
 11
2346.087301526919
 21
-1129.150406648425
 31
0.0
  0
LINE
  5
5F76
330
18
100
AcDbEntity
  8
0
  6
DASHED
 48
0.05
100
AcDbLine
 10
2345.837301827807
 20
-1129.650406648424
 30
0.0
 11
2345.837303332247
 21
-1132.150406648425
 31
0.0
  0
LWPOLYLINE
  5
5F7B
330
18
100
AcDbEntity
  8
基板
100
AcDbPolyline
 90
        2
 70
     0
 43
0.0
 10
2348.978037645146
 20
-1132.656999749188
 10
2344.964208336056
 20
-1132.656998890118
  0
LWPOLYLINE
  5
5F8E
330
18
100
AcDbEntity
  8
基板
100
AcDbPolyline
 90
        2
 70
     0
 43
0.0
 10
2344.964208336056
 20
-1132.656998890118
 10
2344.964208336056
 20
-1135.680554173368
  0
CIRCLE
  5
5F8F
330
18
100
AcDbEntity
  8
A
  6
PHANTOM
 48
0.2
100
AcDbCircle
 10
2332.962303332248
 20
-1153.650406648424
 30
0.0
 40
2.5
  0
LINE
  5
5F90
330
18
100
AcDbEntity
  8
A
  6
PHANTOM
 48
0.2
100
AcDbLine
 10
2351.962303332249
 20
-1144.650406648425
 30
0.0
 11
2326.962303332248
 21
-1144.650406648425
 31
0.0
  0
LINE
  5
5F91
330
18
100
AcDbEntity
  8
0
  6
DASHED
 48
0.05
100
AcDbLine
 10
2337.212303332248
 20
-1144.650406648425
 30
0.0
 11
2337.212303332248
 21
-1150.150406648424
 31
0.0
  0
LINE
  5
5F92
330
18
100
AcDbEntity
  8
0
  6
DASHED
 48
0.05
100
AcDbLine
 10
2336.962303332248
 20
-1144.650406648425
 30
0.0
 11
2336.962303332248
 21
-1148.150406648424
 31
0.0
  0
LINE
  5
5F93
330
18
100
AcDbEntity
  8
0
  6
DASHED
 48
0.05
100
AcDbLine
 10
2336.962303332248
 20
-1148.150406648424
 30
0.0
 11
2337.212303332248
 21
-1148.583419350317
 31
0.0
  0
LINE
  5
5F94
330
18
100
AcDbEntity
  8
0
  6
DASHED
 48
0.05
100
AcDbLine
 10
2338.462303332248
 20
-1150.872094484912
 30
0.0
 11
2337.212303332248
 21
-1150.150406648424
 31
0.0
  0
LINE
  5
5F95
330
18
100
AcDbEntity
  8
0
  6
DASHED
 48
0.05
100
AcDbLine
 10
2349.712303332248
 20
-1144.650406648425
 30
0.0
 11
2349.712303332248
 21
-1150.150406648424
 31
0.0
  0
LINE
  5
5F96
330
18
100
AcDbEntity
  8
0
  6
DASHED
 48
0.05
100
AcDbLine
 10
2347.212303332248
 20
-1144.650406648425
 30
0.0
 11
2347.212303332248
 21
-1150.150406648424
 31
0.0
  0
LINE
  5
5F97
330
18
100
AcDbEntity
  8
0
  6
DASHED
 48
0.05
100
AcDbLine
 10
2346.962303332248
 20
-1144.650406648425
 30
0.0
 11
2346.962303332248
 21
-1148.150406648424
 31
0.0
  0
LINE
  5
5F98
330
18
100
AcDbEntity
  8
0
  6
DASHED
 48
0.05
100
AcDbLine
 10
2339.962303332248
 20
-1144.650406648425
 30
0.0
 11
2339.962303332248
 21
-1148.150406648424
 31
0.0
  0
LINE
  5
5F99
330
18
100
AcDbEntity
  8
0
  6
DASHED
 48
0.05
100
AcDbLine
 10
2339.712303332248
 20
-1144.650406648425
 30
0.0
 11
2339.712303332248
 21
-1150.150406648424
 31
0.0
  0
LINE
  5
5F9A
330
18
100
AcDbEntity
  8
0
  6
DASHED
 48
0.05
100
AcDbLine
 10
2348.462303332248
 20
-1150.872094484912
 30
0.0
 11
2349.712303332248
 21
-1150.150406648424
 31
0.0
  0
LINE
  5
5F9B
330
18
100
AcDbEntity
  8
0
  6
DASHED
 48
0.05
100
AcDbLine
 10
2346.962303332248
 20
-1148.150406648424
 30
0.0
 11
2347.212303332248
 21
-1148.583419350317
 31
0.0
  0
LINE
  5
5F9C
330
18
100
AcDbEntity
  8
0
  6
DASHED
 48
0.05
100
AcDbLine
 10
2348.462303332248
 20
-1150.872094484912
 30
0.0
 11
2347.212303332248
 21
-1150.150406648424
 31
0.0
  0
LINE
  5
5F9D
330
18
100
AcDbEntity
  8
0
  6
DASHED
 48
0.05
100
AcDbLine
 10
2349.712303332248
 20
-1150.150406648424
 30
0.0
 11
2347.212303332248
 21
-1150.150406648424
 31
0.0
  0
LINE
  5
5F9E
330
18
100
AcDbEntity
  8
0
  6
DASHED
 48
0.05
100
AcDbLine
 10
2339.962303332248
 20
-1148.150406648424
 30
0.0
 11
2339.712303332248
 21
-1148.583419350317
 31
0.0
  0
LINE
  5
5F9F
330
18
100
AcDbEntity
  8
0
  6
DASHED
 48
0.05
100
AcDbLine
 10
2338.462303332248
 20
-1150.872094484912
 30
0.0
 11
2339.712303332248
 21
-1150.150406648424
 31
0.0
  0
LINE
  5
5FA0
330
18
100
AcDbEntity
  8
0
  6
DASHED
 48
0.05
100
AcDbLine
 10
2339.712303332248
 20
-1150.150406648424
 30
0.0
 11
2337.212303332248
 21
-1150.150406648424
 31
0.0
  0
LINE
  5
5FA1
330
18
100
AcDbEntity
  8
0
  6
DASHED
 48
0.05
100
AcDbLine
 10
2339.962303332248
 20
-1148.150406648424
 30
0.0
 11
2336.962303332248
 21
-1148.150406648424
 31
0.0
  0
LINE
  5
5FA2
330
18
100
AcDbEntity
  8
0
  6
DASHED
 48
0.05
100
AcDbLine
 10
2349.962303332248
 20
-1144.650406648425
 30
0.0
 11
2349.962303332248
 21
-1148.150406648424
 31
0.0
  0
LINE
  5
5FA3
330
18
100
AcDbEntity
  8
0
  6
DASHED
 48
0.05
100
AcDbLine
 10
2349.962303332248
 20
-1148.150406648424
 30
0.0
 11
2349.712303332248
 21
-1148.583419350317
 31
0.0
  0
LINE
  5
5FA4
330
18
100
AcDbEntity
  8
0
  6
DASHED
 48
0.05
100
AcDbLine
 10
2349.962303332248
 20
-1148.150406648424
 30
0.0
 11
2346.962303332248
 21
-1148.150406648424
 31
0.0
  0
LINE
  5
5FA5
330
18
100
AcDbEntity
  8
A
  6
PHANTOM
 48
0.2
100
AcDbLine
 10
2351.962303332248
 20
-1161.268978832145
 30
0.0
 11
2351.962303332248
 21
-1144.650406648425
 31
0.0
  0
MTEXT
  5
6004
330
18
100
AcDbEntity
  8
文字
100
AcDbMText
 10
2367.290622606109
 20
-1160.485961538781
 30
0.0
 40
5.0
 41
0.0
 71
     7
 72
     1
  1
{\fＭＳ Ｐゴシック|b0|i0|c128|p50;ｺｲﾙﾕﾆｯﾄ}
 73
     1
 44
1.0
1001
ACAD
1000
MTEXTBEGIN
1070
    73
1070
     1
1070
    44
1040
0.8
1070
    74
1070
     0
1000
MTEXTEND
1000
MTEXTBEGIN
1070
    73
1070
     1
1070
    44
1040
0.8
1070
    74
1070
     0
1000
MTEXTEND
  0
MTEXT
  5
6005
330
18
100
AcDbEntity
  8
文字
 62
    40
 48
0.5
100
AcDbMText
 10
2304.027235487665
 20
-1224.01051292855
 30
0.0
 40
3.0
 41
0.0
 71
     1
 72
     1
  1
2-φ3.2貫通
  7
MSｺﾞｼｯｸ
 73
     1
 44
1.0
  0
LWPOLYLINE
  5
60AB
330
18
100
AcDbEntity
  8
文字
100
AcDbPolyline
 90
        4
 70
     1
 43
0.0
 10
2281.381411691036
 20
-1049.736822351547
 10
2586.112402609804
 20
-1049.736822351547
 10
2586.112402609804
 20
-1296.181766699868
 10
2281.381411691036
 20
-1296.181766699868
  0
LINE
  5
60EB
330
18
100
AcDbEntity
  8
0
100
AcDbLine
 10
2485.882296490351
 20
-1188.316023114619
 30
0.0
 11
2485.882296490351
 21
-1193.516023114618
 31
0.0
  0
LINE
  5
614A
330
18
100
AcDbEntity
  8
0
100
AcDbLine
 10
2345.375424887218
 20
-1117.466480423197
 30
0.0
 11
2345.301221058957
 21
-1113.051819466621
 31
0.0
  0
SPLINE
  5
614B
330
18
100
AcDbEntity
  8
0
100
AcDbSpline
210
0.0
220
0.0
230
1.0
 70
     8
 71
     3
 72
    15
 73
    11
 74
     9
 42
0.0000000001
 43
0.0000000001
 44
0.0000000001
 40
0.0
 40
0.0
 40
0.0
 40
0.0
 40
1.133765210141439
 40
1.425571067547899
 40
2.051284944314579
 40
4.934222909624282
 40
6.972093565136457
 40
8.878290202794049
 40
9.500751037247439
 40
9.874702562890856
 40
9.874702562890856
 40
9.874702562890856
 40
9.874702562890856
 10
2346.289333490874
 20
-1118.492958322488
 30
0.0
 10
2345.896155448521
 20
-1118.611616267832
 30
0.0
 10
2345.401782154508
 20
-1118.760814119647
 30
0.0
 10
2345.185610965022
 20
-1119.531111693339
 30
0.0
 10
2346.802306264698
 20
-1119.874865788679
 30
0.0
 10
2348.249135661143
 20
-1120.379001101737
 30
0.0
 10
2350.516749812782
 20
-1121.107780979848
 30
0.0
 10
2351.921038045841
 20
-1121.46689112162
 30
0.0
 10
2352.930525784184
 20
-1121.746832225947
 30
0.0
 10
2353.076004549505
 20
-1122.058793062535
 30
0.0
 10
2353.130602433292
 20
-1122.175871327976
 30
0.0
 11
2346.289333490874
 21
-1118.492958322488
 31
0.0
 11
2345.327473115104
 21
-1119.093165094569
 31
0.0
 11
2345.270058305487
 21
-1119.379266821326
 31
0.0
 11
2345.823734071808
 21
-1119.670747526291
 31
0.0
 11
2348.590001542533
 21
-1120.482594551435
 31
0.0
 11
2350.534545402701
 21
-1121.09223869721
 31
0.0
 11
2352.373674036797
 21
-1121.593428769604
 31
0.0
 11
2352.938489793982
 21
-1121.855040410905
 31
0.0
 11
2353.130602433292
 21
-1122.175871327976
 31
0.0
  0
LINE
  5
614C
330
18
100
AcDbEntity
  8
0
100
AcDbLine
 10
2345.348205170291
 20
-1123.809032097263
 30
0.0
 11
2345.27400134203
 21
-1119.394371140682
 31
0.0
  0
LWPOLYLINE
  5
614D
330
18
100
AcDbEntity
  8
0
370
    30
100
AcDbPolyline
 90
        2
 70
     0
 43
0.0
 10
2351.52890502544
 20
-1121.366539660199
 10
2351.53510239196
 20
-1119.664524936788
  0
LWPOLYLINE
  5
614E
330
18
100
AcDbEntity
  8
0
370
    30
100
AcDbPolyline
 90
        2
 70
     0
 43
0.0
 10
2346.290542097923
 20
-1118.161032335687
 10
2346.284642688141
 20
-1119.781217662772
  0
LINE
  5
614F
330
18
100
AcDbEntity
  8
0
100
AcDbLine
 10
2353.240243557148
 20
-1120.288323433023
 30
0.0
 11
2353.15782215021
 21
-1115.833319653911
 31
0.0
  0
SPLINE
  5
6150
330
18
100
AcDbEntity
  8
0
100
AcDbSpline
210
0.0
220
0.0
230
1.0
 70
     8
 71
     3
 72
    15
 73
    11
 74
     9
 42
0.0000000001
 43
0.0000000001
 44
0.0000000001
 40
0.0
 40
0.0
 40
0.0
 40
0.0
 40
1.787223353028542
 40
2.07902921043357
 40
2.70474308720025
 40
5.587681052509313
 40
7.62555170802142
 40
9.514552341177465
 40
10.18333792959926
 40
10.53819514332258
 40
10.53819514332258
 40
10.53819514332258
 40
10.53819514332258
 10
2351.533513790277
 20
-1121.233750348865
 30
0.0
 10
2352.223137696428
 20
-1121.173838596869
 30
0.0
 10
2353.025358774545
 20
-1121.104144855324
 30
0.0
 10
2353.321509329389
 20
-1120.096854619144
 30
0.0
 10
2351.700055999971
 20
-1119.747778841409
 30
0.0
 10
2350.249374372474
 20
-1119.271007970508
 30
0.0
 10
2348.012284717115
 20
-1118.466115819285
 30
0.0
 10
2346.534399406114
 20
-1118.295570368089
 30
0.0
 10
2345.572962552512
 20
-1117.893117853094
 30
0.0
 10
2345.426275568904
 20
-1117.576306587794
 30
0.0
 10
2345.375424887218
 20
-1117.466480423194
 30
0.0
 11
2351.533513790277
 21
-1121.233750348865
 31
0.0
 11
2353.177777310794
 21
-1120.533347044541
 31
0.0
 11
2353.235192120403
 21
-1120.247245317784
 31
0.0
 11
2352.681516354082
 21
-1119.955764612819
 31
0.0
 11
2349.915248883358
 21
-1119.143917587676
 31
0.0
 11
2347.970705023189
 21
-1118.534273441902
 31
0.0
 11
2346.130129888694
 21
-1118.109295129108
 31
0.0
 11
2345.550955169165
 21
-1117.774883993619
 31
0.0
 11
2345.375424887218
 21
-1117.466480423194
 31
0.0
  0
SPLINE
  5
6151
330
18
100
AcDbEntity
  8
寸法
100
AcDbSpline
210
0.0
220
0.0
230
1.0
 70
     8
 71
     3
 72
     9
 73
     5
 74
     0
 42
0.0000000001
 43
0.0000000001
 40
0.0
 40
0.0
 40
0.0
 40
0.0
 40
4.754009779385566
 40
7.694184245663207
 40
7.694184245663207
 40
7.694184245663207
 40
7.694184245663207
 10
2350.464563810937
 20
-1128.352523880971
 30
0.0
 10
2350.683646925908
 20
-1130.004296312068
 30
0.0
 10
2351.038224625559
 20
-1132.677627248801
 30
0.0
 10
2353.140154736327
 20
-1134.330718217747
 30
0.0
 10
2354.022420738587
 20
-1134.8234484089
 30
0.0
  0
SPLINE
  5
6152
330
18
100
AcDbEntity
  8
寸法
100
AcDbSpline
210
0.0
220
0.0
230
1.0
 70
     8
 71
     3
 72
    10
 73
     6
 74
     0
 42
0.0000000001
 43
0.0000000001
 40
0.0
 40
0.0
 40
0.0
 40
0.0
 40
4.681442706891107
 40
10.40492595866938
 40
10.83319707660522
 40
10.83319707660522
 40
10.83319707660522
 40
10.83319707660522
 10
2348.87865146686
 20
-1128.346749265787
 30
0.0
 10
2348.949717160621
 20
-1129.957349183992
 30
0.0
 10
2349.107667033787
 20
-1133.537051841317
 30
0.0
 10
2352.07059685609
 20
-1136.173644169706
 30
0.0
 10
2353.894788638656
 20
-1137.199997991416
 30
0.0
 10
2354.022420738587
 20
-1137.269336287437
 30
0.0
  0
SPLINE
  5
6153
330
18
100
AcDbEntity
  8
寸法
100
AcDbSpline
210
0.0
220
0.0
230
1.0
 70
     8
 71
     3
 72
    11
 73
     7
 74
     0
 42
0.0000000001
 43
0.0000000001
 40
0.0
 40
0.0
 40
0.0
 40
0.0
 40
2.15243268281942
 40
4.858663225114474
 40
8.346691592514048
 40
9.290821364395165
 40
9.290821364395165
 40
9.290821364395165
 40
9.290821364395165
 10
2349.738429045731
 20
-1128.340435394957
 30
0.0
 10
2349.757242416023
 20
-1129.060806467038
 30
0.0
 10
2349.79970963514
 20
-1130.686892367096
 30
0.0
 10
2350.802182668281
 20
-1133.350503415296
 30
0.0
 10
2352.481026695151
 20
-1135.158868295432
 30
0.0
 10
2353.745270736529
 20
-1135.921442560916
 30
0.0
 10
2354.022420738587
 20
-1136.070233005507
 30
0.0
  0
LWPOLYLINE
  5
6154
102
{ACAD_REACTORS
330
6294
102
}
330
18
100
AcDbEntity
  8
0
370
    30
100
AcDbPolyline
 90
        4
 70
     0
 43
0.0
 10
2345.699844635154
 20
-1124.270341085414
 10
2345.674120543758
 20
-1128.335080945657
 10
2352.083182389961
 20
-1128.358417585917
 10
2352.102095425679
 20
-1126.164233065511
  0
SPLINE
  5
6155
102
{ACAD_REACTORS
330
6294
102
}
330
18
100
AcDbEntity
  8
0
100
AcDbSpline
210
0.0
220
0.0
230
1.0
 70
     8
 71
     3
 72
    15
 73
    11
 74
     9
 42
0.0000000001
 43
0.0000000001
 44
0.0000000001
 40
0.0
 40
0.0
 40
0.0
 40
0.0
 40
1.49903460368668
 40
1.790840461091931
 40
2.416554337861724
 40
5.299492303167488
 40
7.337362958679595
 40
9.226363591835589
 40
9.895149180261675
 40
10.25000639398084
 40
10.25000639398084
 40
10.25000639398084
 40
10.25000639398084
 10
2352.095626241321
 20
-1127.940898523516
 30
0.0
 10
2352.517238630593
 20
-1127.660384101955
 30
0.0
 10
2353.020923151116
 20
-1127.325264035469
 30
0.0
 10
2353.296339146262
 20
-1126.442702702658
 30
0.0
 10
2351.669196579635
 20
-1126.084476524327
 30
0.0
 10
2350.223168633556
 20
-1125.615190496764
 30
0.0
 10
2347.984845721064
 20
-1124.808314811297
 30
0.0
 10
2346.507198173045
 20
-1124.638151771045
 30
0.0
 10
2345.545741617312
 20
-1124.235667567719
 30
0.0
 10
2345.399055538365
 20
-1123.918857757455
 30
0.0
 10
2345.348205170289
 20
-1123.80903209726
 30
0.0
 11
2352.095626241321
 21
-1127.940898523516
 31
0.0
 11
2353.150557593869
 21
-1126.875898718605
 31
0.0
 11
2353.207972403478
 21
-1126.589796991848
 31
0.0
 11
2352.654296637153
 21
-1126.298316286883
 31
0.0
 11
2349.888029166432
 21
-1125.48646926174
 31
0.0
 11
2347.943485306263
 21
-1124.876825115965
 31
0.0
 11
2346.102910171769
 21
-1124.451846803172
 31
0.0
 11
2345.523735452237
 21
-1124.11743566768
 31
0.0
 11
2345.348205170289
 21
-1123.80903209726
 31
0.0
  0
LINE
  5
6156
330
18
100
AcDbEntity
  8
0
100
AcDbLine
 10
2353.213023840225
 20
-1126.630875107087
 30
0.0
 11
2353.13060243329
 21
-1122.175871327976
 31
0.0
  0
ARC
  5
6157
330
18
100
AcDbEntity
  8
0
370
    30
100
AcDbCircle
 10
2327.916553207796
 20
-1112.150406648424
 30
0.0
 40
18.39999999999999
100
AcDbArc
 50
0.0
 51
42.79759711659669
  0
ARC
  5
6158
330
18
100
AcDbEntity
  8
CENTER
100
AcDbCircle
 10
2327.916553207796
 20
-1112.150406648424
 30
0.0
 40
21.0
100
AcDbArc
 50
0.0
 51
47.90948317056408
  0
ARC
  5
6159
330
18
100
AcDbEntity
  8
0
370
    30
100
AcDbCircle
 10
2327.916553207796
 20
-1112.150406648424
 30
0.0
 40
23.6
100
AcDbArc
 50
0.0
 51
43.28303819960062
  0
SPLINE
  5
615A
330
18
100
AcDbEntity
  8
0
100
AcDbSpline
210
0.0
220
0.0
230
1.0
 70
     8
 71
     3
 72
    15
 73
    11
 74
     9
 42
0.0000000001
 43
0.0000000001
 44
0.0000000001
 40
0.0
 40
0.0
 40
0.0
 40
0.0
 40
1.133765210139918
 40
1.425571067543925
 40
2.05128494432005
 40
4.934222909622196
 40
6.972093565130832
 40
8.878290202793188
 40
9.500751037245716
 40
9.874702562883136
 40
9.874702562883136
 40
9.874702562883136
 40
9.874702562883136
 10
2346.316553207795
 20
-1112.150406648424
 30
0.0
 10
2345.923375165444
 20
-1112.269064593769
 30
0.0
 10
2345.429001871435
 20
-1112.418262445586
 30
0.0
 10
2345.212830681947
 20
-1113.188560019279
 30
0.0
 10
2346.829525981636
 20
-1113.532314114602
 30
0.0
 10
2348.27635537807
 20
-1114.036449427676
 30
0.0
 10
2350.543969529713
 20
-1114.765229305779
 30
0.0
 10
2351.948257762762
 20
-1115.124339447564
 30
0.0
 10
2352.957745501115
 20
-1115.40428055188
 30
0.0
 10
2353.103224266427
 20
-1115.716241388471
 30
0.0
 10
2353.15782215021
 20
-1115.833319653912
 30
0.0
 11
2346.316553207795
 21
-1112.150406648424
 31
0.0
 11
2345.354692832029
 21
-1112.750613420508
 31
0.0
 11
2345.297278022412
 21
-1113.036715147262
 31
0.0
 11
2345.850953788744
 21
-1113.328195852227
 31
0.0
 11
2348.617221259462
 21
-1114.140042877369
 31
0.0
 11
2350.561765119627
 21
-1114.749687023144
 31
0.0
 11
2352.400893753726
 21
-1115.250877095543
 31
0.0
 11
2352.965709510911
 21
-1115.512488736841
 31
0.0
 11
2353.15782215021
 21
-1115.833319653912
 31
0.0
  0
LINE
  5
615B
330
18
100
AcDbEntity
  8
0
370
    30
100
AcDbLine
 10
2346.316553207795
 20
-1113.439845015929
 30
0.0
 11
2346.316553207795
 21
-1112.150406648424
 31
0.0
  0
LINE
  5
615C
330
18
100
AcDbEntity
  8
0
370
    30
100
AcDbLine
 10
2351.516553207796
 20
-1115.013385721236
 30
0.0
 11
2351.516553207796
 21
-1112.150406648424
 31
0.0
  0
LINE
  5
615D
330
18
100
AcDbEntity
  8
CENTER
100
AcDbLine
 10
2348.916553207796
 20
-1112.150406648424
 30
0.0
 11
2348.916553207796
 21
-1114.238577316672
 31
0.0
  0
DIMENSION
  5
615E
330
18
100
AcDbEntity
  8
寸法
100
AcDbDimension
  2
*D17
 10
2327.916553207795
 20
-1112.150406648424
 30
0.0
 11
2365.363874969508
 21
-1094.472023224259
 31
0.0
 70
    36
 71
     5
 42
21.00000000000091
  3
STANDARD
100
AcDbRadialDimension
 15
2347.317648051555
 25
-1104.113148480154
 35
0.0
 40
0.0
1001
ACAD
1000
DSTYLE
1002
{
1070
     3
1000
（曲げ半径MIN.）
1070
    41
1040
1.5
1070
    42
1040
0.5
1070
    43
1040
5.0
1070
    44
1040
0.75
1070
    73
1070
     0
1070
    74
1070
     0
1070
    77
1070
     1
1070
    78
1070
     9
1070
    79
1070
     2
1070
   140
1040
3.0
1070
   141
1040
0.0
1070
   143
1040
0.0394
1070
   147
1040
0.5
1070
   171
1070
     4
1070
   172
1070
     0
1070
   173
1070
     1
1070
   178
1070
     7
1070
   271
1070
     6
1070
   273
1070
     8
1070
   274
1070
     4
1070
   284
1070
     9
1070
   341
1005
24
1070
   343
1005
24
1070
   344
1005
24
1002
}
  0
DIMENSION
  5
615F
330
18
100
AcDbEntity
  8
寸法
100
AcDbDimension
  2
*D18
 10
2346.99034063072
 20
-1098.252542303674
 30
0.0
 11
2354.334663711541
 21
-1092.901197884339
 31
0.0
 70
   161
 71
     5
 42
5.200000000000272
  3
STANDARD
100
AcDbAlignedDimension
 13
2342.787641707025
 23
-1101.314783599975
 33
0.0
 14
2346.990340630721
 24
-1098.252542303674
 34
0.0
1001
ACAD
1000
DSTYLE
1002
{
1070
     3
1000
（φ<>）
1070
    41
1040
1.5
1070
    42
1040
0.5
1070
    43
1040
5.0
1070
    44
1040
0.75
1070
    73
1070
     0
1070
    74
1070
     0
1070
    77
1070
     1
1070
    78
1070
     9
1070
    79
1070
     2
1070
   140
1040
3.0
1070
   141
1040
2.5
1070
   143
1040
0.0394
1070
   147
1040
0.5
1070
   171
1070
     4
1070
   172
1070
     1
1070
   173
1070
     1
1070
   178
1070
     7
1070
   273
1070
     8
1070
   274
1070
     4
1070
   284
1070
     9
1070
   341
1005
24
1070
   343
1005
24
1070
   344
1005
24
1002
}
  0
CIRCLE
  5
61CD
330
18
100
AcDbEntity
  8
ｾﾑｽ
370
    30
100
AcDbCircle
 10
2348.464208336057
 20
-1137.657010661632
 30
0.0
 40
4.019499999999999
  0
LINE
  5
61D0
330
18
100
AcDbEntity
  8
0
  6
DASHED
 48
0.05
100
AcDbLine
 10
2348.415955220339
 20
-1129.150406722179
 30
0.0
 11
2346.087301526919
 21
-1129.150406648425
 31
0.0
  0
LINE
  5
61D1
330
18
100
AcDbEntity
  8
0
  6
DASHED
 48
0.05
100
AcDbLine
 10
2348.445945589197
 20
-1129.650406648424
 30
0.0
 11
2345.837301827808
 21
-1129.650406648425
 31
0.0
  0
DIMENSION
  5
61D5
330
18
100
AcDbEntity
  8
寸法
100
AcDbDimension
  2
*D19
 10
2308.969860347905
 20
-1112.150406648424
 30
0.0
 11
2308.969860347906
 21
-1150.150629233961
 31
0.0
 70
   160
 71
     5
 42
20.0
  3
STANDARD
100
AcDbAlignedDimension
 13
2334.962303332248
 23
-1132.150406648425
 33
0.0
 14
2348.916553207796
 24
-1112.150406648424
 34
0.0
 50
90.0
100
AcDbRotatedDimension
1001
ACAD
1000
DSTYLE
1002
{
1070
     3
1000
（曲げ起点MIN.）
1070
    41
1040
1.5
1070
    42
1040
0.5
1070
    43
1040
5.0
1070
    44
1040
0.75
1070
    73
1070
     0
1070
    74
1070
     0
1070
    77
1070
     1
1070
    78
1070
     9
1070
    79
1070
     2
1070
   140
1040
3.0
1070
   141
1040
2.5
1070
   143
1040
0.0394
1070
   147
1040
0.5
1070
   171
1070
     4
1070
   172
1070
     1
1070
   173
1070
     1
1070
   178
1070
     7
1070
   273
1070
     8
1070
   274
1070
     4
1070
   284
1070
     9
1070
   341
1005
24
1070
   343
1005
24
1070
   344
1005
24
1002
}
  0
LWPOLYLINE
  5
623D
330
18
100
AcDbEntity
  8
0
 48
0.5
100
AcDbPolyline
 90
        4
 70
     1
 43
0.0
 10
2429.200595967337
 20
-1138.352808839562
 10
2529.26997173468
 20
-1138.352808839562
 10
2529.26997173468
 20
-1146.927786203573
 10
2429.200595967337
 20
-1146.927786203573
  0
MTEXT
  5
623E
330
18
100
AcDbEntity
  8
CIRCUIT
 62
     7
100
AcDbMText
 10
2432.423087765053
 20
-1143.989139320633
 30
0.0
 40
3.0
 41
0.0
 71
     7
 72
     1
  1
\U+203B　本センサのケーブルは固定用です。
 73
     1
 44
1.0
1001
ACAD
1000
MTEXTBEGIN
1070
    73
1070
     1
1070
    44
1040
0.8
1070
    74
1070
     0
1000
MTEXTEND
1000
MTEXTBEGIN
1070
    73
1070
     1
1070
    44
1040
0.8
1070
    74
1070
     0
1000
MTEXTEND
  0
LEADER
  5
6248
330
18
100
AcDbEntity
  8
文字
 48
0.5
100
AcDbLeader
  3
ｺﾋﾟｰ - まこ-10
 40
3.578680203045685
 41
21.1979695431472
 76
     3
 10
2336.232343722207
 20
-1128.685506499932
 30
0.0
 10
2326.536119135928
 20
-1107.06777926304
 30
0.0
 10
2289.486914481078
 20
-1107.038499266115
 30
0.0
211
-1.0
221
0.0
231
0.0
210
0.0
220
0.0
230
-1.0
213
-27.29070383634825
223
-4.291760789555265
233
0.0
1001
ACAD
1000
DSTYLE
1002
{
1070
   147
1040
0.5
1070
    77
1070
     0
1002
}
  0
MTEXT
  5
6249
330
18
100
AcDbEntity
  8
文字
 62
    40
 48
0.5
100
AcDbMText
 10
2289.96397161662
 20
-1102.672980467873
 30
0.0
 40
3.0
 41
0.0
 71
     1
 72
     1
  1
M3×16六角ﾎﾞﾙﾄ取付
  7
MSｺﾞｼｯｸ
 73
     1
 44
1.0
  0
LEADER
  5
624A
330
18
100
AcDbEntity
  8
文字
 48
0.5
100
AcDbLeader
  3
ｺﾋﾟｰ - まこ-10
 40
3.578680203045685
 41
21.1979695431472
 76
     3
 10
2335.978101283765
 20
-1110.396624950797
 30
0.0
 10
2329.820908588905
 20
-1097.628301575334
 30
0.0
 10
2310.49297635204
 20
-1097.657581572259
 30
0.0
211
-1.0
221
0.0000000000000001
231
0.0
213
-27.29070383634825
223
4.291760789555269
233
0.0
1001
ACAD
1000
DSTYLE
1002
{
1070
   147
1040
0.5
1070
    77
1070
     0
1002
}
  0
MTEXT
  5
624B
330
18
100
AcDbEntity
  8
文字
 62
    40
 48
0.5
100
AcDbMText
 10
2311.65335792114
 20
-1092.996593280338
 30
0.0
 40
3.0
 41
0.0
 71
     1
 72
     1
  1
ﾓｰﾀ動力線
  7
MSｺﾞｼｯｸ
 73
     1
 44
1.0
  0
LINE
  5
6263
330
18
100
AcDbEntity
  8
CENTER
100
AcDbLine
 10
2348.916553207796
 20
-1118.802601230113
 30
0.0
 11
2348.916553207796
 21
-1120.590029169734
 31
0.0
  0
HATCH
  5
6294
330
18
100
AcDbEntity
  8
0
100
AcDbHatch
 10
0.0
 20
0.0
 30
0.0
210
0.0
220
0.0
230
1.0
  2
HONEY
 70
     0
 71
     1
 91
        1
 92
        5
 93
        4
 72
     4
 94
        3
 73
     0
 74
     0
 95
       11
 96
        7
 40
2.905232063873249
 40
2.905232063873249
 40
2.905232063873249
 40
2.905232063873249
 40
5.299492303167488
 40
7.337362958679595
 40
9.226363591835589
 40
9.656797686843232
 40
9.656797686843232
 40
9.656797686843232
 40
9.656797686843232
 10
2352.102095425679
 20
-1126.164233065509
 10
2351.247962933673
 20
-1125.947198239912
 10
2350.062544670364
 20
-1125.557288408696
 10
2347.984845721064
 20
-1124.808314811297
 10
2346.583835639513
 20
-1124.646977193798
 10
2345.820047361853
 20
-1124.348330032882
 10
2345.699844635154
 20
-1124.270341085413
 72
     1
 10
2345.699844635154
 20
-1124.270341085412
 11
2345.674120543758
 21
-1128.335080945657
 72
     1
 10
2345.674120543758
 20
-1128.335080945657
 11
2352.083182389961
 21
-1128.358417585917
 72
     1
 10
2352.083182389961
 20
-1128.358417585917
 11
2352.102095425678
 21
-1126.164233065509
 97
        2
330
6155
330
6154
 75
     0
 76
     1
 52
0.0
 41
0.3
 77
     0
 78
     3
 53
0.0
 43
0.0
 44
0.0
 45
1.428749999999999
 46
0.8248889999999999
 79
     2
 49
0.9524999999999998
 49
-1.904999999999999
 53
119.9999999999999
 43
0.0
 44
0.0
 45
-1.428749829302341
 46
0.824889295657017
 79
     2
 49
0.9524999999999998
 49
-1.904999999999999
 53
60.0
 43
0.0
 44
0.0
 45
0.0000001706976584
 46
1.649778295657016
 79
     2
 49
-1.904999999999999
 49
0.9524999999999998
 47
0.0698624806728967
 98
        1
 10
2347.798848290666
 20
-1126.094610235776
  0
HATCH
  5
62E9
330
18
100
AcDbEntity
  8
0
  6
HIDDEN
 48
0.2
100
AcDbHatch
 10
0.0
 20
0.0
 30
0.0
210
0.0
220
0.0
230
1.0
  2
ANSI31
 70
     0
 71
     0
 91
        4
 92
        7
 72
     0
 73
     1
 93
        7
 10
2343.462303332247
 20
-1108.745445027521
 10
2336.462303332248
 20
-1108.745445027521
 10
2336.462303332249
 20
-1129.150406660302
 10
2340.837301526917
 20
-1129.150406798869
 10
2341.087301526918
 20
-1129.650406648424
 10
2341.087303332249
 20
-1132.150406648425
 10
2343.462303332248
 20
-1132.150406648425
 97
        0
 92
       22
 72
     0
 73
     1
 93
        4
 10
2340.837301526918
 20
-1129.150406798869
 10
2336.462303332249
 20
-1129.150406660302
 10
2336.462303332249
 20
-1129.650406648424
 10
2341.087301526918
 20
-1129.650406648424
 97
        0
 92
       22
 72
     0
 73
     1
 93
        4
 10
2341.087301526918
 20
-1129.650406648424
 10
2336.462303332249
 20
-1129.650406648424
 10
2336.462303332249
 20
-1132.150406648425
 10
2341.087303332249
 20
-1132.150406648425
 97
        0
 92
        7
 72
     0
 73
     1
 93
        4
 10
2343.462303332248
 20
-1132.150406648425
 10
2336.462303332249
 20
-1132.150406648424
 10
2336.46230333225
 20
-1144.650406648425
 10
2343.462303332248
 20
-1144.650406648424
 97
        0
 75
     0
 76
     1
 52
0.0
 41
0.8
 77
     0
 78
     1
 53
45.0
 43
0.0
 44
0.0
 45
-1.79605122421383
 46
1.79605122421383
 79
     0
 47
0.0704940016469982
 98
        4
 10
2340.647834265598
 20
-1118.740117257527
 10
2339.448921844695
 20
-1129.525699729841
 10
2339.166824151277
 20
-1130.371627443282
 10
2340.013116222032
 20
-1136.575099542351
  0
VIEWPORT
  5
23
330
15
100
AcDbEntity
 67
     1
  8
0
100
AcDbViewport
 10
144.0054856511423
 20
104.9951438053311
 30
0.0
 40
328.0485211591282
 41
212.2041729744252
 68
     2
 69
     1
 12
144.0054856511423
 22
104.9951438053311
 13
0.0
 23
0.0
 14
10.0
 24
10.0
 15
10.0
 25
10.0
 16
0.0
 26
0.0
 36
1.0
 17
0.0
 27
0.0
 37
0.0
 42
50.0
 43
0.0
 44
0.0
 45
212.2041729744252
 50
0.0
 51
0.0
 72
   100
 90
    32768
  1

281
     0
 71
     1
 74
     0
110
0.0
120
0.0
130
0.0
111
1.0
121
0.0
131
0.0
112
0.0
122
1.0
132
0.0
 79
     0
146
0.0
  0
VIEWPORT
  5
2E
330
15
100
AcDbEntity
 67
     1
  8
M_VIEW
100
AcDbViewport
 10
144.0
 20
105.0
 30
0.0
 40
288.0
 41
210.0
 68
     1
 69
     2
 12
2428.235997055011
 22
-1166.27637915808
 13
0.0
 23
0.0
 14
10.0
 24
10.0
 15
10.0
 25
10.0
 16
0.0
 26
0.0
 36
1.0
 17
0.0
 27
0.0
 37
0.0
 42
50.0
 43
0.0
 44
0.0
 45
210.0000022918417
 50
0.0
 51
0.0
 72
   100
 90
    32768
  1

281
     0
 71
     1
 74
     0
110
0.0
120
0.0
130
0.0
111
1.0
121
0.0
131
0.0
112
0.0
122
1.0
132
0.0
 79
     0
146
0.0
  0
TEXT
  5
5D0
330
15
100
AcDbEntity
 67
     1
  8
wakumoji1
  6
Continuous
100
AcDbText
 10
8.865235070261704
 20
10.96666666666598
 30
0.0
 40
4.0
  1
Ｒ＊－
 41
0.625
100
AcDbText
  0
TEXT
  5
5D4
330
15
100
AcDbEntity
 67
     1
  8
wakumoji1
  6
Continuous
100
AcDbText
 10
9.866692070452764
 20
15.78333333333638
 30
0.0
 40
3.5
  1
Ａ
 72
     1
 11
11.50002540378609
 21
15.78333333333638
 31
0.0
100
AcDbText
  0
TEXT
  5
5D9
330
15
100
AcDbEntity
 67
     1
  8
wakumoji1
  6
Continuous
100
AcDbText
 10
17.86523507026169
 20
15.96666666666598
 30
0.0
 40
4.0
  1
１～＊
 41
0.625
100
AcDbText
  0
TEXT
  5
5EF
330
15
100
AcDbEntity
 67
     1
  8
wakumoji1
  6
Continuous
100
AcDbText
 10
33.89605408586112
 20
16.35134447262123
 30
0.0
 40
3.5
  1
＊＊＊＊＊
100
AcDbText
  0
TEXT
  5
5FE
330
15
100
AcDbEntity
 67
     1
  8
wakumoji
  6
Continuous
100
AcDbText
 10
210.8022848534179
 20
5.8315805819974
 30
0.0
 40
7.0
  1
ＳＥ－３４１９１
 41
0.9529999999999999
  7
MSｺﾞｼｯｸ
100
AcDbText
  0
TEXT
  5
651
330
15
100
AcDbEntity
 67
     1
  8
wakumoji1
  6
Continuous
100
AcDbText
 10
275.402284853418
 20
5.981155417998706
 30
0.0
 40
7.0
  1
Ａ
 41
0.9529999999999999
100
AcDbText
  0
TEXT
  5
673
330
15
100
AcDbEntity
 67
     1
  8
wakumoji1
  6
Continuous
100
AcDbText
 10
105.8652350702616
 20
10.96666666666598
 30
0.0
 40
3.0
  1
'99.**.**
 41
0.6
100
AcDbText
  0
TEXT
  5
5861
330
15
100
AcDbEntity
 67
     1
  8
FRAME025
  6
Continuous
100
AcDbText
 10
8.400000000000005
 20
10.5
 30
0.0
 40
4.0
  1
Ｒ１－６７７１０
 41
0.625
100
AcDbText
  0
TEXT
  5
5862
330
15
100
AcDbEntity
 67
     1
  8
FRAME025
  6
Continuous
100
AcDbText
 10
9.900000000000005
 20
15.64999999999999
 30
0.0
 40
2.5
  1
A
 11
9.900000000000005
 21
16.89999999999999
 31
0.0
100
AcDbText
 73
     2
  0
TEXT
  5
5863
330
15
100
AcDbEntity
 67
     1
  8
FRAME025
  6
Continuous
100
AcDbText
 10
14.9
 20
15.64999999999999
 30
0.0
 40
2.5
  1
１－３
 11
14.9
 21
16.89999999999999
 31
0.0
100
AcDbText
 73
     2
  0
MTEXT
  5
5864
330
15
100
AcDbEntity
 67
     1
  8
FRAME025
100
AcDbMText
 10
33.38043583432718
 20
18.59999999999999
 30
0.0
 40
2.5
 41
51.2
 71
     1
 72
     5
  1
1-3:ｹｰﾌﾞﾙ図修正(引出方向の誤り)
 73
     1
 44
1.0
1001
ACAD
1000
MTEXTBEGIN
1070
    73
1070
     1
1070
    44
1040
1.0
1070
    74
1070
     0
1000
MTEXTEND
1000
MTEXTBEGIN
1070
    73
1070
     1
1070
    44
1040
1.0
1070
    74
1070
     0
1000
MTEXTEND
1000
MTEXTBEGIN
1070
    73
1070
     1
1070
    44
1040
1.0
1070
    74
1070
     0
1000
MTEXTEND
1000
MTEXTBEGIN
1070
    73
1070
     1
1070
    44
1040
1.0
1070
    74
1070
     0
1000
MTEXTEND
1000
MTEXTBEGIN
1070
    73
1070
     1
1070
    44
1040
1.0
1070
    74
1070
     0
1000
MTEXTEND
1000
MTEXTBEGIN
1070
    73
1070
     1
1070
    44
1040
1.0
1070
    74
1070
     0
1000
MTEXTEND
1000
MTEXTBEGIN
1070
    73
1070
     1
1070
    44
1040
1.0
1070
    74
1070
     0
1000
MTEXTEND
1000
MTEXTBEGIN
1070
    73
1070
     1
1070
    44
1040
1.0
1070
    74
1070
     0
1000
MTEXTEND
1000
MTEXTBEGIN
1070
    73
1070
     1
1070
    44
1040
1.0
1070
    74
1070
     0
1000
MTEXTEND
  0
MTEXT
  5
5865
330
15
100
AcDbEntity
 67
     1
  8
FRAME025
100
AcDbMText
 10
124.9
 20
23.5
 30
0.0
 40
6.0
 41
20.0
 71
     5
 72
     5
  1
大湊
  7
MS明朝
 73
     1
 44
1.0
1001
ACAD
1000
MTEXTBEGIN
1070
    73
1070
     1
1070
    44
1040
1.0
1070
    74
1070
     0
1000
MTEXTEND
1000
MTEXTBEGIN
1070
    73
1070
     1
1070
    44
1040
1.0
1070
    74
1070
     0
1000
MTEXTEND
1000
MTEXTBEGIN
1070
    73
1070
     1
1070
    44
1040
1.0
1070
    74
1070
     0
1000
MTEXTEND
1000
MTEXTBEGIN
1070
    73
1070
     1
1070
    44
1040
1.0
1070
    74
1070
     0
1000
MTEXTEND
1000
MTEXTBEGIN
1070
    73
1070
     1
1070
    44
1040
1.0
1070
    74
1070
     0
1000
MTEXTEND
1000
MTEXTBEGIN
1070
    73
1070
     1
1070
    44
1040
1.0
1070
    74
1070
     0
1000
MTEXTEND
1000
MTEXTBEGIN
1070
    73
1070
     1
1070
    44
1040
1.0
1070
    74
1070
     0
1000
MTEXTEND
1000
MTEXTBEGIN
1070
    73
1070
     1
1070
    44
1040
1.0
1070
    74
1070
     0
1000
MTEXTEND
1000
MTEXTBEGIN
1070
    73
1070
     1
1070
    44
1040
1.0
1070
    74
1070
     0
1000
MTEXTEND
  0
TEXT
  5
5866
330
15
100
AcDbEntity
 67
     1
  8
FRAME025
  6
Continuous
100
AcDbText
 10
116.462867965644
 20
11.56154148317486
 30
0.0
 40
3.0
  1
'04.08.03
 72
     4
 11
124.3999999999999
 21
13.0
 31
0.0
100
AcDbText
  0
MTEXT
  5
5867
330
15
100
AcDbEntity
 67
     1
  8
FRAME025
100
AcDbMText
 10
144.9
 20
23.5
 30
0.0
 40
6.0
 41
20.0
 71
     5
 72
     5
  1
渡邊
  7
MS明朝
 73
     1
 44
1.0
1001
ACAD
1000
MTEXTBEGIN
1070
    73
1070
     1
1070
    44
1040
1.0
1070
    74
1070
     0
1000
MTEXTEND
1000
MTEXTBEGIN
1070
    73
1070
     1
1070
    44
1040
1.0
1070
    74
1070
     0
1000
MTEXTEND
1000
MTEXTBEGIN
1070
    73
1070
     1
1070
    44
1040
1.0
1070
    74
1070
     0
1000
MTEXTEND
1000
MTEXTBEGIN
1070
    73
1070
     1
1070
    44
1040
1.0
1070
    74
1070
     0
1000
MTEXTEND
1000
MTEXTBEGIN
1070
    73
1070
     1
1070
    44
1040
1.0
1070
    74
1070
     0
1000
MTEXTEND
1000
MTEXTBEGIN
1070
    73
1070
     1
1070
    44
1040
1.0
1070
    74
1070
     0
1000
MTEXTEND
1000
MTEXTBEGIN
1070
    73
1070
     1
1070
    44
1040
1.0
1070
    74
1070
     0
1000
MTEXTEND
1000
MTEXTBEGIN
1070
    73
1070
     1
1070
    44
1040
1.0
1070
    74
1070
     0
1000
MTEXTEND
1000
MTEXTBEGIN
1070
    73
1070
     1
1070
    44
1040
1.0
1070
    74
1070
     0
1000
MTEXTEND
  0
MTEXT
  5
5868
330
15
100
AcDbEntity
 67
     1
  8
FRAME025
100
AcDbMText
 10
164.9
 20
23.5
 30
0.0
 40
6.0
 41
20.0
 71
     5
 72
     5
  1
渡邊
  7
MS明朝
 73
     1
 44
1.0
1001
ACAD
1000
MTEXTBEGIN
1070
    73
1070
     1
1070
    44
1040
1.0
1070
    74
1070
     0
1000
MTEXTEND
1000
MTEXTBEGIN
1070
    73
1070
     1
1070
    44
1040
1.0
1070
    74
1070
     0
1000
MTEXTEND
1000
MTEXTBEGIN
1070
    73
1070
     1
1070
    44
1040
1.0
1070
    74
1070
     0
1000
MTEXTEND
1000
MTEXTBEGIN
1070
    73
1070
     1
1070
    44
1040
1.0
1070
    74
1070
     0
1000
MTEXTEND
1000
MTEXTBEGIN
1070
    73
1070
     1
1070
    44
1040
1.0
1070
    74
1070
     0
1000
MTEXTEND
1000
MTEXTBEGIN
1070
    73
1070
     1
1070
    44
1040
1.0
1070
    74
1070
     0
1000
MTEXTEND
1000
MTEXTBEGIN
1070
    73
1070
     1
1070
    44
1040
1.0
1070
    74
1070
     0
1000
MTEXTEND
1000
MTEXTBEGIN
1070
    73
1070
     1
1070
    44
1040
1.0
1070
    74
1070
     0
1000
MTEXTEND
1000
MTEXTBEGIN
1070
    73
1070
     1
1070
    44
1040
1.0
1070
    74
1070
     0
1000
MTEXTEND
  0
TEXT
  5
5869
330
15
100
AcDbEntity
 67
     1
  8
FRAME025
  6
Continuous
100
AcDbText
 10
156.462867965644
 20
11.56154148317485
 30
0.0
 40
3.0
  1
'04.08.03
 72
     4
 11
164.4
 21
13.0
 31
0.0
100
AcDbText
  0
TEXT
  5
586A
330
15
100
AcDbEntity
 67
     1
  8
FRAME025
  6
Continuous
100
AcDbText
 10
136.462867965644
 20
11.56154148317485
 30
0.0
 40
3.0
  1
'04.08.03
 72
     4
 11
144.4
 21
13.0
 31
0.0
100
AcDbText
  0
TEXT
  5
5AA6
330
15
100
AcDbEntity
 67
     1
  8
FRAME025
  6
Continuous
100
AcDbText
 10
9.900000000000005
 20
25.64999999999999
 30
0.0
 40
2.5
  1
B
 11
9.900000000000005
 21
26.89999999999999
 31
0.0
100
AcDbText
 73
     2
  0
TEXT
  5
5AA7
330
15
100
AcDbEntity
 67
     1
  8
FRAME025
  6
Continuous
100
AcDbText
 10
14.9
 20
25.64999999999999
 30
0.0
 40
2.5
  1
１－７
 11
14.9
 21
26.89999999999999
 31
0.0
100
AcDbText
 73
     2
  0
MTEXT
  5
5AA8
330
15
100
AcDbEntity
 67
     1
  8
FRAME025
100
AcDbMText
 10
33.38043583432718
 20
28.59999999999999
 30
0.0
 40
2.5
 41
51.2
 71
     1
 72
     5
  1
1:ｹｰﾌﾞﾙ長変更　　2-5:各種説明追記
 73
     1
 44
1.0
1001
ACAD
1000
MTEXTBEGIN
1070
    73
1070
     1
1070
    44
1040
1.0
1070
    74
1070
     0
1000
MTEXTEND
1000
MTEXTBEGIN
1070
    73
1070
     1
1070
    44
1040
1.0
1070
    74
1070
     0
1000
MTEXTEND
1000
MTEXTBEGIN
1070
    73
1070
     1
1070
    44
1040
1.0
1070
    74
1070
     0
1000
MTEXTEND
1000
MTEXTBEGIN
1070
    73
1070
     1
1070
    44
1040
1.0
1070
    74
1070
     0
1000
MTEXTEND
1000
MTEXTBEGIN
1070
    73
1070
     1
1070
    44
1040
1.0
1070
    74
1070
     0
1000
MTEXTEND
1000
MTEXTBEGIN
1070
    73
1070
     1
1070
    44
1040
1.0
1070
    74
1070
     0
1000
MTEXTEND
1000
MTEXTBEGIN
1070
    73
1070
     1
1070
    44
1040
1.0
1070
    74
1070
     0
1000
MTEXTEND
1000
MTEXTBEGIN
1070
    73
1070
     1
1070
    44
1040
1.0
1070
    74
1070
     0
1000
MTEXTEND
1000
MTEXTBEGIN
1070
    73
1070
     1
1070
    44
1040
1.0
1070
    74
1070
     0
1000
MTEXTEND
  0
MTEXT
  5
5AF4
330
15
100
AcDbEntity
 67
     1
  8
FRAME025
100
AcDbMText
 10
33.38043583432718
 20
23.59999999999999
 30
0.0
 40
2.5
 41
51.2
 71
     1
 72
     5
  1
6,7:誤作図により図差し替え
 73
     1
 44
1.0
1001
ACAD
1000
MTEXTBEGIN
1070
    73
1070
     1
1070
    44
1040
1.0
1070
    74
1070
     0
1000
MTEXTEND
1000
MTEXTBEGIN
1070
    73
1070
     1
1070
    44
1040
1.0
1070
    74
1070
     0
1000
MTEXTEND
1000
MTEXTBEGIN
1070
    73
1070
     1
1070
    44
1040
1.0
1070
    74
1070
     0
1000
MTEXTEND
1000
MTEXTBEGIN
1070
    73
1070
     1
1070
    44
1040
1.0
1070
    74
1070
     0
1000
MTEXTEND
1000
MTEXTBEGIN
1070
    73
1070
     1
1070
    44
1040
1.0
1070
    74
1070
     0
1000
MTEXTEND
1000
MTEXTBEGIN
1070
    73
1070
     1
1070
    44
1040
1.0
1070
    74
1070
     0
1000
MTEXTEND
1000
MTEXTBEGIN
1070
    73
1070
     1
1070
    44
1040
1.0
1070
    74
1070
     0
1000
MTEXTEND
1000
MTEXTBEGIN
1070
    73
1070
     1
1070
    44
1040
1.0
1070
    74
1070
     0
1000
MTEXTEND
1000
MTEXTBEGIN
1070
    73
1070
     1
1070
    44
1040
1.0
1070
    74
1070
     0
1000
MTEXTEND
  0
MTEXT
  5
5B0D
330
15
100
AcDbEntity
 67
     1
  8
FRAME025
100
AcDbMText
 10
89.71605959315439
 20
17.30634765862947
 30
0.0
 40
3.0
 41
9.4191
 71
     5
 72
     5
  1
大湊
  7
MS明朝
 73
     1
 44
1.0
1001
ACAD
1000
MTEXTBEGIN
1070
    73
1070
     1
1070
    44
1040
1.0
1070
    74
1070
     0
1000
MTEXTEND
1000
MTEXTBEGIN
1070
    73
1070
     1
1070
    44
1040
1.0
1070
    74
1070
     0
1000
MTEXTEND
1000
MTEXTBEGIN
1070
    73
1070
     1
1070
    44
1040
1.0
1070
    74
1070
     0
1000
MTEXTEND
1000
MTEXTBEGIN
1070
    73
1070
     1
1070
    44
1040
1.0
1070
    74
1070
     0
1000
MTEXTEND
1000
MTEXTBEGIN
1070
    73
1070
     1
1070
    44
1040
1.0
1070
    74
1070
     0
1000
MTEXTEND
1000
MTEXTBEGIN
1070
    73
1070
     1
1070
    44
1040
1.0
1070
    74
1070
     0
1000
MTEXTEND
1000
MTEXTBEGIN
1070
    73
1070
     1
1070
    44
1040
1.0
1070
    74
1070
     0
1000
MTEXTEND
1000
MTEXTBEGIN
1070
    73
1070
     1
1070
    44
1040
1.0
1070
    74
1070
     0
1000
MTEXTEND
1000
MTEXTBEGIN
1070
    73
1070
     1
1070
    44
1040
1.0
1070
    74
1070
     0
1000
MTEXTEND
  0
MTEXT
  5
5B14
330
15
100
AcDbEntity
 67
     1
  8
FRAME025
100
AcDbMText
 10
99.71605959315439
 20
17.30634765862947
 30
0.0
 40
3.0
 41
9.4191
 71
     5
 72
     5
  1
渡邊
  7
MS明朝
 73
     1
 44
1.0
1001
ACAD
1000
MTEXTBEGIN
1070
    73
1070
     1
1070
    44
1040
1.0
1070
    74
1070
     0
1000
MTEXTEND
1000
MTEXTBEGIN
1070
    73
1070
     1
1070
    44
1040
1.0
1070
    74
1070
     0
1000
MTEXTEND
1000
MTEXTBEGIN
1070
    73
1070
     1
1070
    44
1040
1.0
1070
    74
1070
     0
1000
MTEXTEND
1000
MTEXTBEGIN
1070
    73
1070
     1
1070
    44
1040
1.0
1070
    74
1070
     0
1000
MTEXTEND
1000
MTEXTBEGIN
1070
    73
1070
     1
1070
    44
1040
1.0
1070
    74
1070
     0
1000
MTEXTEND
1000
MTEXTBEGIN
1070
    73
1070
     1
1070
    44
1040
1.0
1070
    74
1070
     0
1000
MTEXTEND
1000
MTEXTBEGIN
1070
    73
1070
     1
1070
    44
1040
1.0
1070
    74
1070
     0
1000
MTEXTEND
1000
MTEXTBEGIN
1070
    73
1070
     1
1070
    44
1040
1.0
1070
    74
1070
     0
1000
MTEXTEND
1000
MTEXTBEGIN
1070
    73
1070
     1
1070
    44
1040
1.0
1070
    74
1070
     0
1000
MTEXTEND
  0
MTEXT
  5
5B15
330
15
100
AcDbEntity
 67
     1
  8
FRAME025
100
AcDbMText
 10
109.7160595931544
 20
17.30634765862947
 30
0.0
 40
3.0
 41
9.4191
 71
     5
 72
     5
  1
渡邊
  7
MS明朝
 73
     1
 44
1.0
1001
ACAD
1000
MTEXTBEGIN
1070
    73
1070
     1
1070
    44
1040
1.0
1070
    74
1070
     0
1000
MTEXTEND
1000
MTEXTBEGIN
1070
    73
1070
     1
1070
    44
1040
1.0
1070
    74
1070
     0
1000
MTEXTEND
1000
MTEXTBEGIN
1070
    73
1070
     1
1070
    44
1040
1.0
1070
    74
1070
     0
1000
MTEXTEND
1000
MTEXTBEGIN
1070
    73
1070
     1
1070
    44
1040
1.0
1070
    74
1070
     0
1000
MTEXTEND
1000
MTEXTBEGIN
1070
    73
1070
     1
1070
    44
1040
1.0
1070
    74
1070
     0
1000
MTEXTEND
1000
MTEXTBEGIN
1070
    73
1070
     1
1070
    44
1040
1.0
1070
    74
1070
     0
1000
MTEXTEND
1000
MTEXTBEGIN
1070
    73
1070
     1
1070
    44
1040
1.0
1070
    74
1070
     0
1000
MTEXTEND
1000
MTEXTBEGIN
1070
    73
1070
     1
1070
    44
1040
1.0
1070
    74
1070
     0
1000
MTEXTEND
1000
MTEXTBEGIN
1070
    73
1070
     1
1070
    44
1040
1.0
1070
    74
1070
     0
1000
MTEXTEND
  0
TEXT
  5
5B1B
330
15
100
AcDbEntity
 67
     1
  8
FRAME025
  6
Continuous
100
AcDbText
 10
85.4888207706978
 20
11.27416811294379
 30
0.0
 40
1.799999999999999
  1
'05.01.13
 72
     4
 11
89.80109999131137
 21
12.13724322303888
 31
0.0
100
AcDbText
  0
TEXT
  5
5B1C
330
15
100
AcDbEntity
 67
     1
  8
FRAME025
  6
Continuous
100
AcDbText
 10
95.47204684170507
 20
11.22934527829812
 30
0.0
 40
1.799999999999999
  1
'05.01.12
 72
     4
 11
99.80109999131137
 21
12.13724322303888
 31
0.0
100
AcDbText
  0
TEXT
  5
5B1D
330
15
100
AcDbEntity
 67
     1
  8
FRAME025
  6
Continuous
100
AcDbText
 10
105.472046841705
 20
11.22934527829812
 30
0.0
 40
1.799999999999999
  1
'05.01.12
 72
     4
 11
109.8010999913113
 21
12.13724322303888
 31
0.0
100
AcDbText
  0
TEXT
  5
5BC4
330
15
100
AcDbEntity
 67
     1
  8
FRAME025
  6
Continuous
100
AcDbText
 10
8.400000000000005
 20
20.5
 30
0.0
 40
4.0
  1
Ｒ１－６８６７１
 41
0.625
100
AcDbText
  0
MTEXT
  5
6304
330
15
100
AcDbEntity
 67
     1
  8
0
 48
0.5
100
AcDbMText
 10
101.12380177349
 20
23.15612772966375
 30
0.0
 40
6.0
 41
181.5735204217094
 71
     1
 72
     5
  1
{\fＭＳ ゴシック|b0|i0|c128|p49;τﾘﾆｱﾓｰﾀ　NVA-BM用磁極ｾﾝｻﾕﾆｯﾄ NSR-PAA6D1C-***}
 73
     1
 44
1.0
  0
ENDSEC
  0
SECTION
  2
OBJECTS
  0
DICTIONARY
  5
C
330
0
100
AcDbDictionary
281
     1
  3
ACAD_GROUP
350
D
  3
ACAD_LAYOUT
350
683
  3
ACAD_MLINESTYLE
350
1B
  3
ACAD_PLOTSETTINGS
350
684
  3
ACAD_PLOTSTYLENAME
350
681
  3
AcadDim
350
4611
  3
AcDbVariableDictionary
350
45F6
  0
DICTIONARY
  5
60FE
330
2
100
AcDbDictionary
280
     1
281
     1
  3
ACAD_LAYERFILTERS
360
60FF
  3
ACAD_LAYERSTATES
360
612E
  0
DICTIONARY
  5
D
102
{ACAD_REACTORS
330
C
102
}
330
C
100
AcDbDictionary
281
     1
  3
*A1
350
EB3
  3
*A10
350
4FA5
  3
*A11
350
3F19
  3
*A12
350
45DB
  3
*A13
350
45C9
  3
*A14
350
4E47
  3
*A15
350
4F60
  3
*A16
350
4FA4
  3
*A17
350
4FC4
  3
*A18
350
42B3
  3
*A19
350
4FC5
  3
*A2
350
115F
  3
*A20
350
4FC6
  3
*A21
350
4FC7
  3
*A22
350
3F5C
  3
*A23
350
42A9
  3
*A3
350
EB4
  3
*A4
350
140A
  3
*A5
350
ECA
  3
*A6
350
ECB
  3
*A7
350
107B
  3
*A8
350
46BE
  3
*A9
350
13DE
  0
DICTIONARY
  5
683
102
{ACAD_REACTORS
330
C
102
}
330
C
100
AcDbDictionary
281
     1
  3
Model
350
685
  3
ﾚｲｱｳﾄ1
350
686
  0
DICTIONARY
  5
1B
102
{ACAD_REACTORS
330
C
102
}
330
C
100
AcDbDictionary
281
     1
  3
STANDARD
350
1C
  0
DICTIONARY
  5
684
102
{ACAD_REACTORS
330
C
102
}
330
C
100
AcDbDictionary
281
     1
  0
ACDBDICTIONARYWDFLT
  5
681
102
{ACAD_REACTORS
330
C
102
}
330
C
100
AcDbDictionary
281
     1
  3
Normal
350
682
100
AcDbDictionaryWithDefault
340
682
  0
XRECORD
  5
4611
102
{ACAD_REACTORS
330
C
102
}
330
C
100
AcDbXrecord
280
     1
 90
   990106
  3

 60
     0
 61
     0
 62
     1
 63
     3
 64
     0
 65
     0
 66
     0
 67
     3
 68
     1
 69
     0
 70
     0
 71
     0
 72
     0
 40
0.0
170
     0
  0
DICTIONARY
  5
45F6
102
{ACAD_REACTORS
330
C
102
}
330
C
100
AcDbDictionary
281
     1
  3
SORTENTS
350
45F7
  0
DICTIONARY
  5
60FF
102
{ACAD_REACTORS
330
60FE
102
}
330
60FE
100
AcDbDictionary
280
     1
281
     1
  3
0
360
6100
  3
11
360
6101
  3
150_
360
6102
  3
160_
360
6103
  3
170_
360
6104
  3
171_
360
6105
  3
350_
360
6106
  3
4
360
6107
  3
5
360
6108
  3
7
360
6109
  3
kiseki
360
610A
  0
DICTIONARY
  5
612E
102
{ACAD_REACTORS
330
60FE
102
}
330
60FE
100
AcDbDictionary
281
     1
  0
GROUP
  5
EB3
102
{ACAD_REACTORS
330
D
102
}
330
D
100
AcDbGroup
300
9^[ﾄcn30
 70
     1
 71
     1
  0
GROUP
  5
4FA5
102
{ACAD_REACTORS
330
D
102
}
330
D
100
AcDbGroup
300

 70
     1
 71
     1
  0
GROUP
  5
3F19
102
{ACAD_REACTORS
330
D
102
}
330
D
100
AcDbGroup
300

 70
     1
 71
     1
  0
GROUP
  5
45DB
102
{ACAD_REACTORS
330
D
102
}
330
D
100
AcDbGroup
300

 70
     1
 71
     1
  0
GROUP
  5
45C9
102
{ACAD_REACTORS
330
D
102
}
330
D
100
AcDbGroup
300

 70
     1
 71
     1
  0
GROUP
  5
4E47
102
{ACAD_REACTORS
330
D
102
}
330
D
100
AcDbGroup
300

 70
     1
 71
     1
  0
GROUP
  5
4F60
102
{ACAD_REACTORS
330
D
102
}
330
D
100
AcDbGroup
300

 70
     1
 71
     1
  0
GROUP
  5
4FA4
102
{ACAD_REACTORS
330
D
102
}
330
D
100
AcDbGroup
300

 70
     1
 71
     1
  0
GROUP
  5
4FC4
102
{ACAD_REACTORS
330
D
102
}
330
D
100
AcDbGroup
300

 70
     1
 71
     1
  0
GROUP
  5
42B3
102
{ACAD_REACTORS
330
D
102
}
330
D
100
AcDbGroup
300

 70
     1
 71
     1
  0
GROUP
  5
4FC5
102
{ACAD_REACTORS
330
D
102
}
330
D
100
AcDbGroup
300

 70
     1
 71
     1
  0
GROUP
  5
115F
102
{ACAD_REACTORS
330
D
102
}
330
D
100
AcDbGroup
300

 70
     1
 71
     1
  0
GROUP
  5
4FC6
102
{ACAD_REACTORS
330
D
102
}
330
D
100
AcDbGroup
300

 70
     1
 71
     1
  0
GROUP
  5
4FC7
102
{ACAD_REACTORS
330
D
102
}
330
D
100
AcDbGroup
300

 70
     1
 71
     1
  0
GROUP
  5
3F5C
102
{ACAD_REACTORS
330
D
102
}
330
D
100
AcDbGroup
300

 70
     1
 71
     1
  0
GROUP
  5
42A9
102
{ACAD_REACTORS
330
D
102
}
330
D
100
AcDbGroup
300

 70
     1
 71
     1
  0
GROUP
  5
EB4
102
{ACAD_REACTORS
330
D
102
}
330
D
100
AcDbGroup
300

 70
     1
 71
     1
  0
GROUP
  5
140A
102
{ACAD_REACTORS
330
D
102
}
330
D
100
AcDbGroup
300

 70
     1
 71
     1
  0
GROUP
  5
ECA
102
{ACAD_REACTORS
330
D
102
}
330
D
100
AcDbGroup
300

 70
     1
 71
     1
  0
GROUP
  5
ECB
102
{ACAD_REACTORS
330
D
102
}
330
D
100
AcDbGroup
300

 70
     1
 71
     1
  0
GROUP
  5
107B
102
{ACAD_REACTORS
330
D
102
}
330
D
100
AcDbGroup
300

 70
     1
 71
     1
  0
GROUP
  5
46BE
102
{ACAD_REACTORS
330
D
102
}
330
D
100
AcDbGroup
300

 70
     1
 71
     1
  0
GROUP
  5
13DE
102
{ACAD_REACTORS
330
D
102
}
330
D
100
AcDbGroup
300

 70
     1
 71
     1
  0
LAYOUT
  5
685
102
{ACAD_REACTORS
330
683
102
}
330
683
100
AcDbPlotSettings
  1

  2
IBM Infoprint 1316J RPCS-A4.pc3
  4
A4
  6

 40
5.873749732971191
 41
5.873747825622558
 42
5.873748779296875
 43
5.873748779296875
 44
296.9259948730469
 45
209.9733276367187
 46
0.0
 47
0.0
 48
0.0
 49
0.0
140
0.0
141
0.0
142
1.0
143
0.7565413888618794
 70
 11952
 72
     1
 73
     0
 74
     0
  7

 75
     0
147
1.321804748190146
148
-431.0099514821218
149
-81.72130883030979
100
AcDbLayout
  1
Model
 70
     1
 71
     0
 10
0.0
 20
0.0
 11
12.0
 21
9.0
 12
0.0
 22
0.0
 32
0.0
 14
0.0
 24
0.0
 34
0.0
 15
0.0
 25
0.0
 35
0.0
146
0.0
 13
0.0
 23
0.0
 33
0.0
 16
1.0
 26
0.0
 36
0.0
 17
0.0
 27
1.0
 37
0.0
 76
     0
330
18
  0
LAYOUT
  5
686
102
{ACAD_REACTORS
330
683
102
}
330
683
100
AcDbPlotSettings
  1

  2
SII LP-1010 (C2 VR)2R.pc3
  4
A4
  6

 40
5.78908348083496
 41
5.789087295532226
 42
5.7890625
 43
5.789077758789062
 44
296.9259948730469
 45
209.9733276367187
 46
0.0
 47
0.0
 48
0.0
 49
0.0
140
0.0
141
0.0
142
1.0
143
1.0
 70
   688
 72
     1
 73
     0
 74
     1
  7
monochrome.ctb
 75
    16
147
1.0
148
0.0049946787044064
149
0.0134275535403958
100
AcDbLayout
  1
ﾚｲｱｳﾄ1
 70
     0
 71
     1
 10
-5.794078159539367
 20
-5.802514849072622
 11
291.1319167135075
 21
204.1708127876461
 12
0.0
 22
0.0
 32
0.0
 14
-0.003803086345556
 24
-0.0132621954251704
 34
-0.0000000000112498
 15
288.0147743886301
 25
210.0035498060874
 35
0.0000000000002956
146
0.0
 13
0.0
 23
0.0
 33
0.0
 16
1.0
 26
0.0
 36
0.0
 17
0.0
 27
1.0
 37
0.0
 76
     0
330
15
331
2E
  0
MLINESTYLE
  5
1C
102
{ACAD_REACTORS
330
1B
102
}
330
1B
100
AcDbMlineStyle
  2
STANDARD
 70
     0
  3

 62
   256
 51
90.0
 52
90.0
 71
     2
 49
0.5
 62
   256
  6
BYLAYER
 49
-0.5
 62
   256
  6
BYLAYER
  0
ACDBPLACEHOLDER
  5
682
102
{ACAD_REACTORS
330
681
102
}
330
681
  0
DICTIONARYVAR
  5
45F7
102
{ACAD_REACTORS
330
45F6
102
}
330
45F6
100
DictionaryVariables
280
     0
  1
96
  0
XRECORD
  5
6100
102
{ACAD_REACTORS
330
60FF
102
}
330
60FF
100
AcDbXrecord
280
     1
  1
0
  1
*0
  1
*
  1
*
 70
     0
  1
*
  1
*
  0
XRECORD
  5
6101
102
{ACAD_REACTORS
330
60FF
102
}
330
60FF
100
AcDbXrecord
280
     1
  1
11
  1
*11
  1
*
  1
*
 70
     0
  1
*
  1
*
  0
XRECORD
  5
6102
102
{ACAD_REACTORS
330
60FF
102
}
330
60FF
100
AcDbXrecord
280
     1
  1
150_
  1
150_*
  1
*
  1
*
 70
     0
  1
*
  1
*
  0
XRECORD
  5
6103
102
{ACAD_REACTORS
330
60FF
102
}
330
60FF
100
AcDbXrecord
280
     1
  1
160_
  1
160_*
  1
*
  1
*
 70
     0
  1
*
  1
*
  0
XRECORD
  5
6104
102
{ACAD_REACTORS
330
60FF
102
}
330
60FF
100
AcDbXrecord
280
     1
  1
170_
  1
170_*
  1
*
  1
*
 70
     0
  1
*
  1
*
  0
XRECORD
  5
6105
102
{ACAD_REACTORS
330
60FF
102
}
330
60FF
100
AcDbXrecord
280
     1
  1
171_
  1
171_*
  1
*
  1
*
 70
     0
  1
*
  1
*
  0
XRECORD
  5
6106
102
{ACAD_REACTORS
330
60FF
102
}
330
60FF
100
AcDbXrecord
280
     1
  1
350_
  1
350_*
  1
*
  1
*
 70
     0
  1
*
  1
*
  0
XRECORD
  5
6107
102
{ACAD_REACTORS
330
60FF
102
}
330
60FF
100
AcDbXrecord
280
     1
  1
4
  1
*4
  1
*
  1
*
 70
     0
  1
*
  1
*
  0
XRECORD
  5
6108
102
{ACAD_REACTORS
330
60FF
102
}
330
60FF
100
AcDbXrecord
280
     1
  1
5
  1
*5
  1
*
  1
*
 70
     0
  1
*
  1
*
  0
XRECORD
  5
6109
102
{ACAD_REACTORS
330
60FF
102
}
330
60FF
100
AcDbXrecord
280
     1
  1
7
  1
*7
  1
*
  1
*
 70
     0
  1
*
  1
*
  0
XRECORD
  5
610A
102
{ACAD_REACTORS
330
60FF
102
}
330
60FF
100
AcDbXrecord
280
     1
  1
kiseki
  1
kiseki*
  1
*
  1
*
 70
     0
  1
*
  1
*
  0
ENDSEC
  0
EOF
