  0
SECTION
  2
HEADER
  9
$ACADVER
  1
AC1015
  9
$ACADMAINTVER
 70
    10
  9
$DWGCODEPAGE
  3
ANSI_932
  9
$INSBASE
 10
0.0
 20
0.0
 30
0.0
  9
$EXTMIN
 10
167.1825875009164
 20
-969.8428683892743
 30
0.0
  9
$EXTMAX
 10
4911.521341639629
 20
2218.451241203808
 30
137.5
  9
$LIMMIN
 10
0.0
 20
0.0
  9
$LIMMAX
 10
420.0
 20
297.0
  9
$ORTHOMODE
 70
     1
  9
$REGENMODE
 70
     1
  9
$FILLMODE
 70
     1
  9
$QTEXTMODE
 70
     0
  9
$MIRRTEXT
 70
     0
  9
$LTSCALE
 40
20.0
  9
$ATTMODE
 70
     2
  9
$TEXTSIZE
 40
2.5
  9
$TRACEWID
 40
1.0
  9
$TEXTSTYLE
  7
まこ
  9
$CLAYER
  8
dimension
  9
$CELTYPE
  6
BYLAYER
  9
$CECOLOR
 62
   256
  9
$CELTSCALE
 40
1.0
  9
$DISPSILH
 70
     0
  9
$DIMSCALE
 40
2.5
  9
$DIMASZ
 40
2.5
  9
$DIMEXO
 40
0.8
  9
$DIMDLI
 40
0.38
  9
$DIMRND
 40
0.0
  9
$DIMDLE
 40
0.0
  9
$DIMEXE
 40
0.18
  9
$DIMTP
 40
0.0
  9
$DIMTM
 40
0.0
  9
$DIMTXT
 40
3.0
  9
$DIMCEN
 40
0.0
  9
$DIMTSZ
 40
0.0
  9
$DIMTOL
 70
     0
  9
$DIMLIM
 70
     0
  9
$DIMTIH
 70
     0
  9
$DIMTOH
 70
     0
  9
$DIMSE1
 70
     0
  9
$DIMSE2
 70
     0
  9
$DIMTAD
 70
     3
  9
$DIMZIN
 70
     8
  9
$DIMBLK
  1
Open30
  9
$DIMASO
 70
     1
  9
$DIMSHO
 70
     1
  9
$DIMPOST
  1

  9
$DIMAPOST
  1

  9
$DIMALT
 70
     0
  9
$DIMALTD
 70
     2
  9
$DIMALTF
 40
25.4
  9
$DIMLFAC
 40
1.0
  9
$DIMTOFL
 70
     0
  9
$DIMTVP
 40
0.0
  9
$DIMTIX
 70
     0
  9
$DIMSOXD
 70
     0
  9
$DIMSAH
 70
     0
  9
$DIMBLK1
  1

  9
$DIMBLK2
  1

  9
$DIMSTYLE
  2
まこ
  9
$DIMCLRD
 70
     4
  9
$DIMCLRE
 70
     4
  9
$DIMCLRT
 70
   256
  9
$DIMTFAC
 40
1.0
  9
$DIMGAP
 40
0.5
  9
$DIMJUST
 70
     0
  9
$DIMSD1
 70
     0
  9
$DIMSD2
 70
     0
  9
$DIMTOLJ
 70
     1
  9
$DIMTZIN
 70
     0
  9
$DIMALTZ
 70
     0
  9
$DIMALTTZ
 70
     0
  9
$DIMUPT
 70
     0
  9
$DIMDEC
 70
     8
  9
$DIMTDEC
 70
     8
  9
$DIMALTU
 70
     2
  9
$DIMALTTD
 70
     2
  9
$DIMTXSTY
  7
まこ
  9
$DIMAUNIT
 70
     0
  9
$DIMADEC
 70
     0
  9
$DIMALTRND
 40
0.0
  9
$DIMAZIN
 70
     0
  9
$DIMDSEP
 70
    46
  9
$DIMATFIT
 70
     1
  9
$DIMFRAC
 70
     0
  9
$DIMLDRBLK
  1
Open30
  9
$DIMLUNIT
 70
     2
  9
$DIMLWD
 70
    13
  9
$DIMLWE
 70
    13
  9
$DIMTMOVE
 70
     0
  9
$LUNITS
 70
     2
  9
$LUPREC
 70
     4
  9
$SKETCHINC
 40
1.0
  9
$FILLETRAD
 40
2.0
  9
$AUNITS
 70
     0
  9
$AUPREC
 70
     0
  9
$MENU
  1
.
  9
$ELEVATION
 40
0.0
  9
$PELEVATION
 40
0.0
  9
$THICKNESS
 40
0.0
  9
$LIMCHECK
 70
     0
  9
$CHAMFERA
 40
0.5
  9
$CHAMFERB
 40
0.5
  9
$CHAMFERC
 40
20.0
  9
$CHAMFERD
 40
0.0
  9
$SKPOLY
 70
     0
  9
$TDCREATE
 40
2451224.660162384
  9
$TDUCREATE
 40
2451224.285162384
  9
$TDUPDATE
 40
2456589.413331342
  9
$TDUUPDATE
 40
2456589.038331342
  9
$TDINDWG
 40
16.1441956134
  9
$TDUSRTIMER
 40
16.1441956134
  9
$USRTIMER
 70
     1
  9
$ANGBASE
 50
0.0
  9
$ANGDIR
 70
     0
  9
$PDMODE
 70
     0
  9
$PDSIZE
 40
0.0
  9
$PLINEWID
 40
0.0
  9
$SPLFRAME
 70
     0
  9
$SPLINETYPE
 70
     6
  9
$SPLINESEGS
 70
     8
  9
$HANDSEED
  5
28665
  9
$SURFTAB1
 70
     6
  9
$SURFTAB2
 70
     6
  9
$SURFTYPE
 70
     6
  9
$SURFU
 70
     6
  9
$SURFV
 70
     6
  9
$UCSBASE
  2

  9
$UCSNAME
  2

  9
$UCSORG
 10
0.0
 20
0.0
 30
0.0
  9
$UCSXDIR
 10
1.0
 20
0.0
 30
0.0
  9
$UCSYDIR
 10
0.0
 20
1.0
 30
0.0
  9
$UCSORTHOREF
  2

  9
$UCSORTHOVIEW
 70
     0
  9
$UCSORGTOP
 10
0.0
 20
0.0
 30
0.0
  9
$UCSORGBOTTOM
 10
0.0
 20
0.0
 30
0.0
  9
$UCSORGLEFT
 10
0.0
 20
0.0
 30
0.0
  9
$UCSORGRIGHT
 10
0.0
 20
0.0
 30
0.0
  9
$UCSORGFRONT
 10
0.0
 20
0.0
 30
0.0
  9
$UCSORGBACK
 10
0.0
 20
0.0
 30
0.0
  9
$PUCSBASE
  2

  9
$PUCSNAME
  2

  9
$PUCSORG
 10
0.0
 20
0.0
 30
0.0
  9
$PUCSXDIR
 10
1.0
 20
0.0
 30
0.0
  9
$PUCSYDIR
 10
0.0
 20
1.0
 30
0.0
  9
$PUCSORTHOREF
  2

  9
$PUCSORTHOVIEW
 70
     0
  9
$PUCSORGTOP
 10
0.0
 20
0.0
 30
0.0
  9
$PUCSORGBOTTOM
 10
0.0
 20
0.0
 30
0.0
  9
$PUCSORGLEFT
 10
0.0
 20
0.0
 30
0.0
  9
$PUCSORGRIGHT
 10
0.0
 20
0.0
 30
0.0
  9
$PUCSORGFRONT
 10
0.0
 20
0.0
 30
0.0
  9
$PUCSORGBACK
 10
0.0
 20
0.0
 30
0.0
  9
$USERI1
 70
     0
  9
$USERI2
 70
     0
  9
$USERI3
 70
     0
  9
$USERI4
 70
     0
  9
$USERI5
 70
     0
  9
$USERR1
 40
245.9999999999999
  9
$USERR2
 40
0.0
  9
$USERR3
 40
0.0
  9
$USERR4
 40
0.0
  9
$USERR5
 40
0.0
  9
$WORLDVIEW
 70
     1
  9
$SHADEDGE
 70
     3
  9
$SHADEDIF
 70
    70
  9
$TILEMODE
 70
     0
  9
$MAXACTVP
 70
    48
  9
$PINSBASE
 10
0.0
 20
0.0
 30
0.0
  9
$PLIMCHECK
 70
     0
  9
$PEXTMIN
 10
-0.0005500942349954
 20
-0.0204613748547899
 30
-0.0000000000112498
  9
$PEXTMAX
 10
401.9015223144154
 20
288.0165173112205
 30
0.0000000000002956
  9
$PLIMMIN
 10
-12.00250551296062
 20
-5.222482862771898
  9
$PLIMMAX
 10
407.9441497604769
 20
291.7458398911343
  9
$UNITMODE
 70
     0
  9
$VISRETAIN
 70
     1
  9
$PLINEGEN
 70
     0
  9
$PSLTSCALE
 70
     0
  9
$TREEDEPTH
 70
  3020
  9
$CMLSTYLE
  2
STANDARD
  9
$CMLJUST
 70
     0
  9
$CMLSCALE
 40
20.0
  9
$PROXYGRAPHICS
 70
     1
  9
$MEASUREMENT
 70
     0
  9
$CELWEIGHT
370
    -1
  9
$ENDCAPS
280
     0
  9
$JOINSTYLE
280
     0
  9
$LWDISPLAY
290
     0
  9
$INSUNITS
 70
     0
  9
$HYPERLINKBASE
  1

  9
$STYLESHEET
  1
monochrome.ctb
  9
$XEDIT
290
     1
  9
$CEPSNTYPE
380
     0
  9
$PSTYLEMODE
290
     1
  9
$FINGERPRINTGUID
  2
{D14EE3FF-941A-415A-9907-344E0A80D794}
  9
$VERSIONGUID
  2
{927A477B-1038-469C-94C5-56FA012BC7E7}
  9
$EXTNAMES
290
     1
  9
$PSVPSCALE
 40
0.0
  9
$OLESTARTUP
290
     0
  0
ENDSEC
  0
SECTION
  2
CLASSES
  0
CLASS
  1
HATCH
  2
AcDbHatch
  3
AutoCAD 2000
 90
    32768
280
     0
281
     1
  0
CLASS
  1
LWPOLYLINE
  2
AcDbPolyline
  3
AutoCAD 2000
 90
    32768
280
     0
281
     1
  0
CLASS
  1
ACDBDICTIONARYWDFLT
  2
AcDbDictionaryWithDefault
  3
AutoCAD 2000
 90
        0
280
     0
281
     0
  0
CLASS
  1
ACDBPLACEHOLDER
  2
AcDbPlaceHolder
  3
AutoCAD 2000
 90
        0
280
     0
281
     0
  0
CLASS
  1
LAYOUT
  2
AcDbLayout
  3
AutoCAD 2000
 90
        0
280
     0
281
     0
  0
CLASS
  1
LONG_TRANSACTION
  2
AcDbLongTransaction
  3
AutoCAD 2000
 90
    32768
280
     0
281
     0
  0
CLASS
  1
LWPOLYLINE
  2
AcDbPolyline
  3
AutoCAD 2000
 90
    32768
280
     0
281
     1
  0
CLASS
  1
HATCH
  2
AcDbHatch
  3
AutoCAD 2000
 90
    32768
280
     0
281
     1
  0
CLASS
  1
XRECORD
  2
AcDbXrecord
  3
AutoCAD 2000
 90
    32768
280
     0
281
     0
  0
CLASS
  1
DICTIONARYVAR
  2
AcDbDictionaryVar
  3
AutoCAD 2000
 90
        0
280
     0
281
     0
  0
ENDSEC
  0
SECTION
  2
TABLES
  0
TABLE
  2
VPORT
  5
8
330
0
100
AcDbSymbolTable
 70
     2
  0
VPORT
  5
28663
330
8
100
AcDbSymbolTableRecord
100
AcDbViewportTableRecord
  2
*Active
 70
     0
 10
0.0
 20
0.0
 11
1.0
 21
1.0
 12
4415.688339261955
 22
-786.5681884587343
 13
0.0
 23
0.0
 14
10.0
 24
10.0
 15
10.0
 25
10.0
 16
0.0
 26
0.0
 36
1.0
 17
0.0
 27
0.0
 37
0.0
 40
490.1639304733158
 41
1.992047713717693
 42
50.0
 43
0.0
 44
0.0
 50
0.0
 51
0.0
 71
     0
 72
   100
 73
     1
 74
     0
 75
     0
 76
     0
 77
     0
 78
     0
281
     0
 65
     1
110
0.0
120
0.0
130
0.0
111
1.0
121
0.0
131
0.0
112
0.0
122
1.0
132
0.0
 79
     0
146
0.0
  0
ENDTAB
  0
TABLE
  2
LTYPE
  5
5
330
0
100
AcDbSymbolTable
 70
    10
  0
LTYPE
  5
12
330
5
100
AcDbSymbolTableRecord
100
AcDbLinetypeTableRecord
  2
BYBLOCK
 70
     0
  3

 72
    65
 73
     0
 40
0.0
  0
LTYPE
  5
13
330
5
100
AcDbSymbolTableRecord
100
AcDbLinetypeTableRecord
  2
BYLAYER
 70
     0
  3

 72
    65
 73
     0
 40
0.0
  0
LTYPE
  5
14
330
5
100
AcDbSymbolTableRecord
100
AcDbLinetypeTableRecord
  2
CONTINUOUS
 70
     0
  3
Solid line
 72
    65
 73
     0
 40
0.0
  0
LTYPE
  5
126C
330
5
100
AcDbSymbolTableRecord
100
AcDbLinetypeTableRecord
  2
CENTER
 70
     0
  3
____ _ ____ _ ____ _ ____ _ ____ _ ____ _ ____
 72
    65
 73
     4
 40
2.0
 49
1.25
 74
     0
 49
-0.25
 74
     0
 49
0.25
 74
     0
 49
-0.25
 74
     0
  0
LTYPE
  5
126E
330
5
100
AcDbSymbolTableRecord
100
AcDbLinetypeTableRecord
  2
DASHDOT
 70
     0
  3
__ . __ . __ . __ . __ . __ . __ . __ . __ . __
 72
    65
 73
     4
 40
1.0
 49
0.5
 74
     0
 49
-0.25
 74
     0
 49
0.0
 74
     0
 49
-0.25
 74
     0
  0
LTYPE
  5
1541F
330
5
100
AcDbSymbolTableRecord
100
AcDbLinetypeTableRecord
  2
HIDDEN
 70
     0
  3
_ _ _ _ _ _ _ _ _ _ _ _ _ _ _ _ _ _ _ _ _ _ _
 72
    65
 73
     2
 40
0.375
 49
0.25
 74
     0
 49
-0.125
 74
     0
  0
LTYPE
  5
1615D
330
5
100
AcDbSymbolTableRecord
100
AcDbLinetypeTableRecord
  2
PHANTOM
 70
     0
  3
Phantom ______  __  __  ______  __  __  ______
 72
    65
 73
     6
 40
2.5
 49
1.25
 74
     0
 49
-0.25
 74
     0
 49
0.25
 74
     0
 49
-0.25
 74
     0
 49
0.25
 74
     0
 49
-0.25
 74
     0
  0
ENDTAB
  0
TABLE
  2
LAYER
  5
2
102
{ACAD_XDICTIONARY
360
283CC
102
}
330
0
100
AcDbSymbolTable
 70
    45
  0
LAYER
  5
E
330
2
100
AcDbSymbolTableRecord
100
AcDbLayerTableRecord
  2
0
 70
     2
 62
     7
  6
CONTINUOUS
370
    35
390
FB5C
  0
LAYER
  5
2C
330
2
100
AcDbSymbolTableRecord
100
AcDbLayerTableRecord
  2
M_VIEW
 70
     4
 62
    -1
  6
CONTINUOUS
370
    -3
390
FB5C
  0
LAYER
  5
30
330
2
100
AcDbSymbolTableRecord
100
AcDbLayerTableRecord
  2
FRAME025
 70
     0
 62
     7
  6
CONTINUOUS
370
    -3
390
FB5C
  0
LAYER
  5
12B
330
2
100
AcDbSymbolTableRecord
100
AcDbLayerTableRecord
  2
DEFPOINTS
 70
     4
 62
    -7
  6
CONTINUOUS
290
     0
370
    -3
390
FB5C
  0
LAYER
  5
651
330
2
100
AcDbSymbolTableRecord
100
AcDbLayerTableRecord
  2
FRAME020
 70
     0
 62
     7
  6
CONTINUOUS
370
    -3
390
FB5C
  0
LAYER
  5
1271
330
2
100
AcDbSymbolTableRecord
100
AcDbLayerTableRecord
  2
A
 70
     0
 62
     7
  6
CONTINUOUS
370
    -3
390
FB5C
  0
LAYER
  5
A9BB
330
2
100
AcDbSymbolTableRecord
100
AcDbLayerTableRecord
  2
文字
 70
     0
 62
     2
  6
CONTINUOUS
370
    13
390
FB5C
  0
LAYER
  5
122DE
330
2
100
AcDbSymbolTableRecord
100
AcDbLayerTableRecord
  2
dimension
 70
     0
 62
     4
  6
CONTINUOUS
370
    13
390
FB5C
  0
LAYER
  5
15422
330
2
100
AcDbSymbolTableRecord
100
AcDbLayerTableRecord
  2
細線
 70
     0
 62
     4
  6
CONTINUOUS
370
    13
390
FB5C
  0
LAYER
  5
1A846
330
2
100
AcDbSymbolTableRecord
100
AcDbLayerTableRecord
  2
実線
 70
     0
 62
     3
  6
CONTINUOUS
370
    40
390
FB5C
  0
LAYER
  5
1BB4F
330
2
100
AcDbSymbolTableRecord
100
AcDbLayerTableRecord
  2
隠れ線
 70
     0
 62
   252
  6
HIDDEN
370
     9
390
FB5C
  0
LAYER
  5
1BB52
330
2
100
AcDbSymbolTableRecord
100
AcDbLayerTableRecord
  2
基板
 70
     0
 62
   141
  6
CONTINUOUS
370
    40
390
FB5C
  0
LAYER
  5
1F118
330
2
100
AcDbSymbolTableRecord
100
AcDbLayerTableRecord
  2
wakumoji
 70
     0
 62
     7
  6
CONTINUOUS
370
    -3
390
FB5C
  0
ENDTAB
  0
TABLE
  2
STYLE
  5
3
330
0
100
AcDbSymbolTable
 70
    15
  0
STYLE
  5
F
330
3
100
AcDbSymbolTableRecord
100
AcDbTextStyleTableRecord
  2
STANDARD
 70
     0
 40
0.0
 41
1.0
 50
0.0
 71
     0
 42
2.5
  3
MS Gothic.ttf
  4

1001
ACAD
1000
MS Gothic
1071
    32817
  0
STYLE
  5
34
330
3
100
AcDbSymbolTableRecord
100
AcDbTextStyleTableRecord
  2
TIMESNR
 70
     0
 40
0.0
 41
1.0
 50
0.0
 71
     0
 42
2.0
  3
MS Gothic.ttf
  4

1001
ACAD
1000
MS Gothic
1071
    32817
  0
STYLE
  5
35
330
3
100
AcDbSymbolTableRecord
100
AcDbTextStyleTableRecord
  2
MSｺﾞｼｯｸ
 70
     0
 40
0.0
 41
1.0
 50
0.0
 71
     0
 42
5.0
  3
MS Gothic.ttf
  4

1001
ACAD
1000
MS Gothic
1071
    32817
  0
STYLE
  5
1275
330
3
100
AcDbSymbolTableRecord
100
AcDbTextStyleTableRecord
  2
BIGFONT
 70
     0
 40
2.0
 41
1.0
 50
0.0
 71
     0
 42
2.0
  3
MS Gothic.ttf
  4

1001
ACAD
1000
MS Gothic
1071
    32817
  0
STYLE
  5
1A849
330
3
100
AcDbSymbolTableRecord
100
AcDbTextStyleTableRecord
  2
まこ
 70
     0
 40
0.0
 41
1.0
 50
0.0
 71
     0
 42
2.5
  3
MS Gothic.ttf
  4

1001
ACAD
1000
MS Gothic
1071
    32817
  0
STYLE
  5
1A84A
330
3
100
AcDbSymbolTableRecord
100
AcDbTextStyleTableRecord
  2
ｽﾀｲﾙ3
 70
     0
 40
10.0
 41
1.0
 50
0.0
 71
     0
 42
10.0
  3
MS Gothic.ttf
  4

1001
ACAD
1000
MS Gothic
1071
    32817
  0
STYLE
  5
1F8B3
330
3
100
AcDbSymbolTableRecord
100
AcDbTextStyleTableRecord
  2
MSｺﾞｼｯｸN
 70
     0
 40
0.0
 41
1.0
 50
0.0
 71
     0
 42
5.0
  3
MS Gothic.ttf
  4

1001
ACAD
1000
MS Gothic
1071
    32817
  0
STYLE
  5
1FA56
330
3
100
AcDbSymbolTableRecord
100
AcDbTextStyleTableRecord
  2
MSゴシックN
 70
     0
 40
0.0
 41
1.0
 50
0.0
 71
     0
 42
5.0
  3
MS Gothic.ttf
  4

1001
ACAD
1000
MS Gothic
1071
    32817
  0
ENDTAB
  0
TABLE
  2
VIEW
  5
6
330
0
100
AcDbSymbolTable
 70
     0
  0
ENDTAB
  0
TABLE
  2
UCS
  5
7
330
0
100
AcDbSymbolTable
 70
     0
  0
ENDTAB
  0
TABLE
  2
APPID
  5
9
330
0
100
AcDbSymbolTable
 70
     4
  0
APPID
  5
10
330
9
100
AcDbSymbolTableRecord
100
AcDbRegAppTableRecord
  2
ACAD
 70
     0
  0
APPID
  5
F013
330
9
100
AcDbSymbolTableRecord
100
AcDbRegAppTableRecord
  2
CONTENTBLOCKDESCRIPTION
 70
     0
  0
APPID
  5
F014
330
9
100
AcDbSymbolTableRecord
100
AcDbRegAppTableRecord
  2
CONTENTBLOCKICON
 70
     0
  0
APPID
  5
1A9A0
330
9
100
AcDbSymbolTableRecord
100
AcDbRegAppTableRecord
  2
DCO15
 70
     0
  0
ENDTAB
  0
TABLE
  2
DIMSTYLE
  5
A
330
0
100
AcDbSymbolTable
 70
    13
100
AcDbDimStyleTable
 71
     2
340
1A84D
340
1D
  0
DIMSTYLE
105
1D
330
A
100
AcDbSymbolTableRecord
100
AcDbDimStyleTableRecord
  2
STANDARD
 70
     0
340
F
  0
DIMSTYLE
105
1A84D
102
{ACAD_REACTORS
330
27924
330
2792B
330
2792C
330
279BE
330
279B1
330
27929
330
279AF
330
27A00
330
2792A
330
27A59
330
27AC1
330
27B06
330
27B05
330
27AF3
330
27AF2
330
27AF4
330
27AF5
330
27A5A
330
27FCB
330
27FD8
330
27933
330
27934
330
27A51
330
27A61
330
27AE7
330
28011
330
27FF7
102
}
330
A
100
AcDbSymbolTableRecord
100
AcDbDimStyleTableRecord
  2
まこ
 70
     0
 40
2.5
 41
2.5
 42
0.8
 73
     0
 74
     0
 77
     3
 78
     8
140
3.0
141
0.0
147
0.5
176
     4
177
     4
178
   256
271
     8
272
     8
289
     1
340
1A849
341
1215D
342
1215D
371
    13
372
    13
  0
ENDTAB
  0
TABLE
  2
BLOCK_RECORD
  5
1
330
0
100
AcDbSymbolTable
 70
    62
  0
BLOCK_RECORD
  5
18
102
{ACAD_XDICTIONARY
360
EFC6
102
}
330
1
100
AcDbSymbolTableRecord
100
AcDbBlockTableRecord
  2
*MODEL_SPACE
340
FB5D
  0
BLOCK_RECORD
  5
15
102
{ACAD_XDICTIONARY
360
EFC4
102
}
330
1
100
AcDbSymbolTableRecord
100
AcDbBlockTableRecord
  2
*PAPER_SPACE
340
FB5E
  0
BLOCK_RECORD
  5
115C
330
1
100
AcDbSymbolTableRecord
100
AcDbBlockTableRecord
  2
機械A4横_LBP
340
0
102
{BLKREFS
331
115F
331
187D7
102
}
  0
BLOCK_RECORD
  5
1215D
330
1
100
AcDbSymbolTableRecord
100
AcDbBlockTableRecord
  2
_Open30
340
0
102
{BLKREFS
331
280E3
331
280E4
331
2812F
331
28130
331
28139
331
2813A
331
28179
331
2817A
331
2818B
331
2818C
331
28212
331
28213
331
2822D
331
2822E
331
28240
331
28241
331
2825E
331
2825F
331
28267
331
28268
331
28291
331
28292
331
2829A
331
2829B
331
282A3
331
282A4
331
282AC
331
282AD
331
282B5
331
282B6
331
282BE
331
282BF
331
28301
331
28302
331
28315
331
28316
331
28360
331
28361
331
2836E
331
28385
102
}
  0
BLOCK_RECORD
  5
153E2
330
1
100
AcDbSymbolTableRecord
100
AcDbBlockTableRecord
  2
_DotSmall
340
0
102
{BLKREFS
331
2836F
331
28384
102
}
  0
BLOCK_RECORD
  5
27B12
330
1
100
AcDbSymbolTableRecord
100
AcDbBlockTableRecord
  2
*D39
340
0
  0
BLOCK_RECORD
  5
27B1E
330
1
100
AcDbSymbolTableRecord
100
AcDbBlockTableRecord
  2
*D40
340
0
  0
BLOCK_RECORD
  5
27B2A
330
1
100
AcDbSymbolTableRecord
100
AcDbBlockTableRecord
  2
*D41
340
0
  0
BLOCK_RECORD
  5
27B36
330
1
100
AcDbSymbolTableRecord
100
AcDbBlockTableRecord
  2
*D42
340
0
  0
BLOCK_RECORD
  5
27B42
330
1
100
AcDbSymbolTableRecord
100
AcDbBlockTableRecord
  2
*D43
340
0
  0
BLOCK_RECORD
  5
27B4E
330
1
100
AcDbSymbolTableRecord
100
AcDbBlockTableRecord
  2
*D44
340
0
  0
BLOCK_RECORD
  5
27B5B
330
1
100
AcDbSymbolTableRecord
100
AcDbBlockTableRecord
  2
*D45
340
0
  0
BLOCK_RECORD
  5
27B73
330
1
100
AcDbSymbolTableRecord
100
AcDbBlockTableRecord
  2
*D46
340
0
  0
BLOCK_RECORD
  5
27B7F
330
1
100
AcDbSymbolTableRecord
100
AcDbBlockTableRecord
  2
*D47
340
0
  0
BLOCK_RECORD
  5
27B8C
330
1
100
AcDbSymbolTableRecord
100
AcDbBlockTableRecord
  2
*D48
340
0
  0
BLOCK_RECORD
  5
27B98
330
1
100
AcDbSymbolTableRecord
100
AcDbBlockTableRecord
  2
*D49
340
0
  0
BLOCK_RECORD
  5
27BA4
330
1
100
AcDbSymbolTableRecord
100
AcDbBlockTableRecord
  2
*D50
340
0
  0
BLOCK_RECORD
  5
27BB0
330
1
100
AcDbSymbolTableRecord
100
AcDbBlockTableRecord
  2
*D51
340
0
  0
BLOCK_RECORD
  5
27BBC
330
1
100
AcDbSymbolTableRecord
100
AcDbBlockTableRecord
  2
*D52
340
0
  0
BLOCK_RECORD
  5
27BCC
330
1
100
AcDbSymbolTableRecord
100
AcDbBlockTableRecord
  2
*D53
340
0
  0
BLOCK_RECORD
  5
27BD8
330
1
100
AcDbSymbolTableRecord
100
AcDbBlockTableRecord
  2
*D54
340
0
  0
BLOCK_RECORD
  5
27BE4
330
1
100
AcDbSymbolTableRecord
100
AcDbBlockTableRecord
  2
*D55
340
0
  0
BLOCK_RECORD
  5
27BF0
330
1
100
AcDbSymbolTableRecord
100
AcDbBlockTableRecord
  2
*D56
340
0
  0
BLOCK_RECORD
  5
27FCC
330
1
100
AcDbSymbolTableRecord
100
AcDbBlockTableRecord
  2
*D57
340
0
  0
BLOCK_RECORD
  5
27FD9
330
1
100
AcDbSymbolTableRecord
100
AcDbBlockTableRecord
  2
*D58
340
0
  0
BLOCK_RECORD
  5
27FF8
330
1
100
AcDbSymbolTableRecord
100
AcDbBlockTableRecord
  2
*D59
340
0
  0
ENDTAB
  0
ENDSEC
  0
SECTION
  2
BLOCKS
  0
BLOCK
  5
19
330
18
100
AcDbEntity
  8
0
100
AcDbBlockBegin
  2
*MODEL_SPACE
 70
     0
 10
0.0
 20
0.0
 30
0.0
  3
*MODEL_SPACE
  1

  0
ENDBLK
  5
1A
330
18
100
AcDbEntity
  8
0
100
AcDbBlockEnd
  0
BLOCK
  5
16
330
15
100
AcDbEntity
 67
     1
  8
0
100
AcDbBlockBegin
  2
*PAPER_SPACE
 70
     0
 10
0.0
 20
0.0
 30
0.0
  3
*PAPER_SPACE
  1

  0
ENDBLK
  5
17
330
15
100
AcDbEntity
 67
     1
  8
0
100
AcDbBlockEnd
  0
BLOCK
  5
115D
330
115C
100
AcDbEntity
  8
0
100
AcDbBlockBegin
  2
機械A4横_LBP
 70
     0
 10
0.0
 20
0.0
 30
0.0
  3
機械A4横_LBP
  1

  0
ENDBLK
  5
115E
330
115C
100
AcDbEntity
  8
0
100
AcDbBlockEnd
  0
BLOCK
  5
12161
330
1215D
100
AcDbEntity
  8
0
100
AcDbBlockBegin
  2
_Open30
 70
     0
 10
0.0
 20
0.0
 30
0.0
  3
_Open30
  1

  0
LINE
  5
1215E
330
1215D
100
AcDbEntity
  8
0
  6
ByBlock
 62
     0
370
    -2
100
AcDbLine
 10
-1.0
 20
0.26794919
 30
0.0
 11
0.0
 21
0.0
 31
0.0
  0
LINE
  5
1215F
330
1215D
100
AcDbEntity
  8
0
  6
ByBlock
 62
     0
370
    -2
100
AcDbLine
 10
0.0
 20
0.0
 30
0.0
 11
-1.0
 21
-0.26794919
 31
0.0
  0
LINE
  5
12160
330
1215D
100
AcDbEntity
  8
0
  6
ByBlock
 62
     0
370
    -2
100
AcDbLine
 10
0.0
 20
0.0
 30
0.0
 11
-1.0
 21
0.0
 31
0.0
  0
ENDBLK
  5
12162
330
1215D
100
AcDbEntity
  8
0
100
AcDbBlockEnd
  0
BLOCK
  5
153E4
330
153E2
100
AcDbEntity
  8
0
100
AcDbBlockBegin
  2
_DotSmall
 70
     0
 10
0.0
 20
0.0
 30
0.0
  3
_DotSmall
  1

  0
LWPOLYLINE
  5
153E3
330
153E2
100
AcDbEntity
  8
0
  6
ByBlock
 62
     0
100
AcDbPolyline
 90
        2
 70
     1
 43
0.5
 10
-0.0625
 20
0.0
 42
1.0
 10
0.0625
 20
0.0
 42
1.0
  0
ENDBLK
  5
153E5
330
153E2
100
AcDbEntity
  8
0
100
AcDbBlockEnd
  0
BLOCK
  5
27B1C
330
27B12
100
AcDbEntity
  8
0
 62
     4
370
    13
100
AcDbBlockBegin
  2
*D39
 70
     1
 10
0.0
 20
0.0
 30
0.0
  3
*D39
  1

  0
LINE
  5
282A9
330
27B12
100
AcDbEntity
  8
文字
 62
     4
370
    13
100
AcDbLine
 10
4594.761898348198
 20
-821.0384981060906
 30
0.0
 11
4594.761898348198
 21
-860.6951412771346
 31
0.0
  0
LINE
  5
282AA
330
27B12
100
AcDbEntity
  8
文字
 62
     4
370
    13
100
AcDbLine
 10
4679.835437808219
 20
-824.2649880218841
 30
0.0
 11
4679.835437808219
 21
-860.6951412771346
 31
0.0
  0
LINE
  5
282AB
330
27B12
100
AcDbEntity
  8
文字
 62
     4
370
    13
100
AcDbLine
 10
4601.011898348199
 20
-860.2451412771344
 30
0.0
 11
4673.58543780822
 21
-860.2451412771344
 31
0.0
  0
INSERT
  5
282AC
330
27B12
100
AcDbEntity
  8
文字
 62
     4
370
    13
100
AcDbBlockReference
  2
_Open30
 10
4594.761898348198
 20
-860.2451412771344
 30
0.0
 41
6.25
 42
6.25
 43
6.25
 50
180.0
  0
INSERT
  5
282AD
330
27B12
100
AcDbEntity
  8
文字
 62
     4
370
    13
100
AcDbBlockReference
  2
_Open30
 10
4679.835437808219
 20
-860.2451412771344
 30
0.0
 41
6.25
 42
6.25
 43
6.25
  0
MTEXT
  5
282AE
330
27B12
100
AcDbEntity
  8
文字
370
    13
100
AcDbMText
 10
4637.298668078209
 20
-855.2451412771345
 30
0.0
 40
7.5
 41
0.0
 71
     5
 72
     1
  1
\A1;（200）
  7
まこ
 73
     1
 44
1.0
  0
POINT
  5
282AF
330
27B12
100
AcDbEntity
  8
DEFPOINTS
 62
     0
370
    30
100
AcDbPoint
 10
4594.761898348198
 20
-819.0384981060907
 30
0.0
  0
POINT
  5
282B0
330
27B12
100
AcDbEntity
  8
DEFPOINTS
 62
     0
370
    30
100
AcDbPoint
 10
4679.835437808219
 20
-822.2649880218842
 30
0.0
  0
POINT
  5
282B1
330
27B12
100
AcDbEntity
  8
DEFPOINTS
 62
     0
370
    30
100
AcDbPoint
 10
4679.835437808219
 20
-860.2451412771344
 30
0.0
  0
ENDBLK
  5
27B1D
330
27B12
100
AcDbEntity
  8
0
 62
     4
370
    13
100
AcDbBlockEnd
  0
BLOCK
  5
27B28
330
27B1E
100
AcDbEntity
  8
0
 62
     4
370
    13
100
AcDbBlockBegin
  2
*D40
 70
     1
 10
0.0
 20
0.0
 30
0.0
  3
*D40
  1

  0
LINE
  5
282B2
330
27B1E
100
AcDbEntity
  8
0
 62
     4
370
    13
100
AcDbLine
 10
4109.699714982261
 20
-696.5384981060906
 30
0.0
 11
4061.641515864049
 21
-696.5384981060906
 31
0.0
  0
LINE
  5
282B3
330
27B1E
100
AcDbEntity
  8
0
 62
     4
370
    13
100
AcDbLine
 10
4109.678658765631
 20
-811.5384981060906
 30
0.0
 11
4061.641515864049
 21
-811.5384981060906
 31
0.0
  0
LINE
  5
282B4
330
27B1E
100
AcDbEntity
  8
0
 62
     4
370
    13
100
AcDbLine
 10
4062.091515864049
 20
-702.7884981060906
 30
0.0
 11
4062.091515864049
 21
-805.2884981060906
 31
0.0
  0
INSERT
  5
282B5
330
27B1E
100
AcDbEntity
  8
0
 62
     4
370
    13
100
AcDbBlockReference
  2
_Open30
 10
4062.091515864049
 20
-696.5384981060906
 30
0.0
 41
6.25
 42
6.25
 43
6.25
 50
90.0
  0
INSERT
  5
282B6
330
27B1E
100
AcDbEntity
  8
0
 62
     4
370
    13
100
AcDbBlockReference
  2
_Open30
 10
4062.091515864049
 20
-811.5384981060906
 30
0.0
 41
6.25
 42
6.25
 43
6.25
 50
270.0
  0
MTEXT
  5
282B7
330
27B1E
100
AcDbEntity
  8
0
370
    13
100
AcDbMText
 10
4057.091515864049
 20
-754.0384981060899
 30
0.0
 40
7.5
 41
0.0
 71
     5
 72
     1
  1
\A1;115
  7
まこ
 11
0.0000000000000001
 21
1.0
 31
0.0
 73
     1
 44
1.0
  0
POINT
  5
282B8
330
27B1E
100
AcDbEntity
  8
DEFPOINTS
 62
     0
370
    30
100
AcDbPoint
 10
4111.699714982261
 20
-696.5384981060906
 30
0.0
  0
POINT
  5
282B9
330
27B1E
100
AcDbEntity
  8
DEFPOINTS
 62
     0
370
    30
100
AcDbPoint
 10
4111.678658765631
 20
-811.5384981060906
 30
0.0
  0
POINT
  5
282BA
330
27B1E
100
AcDbEntity
  8
DEFPOINTS
 62
     0
370
    30
100
AcDbPoint
 10
4062.091515864049
 20
-811.5384981060906
 30
0.0
  0
ENDBLK
  5
27B29
330
27B1E
100
AcDbEntity
  8
0
 62
     4
370
    13
100
AcDbBlockEnd
  0
BLOCK
  5
27B34
330
27B2A
100
AcDbEntity
  8
0
 62
     4
370
    13
100
AcDbBlockBegin
  2
*D41
 70
     1
 10
0.0
 20
0.0
 30
0.0
  3
*D41
  1

  0
LINE
  5
282BB
330
27B2A
100
AcDbEntity
  8
0
 62
     4
370
    13
100
AcDbLine
 10
4084.761898348198
 20
-689.0384981060906
 30
0.0
 11
4050.457397654501
 21
-689.0384981060906
 31
0.0
  0
LINE
  5
282BC
330
27B2A
100
AcDbEntity
  8
0
 62
     4
370
    13
100
AcDbLine
 10
4084.761898348198
 20
-819.0384981060907
 30
0.0
 11
4050.457397654501
 21
-819.0384981060907
 31
0.0
  0
LINE
  5
282BD
330
27B2A
100
AcDbEntity
  8
0
 62
     4
370
    13
100
AcDbLine
 10
4050.9073976545
 20
-695.2884981060906
 30
0.0
 11
4050.9073976545
 21
-812.7884981060907
 31
0.0
  0
INSERT
  5
282BE
330
27B2A
100
AcDbEntity
  8
0
 62
     4
370
    13
100
AcDbBlockReference
  2
_Open30
 10
4050.9073976545
 20
-689.0384981060906
 30
0.0
 41
6.25
 42
6.25
 43
6.25
 50
90.0
  0
INSERT
  5
282BF
330
27B2A
100
AcDbEntity
  8
0
 62
     4
370
    13
100
AcDbBlockReference
  2
_Open30
 10
4050.9073976545
 20
-819.0384981060907
 30
0.0
 41
6.25
 42
6.25
 43
6.25
 50
270.0
  0
MTEXT
  5
282C0
330
27B2A
100
AcDbEntity
  8
0
370
    13
100
AcDbMText
 10
4045.907397654501
 20
-754.0384981060899
 30
0.0
 40
7.5
 41
0.0
 71
     5
 72
     1
  1
\A1;130
  7
まこ
 11
0.0000000000000001
 21
1.0
 31
0.0
 73
     1
 44
1.0
  0
POINT
  5
282C1
330
27B2A
100
AcDbEntity
  8
DEFPOINTS
 62
     0
370
    30
100
AcDbPoint
 10
4086.761898348199
 20
-689.0384981060906
 30
0.0
  0
POINT
  5
282C2
330
27B2A
100
AcDbEntity
  8
DEFPOINTS
 62
     0
370
    30
100
AcDbPoint
 10
4086.761898348199
 20
-819.0384981060907
 30
0.0
  0
POINT
  5
282C3
330
27B2A
100
AcDbEntity
  8
DEFPOINTS
 62
     0
370
    30
100
AcDbPoint
 10
4050.9073976545
 20
-819.0384981060907
 30
0.0
  0
ENDBLK
  5
27B35
330
27B2A
100
AcDbEntity
  8
0
 62
     4
370
    13
100
AcDbBlockEnd
  0
BLOCK
  5
27B40
330
27B36
100
AcDbEntity
  8
0
 62
     4
370
    13
100
AcDbBlockBegin
  2
*D42
 70
     1
 10
0.0
 20
0.0
 30
0.0
  3
*D42
  1

  0
LINE
  5
28188
330
27B36
100
AcDbEntity
  8
文字
 62
     4
370
    13
100
AcDbLine
 10
4086.761898348199
 20
-821.0384981060906
 30
0.0
 11
4086.761898348199
 21
-850.3985735497368
 31
0.0
  0
LINE
  5
28189
330
27B36
100
AcDbEntity
  8
文字
 62
     4
370
    13
100
AcDbLine
 10
4116.761898348198
 20
-818.9352692111892
 30
0.0
 11
4116.761898348198
 21
-850.3985735497368
 31
0.0
  0
LINE
  5
2818A
330
27B36
100
AcDbEntity
  8
文字
 62
     4
370
    13
100
AcDbLine
 10
4093.0118983482
 20
-849.9485735497367
 30
0.0
 11
4110.511898348199
 21
-849.9485735497367
 31
0.0
  0
INSERT
  5
2818B
330
27B36
100
AcDbEntity
  8
文字
 62
     4
370
    13
100
AcDbBlockReference
  2
_Open30
 10
4086.761898348199
 20
-849.9485735497367
 30
0.0
 41
6.25
 42
6.25
 43
6.25
 50
180.0
  0
INSERT
  5
2818C
330
27B36
100
AcDbEntity
  8
文字
 62
     4
370
    13
100
AcDbBlockReference
  2
_Open30
 10
4116.761898348198
 20
-849.9485735497367
 30
0.0
 41
6.25
 42
6.25
 43
6.25
  0
MTEXT
  5
2818D
330
27B36
100
AcDbEntity
  8
文字
370
    13
100
AcDbMText
 10
4101.761898348199
 20
-844.9485735497367
 30
0.0
 40
7.5
 41
0.0
 71
     5
 72
     1
  1
\A1;30
  7
まこ
 73
     1
 44
1.0
  0
POINT
  5
2818E
330
27B36
100
AcDbEntity
  8
DEFPOINTS
 62
     0
370
    30
100
AcDbPoint
 10
4086.761898348199
 20
-819.0384981060907
 30
0.0
  0
POINT
  5
2818F
330
27B36
100
AcDbEntity
  8
DEFPOINTS
 62
     0
370
    30
100
AcDbPoint
 10
4116.761898348198
 20
-816.9352692111893
 30
0.0
  0
POINT
  5
28190
330
27B36
100
AcDbEntity
  8
DEFPOINTS
 62
     0
370
    30
100
AcDbPoint
 10
4116.761898348198
 20
-849.9485735497367
 30
0.0
  0
ENDBLK
  5
27B41
330
27B36
100
AcDbEntity
  8
0
 62
     4
370
    13
100
AcDbBlockEnd
  0
BLOCK
  5
27B4C
330
27B42
100
AcDbEntity
  8
0
 62
     4
370
    13
100
AcDbBlockBegin
  2
*D43
 70
     1
 10
0.0
 20
0.0
 30
0.0
  3
*D43
  1

  0
LINE
  5
282A0
330
27B42
100
AcDbEntity
  8
文字
 62
     4
370
    13
100
AcDbLine
 10
4086.761898348199
 20
-821.0384981060906
 30
0.0
 11
4086.761898348199
 21
-860.6951412771346
 31
0.0
  0
LINE
  5
282A1
330
27B42
100
AcDbEntity
  8
文字
 62
     4
370
    13
100
AcDbLine
 10
4594.761898348198
 20
-821.0384981060906
 30
0.0
 11
4594.761898348198
 21
-860.6951412771346
 31
0.0
  0
LINE
  5
282A2
330
27B42
100
AcDbEntity
  8
文字
 62
     4
370
    13
100
AcDbLine
 10
4093.011898348199
 20
-860.2451412771344
 30
0.0
 11
4588.511898348198
 21
-860.2451412771344
 31
0.0
  0
INSERT
  5
282A3
330
27B42
100
AcDbEntity
  8
文字
 62
     4
370
    13
100
AcDbBlockReference
  2
_Open30
 10
4086.761898348199
 20
-860.2451412771344
 30
0.0
 41
6.25
 42
6.25
 43
6.25
 50
180.0
  0
INSERT
  5
282A4
330
27B42
100
AcDbEntity
  8
文字
 62
     4
370
    13
100
AcDbBlockReference
  2
_Open30
 10
4594.761898348198
 20
-860.2451412771344
 30
0.0
 41
6.25
 42
6.25
 43
6.25
  0
MTEXT
  5
282A5
330
27B42
100
AcDbEntity
  8
文字
370
    13
100
AcDbMText
 10
4340.761898348199
 20
-855.2451412771345
 30
0.0
 40
7.5
 41
0.0
 71
     5
 72
     1
  1
\A1;508
  7
まこ
 73
     1
 44
1.0
  0
POINT
  5
282A6
330
27B42
100
AcDbEntity
  8
DEFPOINTS
 62
     0
370
    30
100
AcDbPoint
 10
4086.761898348199
 20
-819.0384981060907
 30
0.0
  0
POINT
  5
282A7
330
27B42
100
AcDbEntity
  8
DEFPOINTS
 62
     0
370
    30
100
AcDbPoint
 10
4594.761898348198
 20
-819.0384981060907
 30
0.0
  0
POINT
  5
282A8
330
27B42
100
AcDbEntity
  8
DEFPOINTS
 62
     0
370
    30
100
AcDbPoint
 10
4594.761898348198
 20
-860.2451412771344
 30
0.0
  0
ENDBLK
  5
27B4D
330
27B42
100
AcDbEntity
  8
0
 62
     4
370
    13
100
AcDbBlockEnd
  0
BLOCK
  5
27B59
330
27B4E
100
AcDbEntity
  8
0
 62
     4
370
    13
100
AcDbBlockBegin
  2
*D44
 70
     1
 10
0.0
 20
0.0
 30
0.0
  3
*D44
  1

  0
LINE
  5
2812B
330
27B4E
100
AcDbEntity
  8
0
 62
     4
370
    13
100
AcDbLine
 10
4109.655600747344
 20
-811.5384981060906
 30
0.0
 11
4061.641515864049
 21
-811.5384981060906
 31
0.0
  0
LINE
  5
2812C
330
27B4E
100
AcDbEntity
  8
0
 62
     4
370
    13
100
AcDbLine
 10
4084.761898348198
 20
-819.0384981060907
 30
0.0
 11
4061.641515864049
 21
-819.0384981060907
 31
0.0
  0
LINE
  5
2812D
330
27B4E
100
AcDbEntity
  8
0
 62
     4
370
    13
100
AcDbLine
 10
4062.091515864049
 20
-805.2884981060906
 30
0.0
 11
4062.091515864049
 21
-799.0384981060906
 31
0.0
  0
LINE
  5
2812E
330
27B4E
100
AcDbEntity
  8
0
 62
     4
370
    13
100
AcDbLine
 10
4062.091515864049
 20
-825.2884981060907
 30
0.0
 11
4062.091515864049
 21
-864.9670695346621
 31
0.0
  0
INSERT
  5
2812F
330
27B4E
100
AcDbEntity
  8
0
 62
     4
370
    13
100
AcDbBlockReference
  2
_Open30
 10
4062.091515864049
 20
-811.5384981060906
 30
0.0
 41
6.25
 42
6.25
 43
6.25
 50
270.0
  0
INSERT
  5
28130
330
27B4E
100
AcDbEntity
  8
0
 62
     4
370
    13
100
AcDbBlockReference
  2
_Open30
 10
4062.091515864049
 20
-819.0384981060907
 30
0.0
 41
6.25
 42
6.25
 43
6.25
 50
90.0
  0
MTEXT
  5
28131
330
27B4E
100
AcDbEntity
  8
0
370
    13
100
AcDbMText
 10
4057.091515864049
 20
-848.2527838203756
 30
0.0
 40
7.5
 41
0.0
 71
     5
 72
     1
  1
\A1;（7.5）
  7
まこ
 11
0.0000000000000001
 21
1.0
 31
0.0
 73
     1
 44
1.0
  0
POINT
  5
28132
330
27B4E
100
AcDbEntity
  8
DEFPOINTS
 62
     0
370
    30
100
AcDbPoint
 10
4111.655600747343
 20
-811.5384981060906
 30
0.0
  0
POINT
  5
28133
330
27B4E
100
AcDbEntity
  8
DEFPOINTS
 62
     0
370
    30
100
AcDbPoint
 10
4086.761898348199
 20
-819.0384981060907
 30
0.0
  0
POINT
  5
28134
330
27B4E
100
AcDbEntity
  8
DEFPOINTS
 62
     0
370
    30
100
AcDbPoint
 10
4062.091515864049
 20
-819.0384981060907
 30
0.0
  0
ENDBLK
  5
27B5A
330
27B4E
100
AcDbEntity
  8
0
 62
     4
370
    13
100
AcDbBlockEnd
  0
BLOCK
  5
27B65
330
27B5B
100
AcDbEntity
  8
0
 62
     4
370
    13
100
AcDbBlockBegin
  2
*D45
 70
     1
 10
0.0
 20
0.0
 30
0.0
  3
*D45
  1

  0
LINE
  5
28176
330
27B5B
100
AcDbEntity
  8
文字
 62
     4
370
    13
100
AcDbLine
 10
4116.761898348198
 20
-818.9352692111892
 30
0.0
 11
4116.761898348198
 21
-850.0593792937202
 31
0.0
  0
LINE
  5
28177
330
27B5B
100
AcDbEntity
  8
文字
 62
     4
370
    13
100
AcDbLine
 10
4564.761898348199
 20
-818.9352692111892
 30
0.0
 11
4564.761898348199
 21
-850.0593792937202
 31
0.0
  0
LINE
  5
28178
330
27B5B
100
AcDbEntity
  8
文字
 62
     4
370
    13
100
AcDbLine
 10
4123.011898348198
 20
-849.6093792937202
 30
0.0
 11
4558.511898348199
 21
-849.6093792937202
 31
0.0
  0
INSERT
  5
28179
330
27B5B
100
AcDbEntity
  8
文字
 62
     4
370
    13
100
AcDbBlockReference
  2
_Open30
 10
4116.761898348198
 20
-849.6093792937202
 30
0.0
 41
6.25
 42
6.25
 43
6.25
 50
180.0
  0
INSERT
  5
2817A
330
27B5B
100
AcDbEntity
  8
文字
 62
     4
370
    13
100
AcDbBlockReference
  2
_Open30
 10
4564.761898348199
 20
-849.6093792937202
 30
0.0
 41
6.25
 42
6.25
 43
6.25
  0
MTEXT
  5
2817B
330
27B5B
100
AcDbEntity
  8
文字
370
    13
100
AcDbMText
 10
4340.761898348199
 20
-844.6093792937201
 30
0.0
 40
7.5
 41
0.0
 71
     5
 72
     1
  1
\A1;7xP64=448
  7
まこ
 73
     1
 44
1.0
  0
POINT
  5
2817C
330
27B5B
100
AcDbEntity
  8
DEFPOINTS
 62
     0
370
    30
100
AcDbPoint
 10
4116.761898348198
 20
-816.9352692111893
 30
0.0
  0
POINT
  5
2817D
330
27B5B
100
AcDbEntity
  8
DEFPOINTS
 62
     0
370
    30
100
AcDbPoint
 10
4564.761898348199
 20
-816.9352692111893
 30
0.0
  0
POINT
  5
2817E
330
27B5B
100
AcDbEntity
  8
DEFPOINTS
 62
     0
370
    30
100
AcDbPoint
 10
4564.761898348199
 20
-849.6093792937202
 30
0.0
  0
ENDBLK
  5
27B66
330
27B5B
100
AcDbEntity
  8
0
 62
     4
370
    13
100
AcDbBlockEnd
  0
BLOCK
  5
27B7D
330
27B73
100
AcDbEntity
  8
0
 62
     4
370
    13
100
AcDbBlockBegin
  2
*D46
 70
     1
 10
0.0
 20
0.0
 30
0.0
  3
*D46
  1

  0
LINE
  5
28297
330
27B73
100
AcDbEntity
  8
文字
 62
     4
370
    13
100
AcDbLine
 10
4564.761898348199
 20
-818.9352692111892
 30
0.0
 11
4564.761898348199
 21
-850.0593792937202
 31
0.0
  0
LINE
  5
28298
330
27B73
100
AcDbEntity
  8
文字
 62
     4
370
    13
100
AcDbLine
 10
4594.761898348198
 20
-821.0384981060906
 30
0.0
 11
4594.761898348198
 21
-850.0593792937202
 31
0.0
  0
LINE
  5
28299
330
27B73
100
AcDbEntity
  8
文字
 62
     4
370
    13
100
AcDbLine
 10
4571.011898348198
 20
-849.6093792937202
 30
0.0
 11
4588.511898348198
 21
-849.6093792937202
 31
0.0
  0
INSERT
  5
2829A
330
27B73
100
AcDbEntity
  8
文字
 62
     4
370
    13
100
AcDbBlockReference
  2
_Open30
 10
4564.761898348199
 20
-849.6093792937202
 30
0.0
 41
6.25
 42
6.25
 43
6.25
 50
180.0
  0
INSERT
  5
2829B
330
27B73
100
AcDbEntity
  8
文字
 62
     4
370
    13
100
AcDbBlockReference
  2
_Open30
 10
4594.761898348198
 20
-849.6093792937202
 30
0.0
 41
6.25
 42
6.25
 43
6.25
  0
MTEXT
  5
2829C
330
27B73
100
AcDbEntity
  8
文字
370
    13
100
AcDbMText
 10
4579.761898348198
 20
-844.6093792937201
 30
0.0
 40
7.5
 41
0.0
 71
     5
 72
     1
  1
\A1;（30）
  7
まこ
 73
     1
 44
1.0
  0
POINT
  5
2829D
330
27B73
100
AcDbEntity
  8
DEFPOINTS
 62
     0
370
    30
100
AcDbPoint
 10
4564.761898348199
 20
-816.9352692111893
 30
0.0
  0
POINT
  5
2829E
330
27B73
100
AcDbEntity
  8
DEFPOINTS
 62
     0
370
    30
100
AcDbPoint
 10
4594.761898348198
 20
-819.0384981060907
 30
0.0
  0
POINT
  5
2829F
330
27B73
100
AcDbEntity
  8
DEFPOINTS
 62
     0
370
    30
100
AcDbPoint
 10
4594.761898348198
 20
-849.6093792937202
 30
0.0
  0
ENDBLK
  5
27B7E
330
27B73
100
AcDbEntity
  8
0
 62
     4
370
    13
100
AcDbBlockEnd
  0
BLOCK
  5
27B8A
330
27B7F
100
AcDbEntity
  8
0
 62
     4
370
    13
100
AcDbBlockBegin
  2
*D47
 70
     1
 10
0.0
 20
0.0
 30
0.0
  3
*D47
  1

  0
LINE
  5
28135
330
27B7F
100
AcDbEntity
  8
0
 62
     4
370
    13
100
AcDbLine
 10
4084.761898348198
 20
-689.0384981060906
 30
0.0
 11
4061.641515864049
 21
-689.0384981060906
 31
0.0
  0
LINE
  5
28136
330
27B7F
100
AcDbEntity
  8
0
 62
     4
370
    13
100
AcDbLine
 10
4109.699714982261
 20
-696.5384981060906
 30
0.0
 11
4061.641515864049
 21
-696.5384981060906
 31
0.0
  0
LINE
  5
28137
330
27B7F
100
AcDbEntity
  8
0
 62
     4
370
    13
100
AcDbLine
 10
4062.091515864049
 20
-702.7884981060906
 30
0.0
 11
4062.091515864049
 21
-709.0384981060906
 31
0.0
  0
LINE
  5
28138
330
27B7F
100
AcDbEntity
  8
0
 62
     4
370
    13
100
AcDbLine
 10
4062.091515864049
 20
-682.7884981060906
 30
0.0
 11
4062.091515864049
 21
-643.1099266775191
 31
0.0
  0
INSERT
  5
28139
330
27B7F
100
AcDbEntity
  8
0
 62
     4
370
    13
100
AcDbBlockReference
  2
_Open30
 10
4062.091515864049
 20
-696.5384981060906
 30
0.0
 41
6.25
 42
6.25
 43
6.25
 50
90.0
  0
INSERT
  5
2813A
330
27B7F
100
AcDbEntity
  8
0
 62
     4
370
    13
100
AcDbBlockReference
  2
_Open30
 10
4062.091515864049
 20
-689.0384981060906
 30
0.0
 41
6.25
 42
6.25
 43
6.25
 50
270.0
  0
MTEXT
  5
2813B
330
27B7F
100
AcDbEntity
  8
0
370
    13
100
AcDbMText
 10
4057.091515864049
 20
-659.8242123918042
 30
0.0
 40
7.5
 41
0.0
 71
     5
 72
     1
  1
\A1;（7.5）
  7
まこ
 11
0.0000000000000001
 21
1.0
 31
0.0
 73
     1
 44
1.0
  0
POINT
  5
2813C
330
27B7F
100
AcDbEntity
  8
DEFPOINTS
 62
     0
370
    30
100
AcDbPoint
 10
4086.761898348199
 20
-689.0384981060906
 30
0.0
  0
POINT
  5
2813D
330
27B7F
100
AcDbEntity
  8
DEFPOINTS
 62
     0
370
    30
100
AcDbPoint
 10
4111.699714982261
 20
-696.5384981060906
 30
0.0
  0
POINT
  5
2813E
330
27B7F
100
AcDbEntity
  8
DEFPOINTS
 62
     0
370
    30
100
AcDbPoint
 10
4062.091515864049
 20
-696.5384981060906
 30
0.0
  0
ENDBLK
  5
27B8B
330
27B7F
100
AcDbEntity
  8
0
 62
     4
370
    13
100
AcDbBlockEnd
  0
BLOCK
  5
27B96
330
27B8C
100
AcDbEntity
  8
0
 62
     4
370
    13
100
AcDbBlockBegin
  2
*D48
 70
     1
 10
0.0
 20
0.0
 30
0.0
  3
*D48
  1

  0
LINE
  5
2822A
330
27B8C
100
AcDbEntity
  8
0
 62
     4
370
    13
100
AcDbLine
 10
4786.87139040124
 20
-707.0361647812444
 30
0.0
 11
4751.549288718018
 21
-707.0361647812444
 31
0.0
  0
LINE
  5
2822B
330
27B8C
100
AcDbEntity
  8
0
 62
     4
370
    13
100
AcDbLine
 10
4786.870681616715
 20
-801.0361647812445
 30
0.0
 11
4751.549288718018
 21
-801.0361647812445
 31
0.0
  0
LINE
  5
2822C
330
27B8C
100
AcDbEntity
  8
0
 62
     4
370
    13
100
AcDbLine
 10
4751.999288718018
 20
-713.2861647812444
 30
0.0
 11
4751.999288718018
 21
-794.7861647812445
 31
0.0
  0
INSERT
  5
2822D
330
27B8C
100
AcDbEntity
  8
0
 62
     4
370
    13
100
AcDbBlockReference
  2
_Open30
 10
4751.999288718018
 20
-707.0361647812444
 30
0.0
 41
6.25
 42
6.25
 43
6.25
 50
90.0
  0
INSERT
  5
2822E
330
27B8C
100
AcDbEntity
  8
0
 62
     4
370
    13
100
AcDbBlockReference
  2
_Open30
 10
4751.999288718018
 20
-801.0361647812445
 30
0.0
 41
6.25
 42
6.25
 43
6.25
 50
270.0
  0
MTEXT
  5
2822F
330
27B8C
100
AcDbEntity
  8
0
370
    13
100
AcDbMText
 10
4746.999288718018
 20
-754.0361647812438
 30
0.0
 40
7.5
 41
0.0
 71
     5
 72
     1
  1
\A1;94
  7
まこ
 11
0.0000000000000001
 21
1.0
 31
0.0
 73
     1
 44
1.0
  0
POINT
  5
28230
330
27B8C
100
AcDbEntity
  8
DEFPOINTS
 62
     0
370
    30
100
AcDbPoint
 10
4788.871390401241
 20
-707.0361647812444
 30
0.0
  0
POINT
  5
28231
330
27B8C
100
AcDbEntity
  8
DEFPOINTS
 62
     0
370
    30
100
AcDbPoint
 10
4788.870681616715
 20
-801.0361647812445
 30
0.0
  0
POINT
  5
28232
330
27B8C
100
AcDbEntity
  8
DEFPOINTS
 62
     0
370
    30
100
AcDbPoint
 10
4751.999288718018
 20
-801.0361647812445
 30
0.0
  0
ENDBLK
  5
27B97
330
27B8C
100
AcDbEntity
  8
0
 62
     4
370
    13
100
AcDbBlockEnd
  0
BLOCK
  5
27BA2
330
27B98
100
AcDbEntity
  8
0
 62
     4
370
    13
100
AcDbBlockBegin
  2
*D49
 70
     1
 10
0.0
 20
0.0
 30
0.0
  3
*D49
  1

  0
LINE
  5
2823C
330
27B98
100
AcDbEntity
  8
0
 62
     4
370
    13
100
AcDbLine
 10
4786.870681616715
 20
-801.0361647812445
 30
0.0
 11
4751.549288718018
 21
-801.0361647812445
 31
0.0
  0
LINE
  5
2823D
330
27B98
100
AcDbEntity
  8
0
 62
     4
370
    13
100
AcDbLine
 10
4786.87139040124
 20
-819.0361647812444
 30
0.0
 11
4751.549288718018
 21
-819.0361647812444
 31
0.0
  0
LINE
  5
2823E
330
27B98
100
AcDbEntity
  8
0
 62
     4
370
    13
100
AcDbLine
 10
4751.999288718018
 20
-807.2861647812445
 30
0.0
 11
4751.999288718018
 21
-812.7861647812444
 31
0.0
  0
MTEXT
  5
2823F
330
27B98
100
AcDbEntity
  8
0
370
    13
100
AcDbMText
 10
4746.999288718018
 20
-809.2803143540695
 30
0.0
 40
7.5
 41
0.0
 71
     5
 72
     1
  1
\A1;（18）
  7
まこ
 11
0.0000000000000001
 21
1.0
 31
0.0
 73
     1
 44
1.0
  0
INSERT
  5
28240
330
27B98
100
AcDbEntity
  8
0
 62
     4
370
    13
100
AcDbBlockReference
  2
_Open30
 10
4751.999288718018
 20
-801.0361647812445
 30
0.0
 41
6.25
 42
6.25
 43
6.25
 50
90.0
  0
INSERT
  5
28241
330
27B98
100
AcDbEntity
  8
0
 62
     4
370
    13
100
AcDbBlockReference
  2
_Open30
 10
4751.999288718018
 20
-819.0361647812444
 30
0.0
 41
6.25
 42
6.25
 43
6.25
 50
270.0
  0
POINT
  5
28242
330
27B98
100
AcDbEntity
  8
DEFPOINTS
 62
     0
370
    30
100
AcDbPoint
 10
4788.870681616715
 20
-801.0361647812445
 30
0.0
  0
POINT
  5
28243
330
27B98
100
AcDbEntity
  8
DEFPOINTS
 62
     0
370
    30
100
AcDbPoint
 10
4788.871390401241
 20
-819.0361647812444
 30
0.0
  0
POINT
  5
28244
330
27B98
100
AcDbEntity
  8
DEFPOINTS
 62
     0
370
    30
100
AcDbPoint
 10
4751.999288718018
 20
-819.0361647812444
 30
0.0
  0
ENDBLK
  5
27BA3
330
27B98
100
AcDbEntity
  8
0
 62
     4
370
    13
100
AcDbBlockEnd
  0
BLOCK
  5
27BAE
330
27BA4
100
AcDbEntity
  8
0
 62
     4
370
    13
100
AcDbBlockBegin
  2
*D50
 70
     1
 10
0.0
 20
0.0
 30
0.0
  3
*D50
  1

  0
LINE
  5
28311
330
27BA4
100
AcDbEntity
  8
0
 62
     4
370
    13
100
AcDbLine
 10
4835.071340644272
 20
-687.0361865073016
 30
0.0
 11
4835.071340644272
 21
-658.7834549621645
 31
0.0
  0
LINE
  5
28312
330
27BA4
100
AcDbEntity
  8
0
 62
     4
370
    13
100
AcDbLine
 10
4842.871340644273
 20
-687.0361865073016
 30
0.0
 11
4842.871340644273
 21
-658.7834549621645
 31
0.0
  0
LINE
  5
28313
330
27BA4
100
AcDbEntity
  8
0
 62
     4
370
    13
100
AcDbLine
 10
4828.821340644273
 20
-659.2334549621646
 30
0.0
 11
4822.571340644273
 21
-659.2334549621646
 31
0.0
  0
LINE
  5
28314
330
27BA4
100
AcDbEntity
  8
0
 62
     4
370
    13
100
AcDbLine
 10
4849.121340644273
 20
-659.2334549621646
 30
0.0
 11
4873.585626358558
 21
-659.2334549621646
 31
0.0
  0
INSERT
  5
28315
330
27BA4
100
AcDbEntity
  8
0
 62
     4
370
    13
100
AcDbBlockReference
  2
_Open30
 10
4835.071340644272
 20
-659.2334549621646
 30
0.0
 41
6.25
 42
6.25
 43
6.25
  0
INSERT
  5
28316
330
27BA4
100
AcDbEntity
  8
0
 62
     4
370
    13
100
AcDbBlockReference
  2
_Open30
 10
4842.871340644273
 20
-659.2334549621646
 30
0.0
 41
6.25
 42
6.25
 43
6.25
 50
180.0
  0
MTEXT
  5
28317
330
27BA4
100
AcDbEntity
  8
0
370
    13
100
AcDbMText
 10
4864.478483501416
 20
-654.2334549621646
 30
0.0
 40
7.5
 41
0.0
 71
     5
 72
     1
  1
\A1;7.8
  7
まこ
 73
     1
 44
1.0
  0
POINT
  5
28318
330
27BA4
100
AcDbEntity
  8
DEFPOINTS
 62
     0
370
    30
100
AcDbPoint
 10
4835.071340644272
 20
-689.0361865073016
 30
0.0
  0
POINT
  5
28319
330
27BA4
100
AcDbEntity
  8
DEFPOINTS
 62
     0
370
    30
100
AcDbPoint
 10
4842.871340644273
 20
-689.0361865073016
 30
0.0
  0
POINT
  5
2831A
330
27BA4
100
AcDbEntity
  8
DEFPOINTS
 62
     0
370
    30
100
AcDbPoint
 10
4842.871340644273
 20
-659.2334549621646
 30
0.0
  0
ENDBLK
  5
27BAF
330
27BA4
100
AcDbEntity
  8
0
 62
     4
370
    13
100
AcDbBlockEnd
  0
BLOCK
  5
27BBA
330
27BB0
100
AcDbEntity
  8
0
 62
     4
370
    13
100
AcDbBlockBegin
  2
*D51
 70
     1
 10
0.0
 20
0.0
 30
0.0
  3
*D51
  1

  0
LINE
  5
2837D
330
27BB0
100
AcDbEntity
  8
0
 62
     4
370
    13
100
AcDbLine
 10
4830.071390401241
 20
-701.9597538231489
 30
0.0
 11
4830.071390401241
 21
-640.5790344591748
 31
0.0
  0
LINE
  5
2837E
330
27BB0
100
AcDbEntity
  8
0
 62
     4
370
    13
100
AcDbLine
 10
4842.871390401241
 20
-687.0361865073016
 30
0.0
 11
4842.871390401241
 21
-640.5790344591748
 31
0.0
  0
LINE
  5
2837F
330
27BB0
100
AcDbEntity
  8
0
 62
     4
370
    13
100
AcDbLine
 10
4830.071390401241
 20
-641.0290344591749
 30
0.0
 11
4823.821390401241
 21
-641.0290344591749
 31
0.0
  0
LINE
  5
28380
330
27BB0
100
AcDbEntity
  8
0
 62
     4
370
    13
100
AcDbLine
 10
4849.121390401241
 20
-641.0290344591749
 30
0.0
 11
4855.371390401241
 21
-641.0290344591749
 31
0.0
  0
LINE
  5
28381
330
27BB0
100
AcDbEntity
  8
0
 62
     4
370
    13
100
AcDbLine
 10
4879.474562288753
 20
-641.0290344591749
 30
0.0
 11
4842.871390401241
 21
-641.0290344591749
 31
0.0
  0
MTEXT
  5
28382
330
27BB0
100
AcDbEntity
  8
0
370
    13
100
AcDbMText
 10
4867.510276574467
 20
-636.0290344591748
 30
0.0
 40
7.5
 41
0.0
 71
     5
 72
     1
  1
\A1;12.8
  7
まこ
 73
     1
 44
1.0
  0
LINE
  5
28383
330
27BB0
100
AcDbEntity
  8
0
 62
     4
370
    13
100
AcDbLine
 10
4830.071390401241
 20
-641.0290344591749
 30
0.0
 11
4842.871390401241
 21
-641.0290344591749
 31
0.0
  0
INSERT
  5
28384
330
27BB0
100
AcDbEntity
  8
0
 62
     4
370
    13
100
AcDbBlockReference
  2
_DotSmall
 10
4830.071390401241
 20
-641.0290344591749
 30
0.0
 41
6.25
 42
6.25
 43
6.25
  0
INSERT
  5
28385
330
27BB0
100
AcDbEntity
  8
0
 62
     4
370
    13
100
AcDbBlockReference
  2
_Open30
 10
4842.871390401241
 20
-641.0290344591749
 30
0.0
 41
6.25
 42
6.25
 43
6.25
 50
180.0
  0
POINT
  5
28386
330
27BB0
100
AcDbEntity
  8
DEFPOINTS
 62
     0
370
    30
100
AcDbPoint
 10
4830.071390401241
 20
-703.959753823149
 30
0.0
  0
POINT
  5
28387
330
27BB0
100
AcDbEntity
  8
DEFPOINTS
 62
     0
370
    30
100
AcDbPoint
 10
4842.871390401241
 20
-689.0361865073016
 30
0.0
  0
POINT
  5
28388
330
27BB0
100
AcDbEntity
  8
DEFPOINTS
 62
     0
370
    30
100
AcDbPoint
 10
4842.871390401241
 20
-641.0290344591749
 30
0.0
  0
ENDBLK
  5
27BBB
330
27BB0
100
AcDbEntity
  8
0
 62
     4
370
    13
100
AcDbBlockEnd
  0
BLOCK
  5
27BCA
330
27BBC
100
AcDbEntity
  8
0
 62
     4
370
    13
100
AcDbBlockBegin
  2
*D52
 70
     1
 10
0.0
 20
0.0
 30
0.0
  3
*D52
  1

  0
LINE
  5
28366
330
27BBC
100
AcDbEntity
  8
0
 62
     4
370
    13
100
AcDbLine
 10
4828.871390401241
 20
-687.036208645499
 30
0.0
 11
4828.871390401241
 21
-640.5790344591748
 31
0.0
  0
LINE
  5
28367
330
27BBC
100
AcDbEntity
  8
0
 62
     4
370
    13
100
AcDbLine
 10
4830.071390401241
 20
-701.9597538231489
 30
0.0
 11
4830.071390401241
 21
-640.5790344591748
 31
0.0
  0
LINE
  5
28368
330
27BBC
100
AcDbEntity
  8
0
 62
     4
370
    13
100
AcDbLine
 10
4822.621390401241
 20
-641.0290344591749
 30
0.0
 11
4816.371390401241
 21
-641.0290344591749
 31
0.0
  0
LINE
  5
28369
330
27BBC
100
AcDbEntity
  8
0
 62
     4
370
    13
100
AcDbLine
 10
4830.071390401241
 20
-641.0290344591749
 30
0.0
 11
4836.321390401241
 21
-641.0290344591749
 31
0.0
  0
LINE
  5
2836A
330
27BBC
100
AcDbEntity
  8
0
 62
     4
370
    13
100
AcDbLine
 10
4829.47139040124
 20
-641.0290344591749
 30
0.0
 11
4845.211999653095
 21
-624.2578965372431
 31
0.0
  0
LINE
  5
2836B
330
27BBC
100
AcDbEntity
  8
0
 62
     4
370
    13
100
AcDbLine
 10
4845.211999653095
 20
-624.2578965372431
 30
0.0
 11
4861.997713938809
 21
-624.2578965372431
 31
0.0
  0
MTEXT
  5
2836C
330
27BBC
100
AcDbEntity
  8
0
370
    13
100
AcDbMText
 10
4853.604856795952
 20
-619.2578965372431
 30
0.0
 40
7.5
 41
0.0
 71
     5
 72
     1
  1
\A1;1.2
  7
まこ
 73
     1
 44
1.0
  0
LINE
  5
2836D
330
27BBC
100
AcDbEntity
  8
0
 62
     4
370
    13
100
AcDbLine
 10
4828.871390401241
 20
-641.0290344591749
 30
0.0
 11
4830.071390401241
 21
-641.0290344591749
 31
0.0
  0
INSERT
  5
2836E
330
27BBC
100
AcDbEntity
  8
0
 62
     4
370
    13
100
AcDbBlockReference
  2
_Open30
 10
4828.871390401241
 20
-641.0290344591749
 30
0.0
 41
6.25
 42
6.25
 43
6.25
  0
INSERT
  5
2836F
330
27BBC
100
AcDbEntity
  8
0
 62
     4
370
    13
100
AcDbBlockReference
  2
_DotSmall
 10
4830.071390401241
 20
-641.0290344591749
 30
0.0
 41
6.25
 42
6.25
 43
6.25
 50
180.0
  0
POINT
  5
28370
330
27BBC
100
AcDbEntity
  8
DEFPOINTS
 62
     0
370
    30
100
AcDbPoint
 10
4828.871390401241
 20
-689.0362086454991
 30
0.0
  0
POINT
  5
28371
330
27BBC
100
AcDbEntity
  8
DEFPOINTS
 62
     0
370
    30
100
AcDbPoint
 10
4830.071390401241
 20
-703.959753823149
 30
0.0
  0
POINT
  5
28372
330
27BBC
100
AcDbEntity
  8
DEFPOINTS
 62
     0
370
    30
100
AcDbPoint
 10
4830.071390401241
 20
-641.0290344591749
 30
0.0
  0
ENDBLK
  5
27BCB
330
27BBC
100
AcDbEntity
  8
0
 62
     4
370
    13
100
AcDbBlockEnd
  0
BLOCK
  5
27BD6
330
27BCC
100
AcDbEntity
  8
0
 62
     4
370
    13
100
AcDbBlockBegin
  2
*D53
 70
     1
 10
0.0
 20
0.0
 30
0.0
  3
*D53
  1

  0
LINE
  5
2835D
330
27BCC
100
AcDbEntity
  8
0
 62
     4
370
    13
100
AcDbLine
 10
4788.871390401241
 20
-687.036208645499
 30
0.0
 11
4788.871390401241
 21
-640.5790344591748
 31
0.0
  0
LINE
  5
2835E
330
27BCC
100
AcDbEntity
  8
0
 62
     4
370
    13
100
AcDbLine
 10
4828.871390401241
 20
-687.036208645499
 30
0.0
 11
4828.871390401241
 21
-640.5790344591748
 31
0.0
  0
LINE
  5
2835F
330
27BCC
100
AcDbEntity
  8
0
 62
     4
370
    13
100
AcDbLine
 10
4795.121390401241
 20
-641.0290344591749
 30
0.0
 11
4822.621390401241
 21
-641.0290344591749
 31
0.0
  0
INSERT
  5
28360
330
27BCC
100
AcDbEntity
  8
0
 62
     4
370
    13
100
AcDbBlockReference
  2
_Open30
 10
4788.871390401241
 20
-641.0290344591749
 30
0.0
 41
6.25
 42
6.25
 43
6.25
 50
180.0
  0
INSERT
  5
28361
330
27BCC
100
AcDbEntity
  8
0
 62
     4
370
    13
100
AcDbBlockReference
  2
_Open30
 10
4828.871390401241
 20
-641.0290344591749
 30
0.0
 41
6.25
 42
6.25
 43
6.25
  0
MTEXT
  5
28362
330
27BCC
100
AcDbEntity
  8
0
370
    13
100
AcDbMText
 10
4808.871390401241
 20
-636.0290344591748
 30
0.0
 40
7.5
 41
0.0
 71
     5
 72
     1
  1
\A1;40
  7
まこ
 73
     1
 44
1.0
  0
POINT
  5
28363
330
27BCC
100
AcDbEntity
  8
DEFPOINTS
 62
     0
370
    30
100
AcDbPoint
 10
4788.871390401241
 20
-689.0362086454991
 30
0.0
  0
POINT
  5
28364
330
27BCC
100
AcDbEntity
  8
DEFPOINTS
 62
     0
370
    30
100
AcDbPoint
 10
4828.871390401241
 20
-689.0362086454991
 30
0.0
  0
POINT
  5
28365
330
27BCC
100
AcDbEntity
  8
DEFPOINTS
 62
     0
370
    30
100
AcDbPoint
 10
4828.871390401241
 20
-641.0290344591749
 30
0.0
  0
ENDBLK
  5
27BD7
330
27BCC
100
AcDbEntity
  8
0
 62
     4
370
    13
100
AcDbBlockEnd
  0
BLOCK
  5
27BE2
330
27BD8
100
AcDbEntity
  8
0
 62
     4
370
    13
100
AcDbBlockBegin
  2
*D54
 70
     1
 10
0.0
 20
0.0
 30
0.0
  3
*D54
  1

  0
LINE
  5
282FE
330
27BD8
100
AcDbEntity
  8
0
 62
     4
370
    13
100
AcDbLine
 10
4788.871390401241
 20
-687.036208645499
 30
0.0
 11
4788.871390401241
 21
-611.6934428809806
 31
0.0
  0
LINE
  5
282FF
330
27BD8
100
AcDbEntity
  8
0
 62
     4
370
    13
100
AcDbLine
 10
4842.871390401241
 20
-687.0361865073016
 30
0.0
 11
4842.871390401241
 21
-611.6934428809806
 31
0.0
  0
LINE
  5
28300
330
27BD8
100
AcDbEntity
  8
0
 62
     4
370
    13
100
AcDbLine
 10
4795.121390401241
 20
-612.1434428809807
 30
0.0
 11
4836.621390401241
 21
-612.1434428809807
 31
0.0
  0
INSERT
  5
28301
330
27BD8
100
AcDbEntity
  8
0
 62
     4
370
    13
100
AcDbBlockReference
  2
_Open30
 10
4788.871390401241
 20
-612.1434428809807
 30
0.0
 41
6.25
 42
6.25
 43
6.25
 50
180.0
  0
INSERT
  5
28302
330
27BD8
100
AcDbEntity
  8
0
 62
     4
370
    13
100
AcDbBlockReference
  2
_Open30
 10
4842.871390401241
 20
-612.1434428809807
 30
0.0
 41
6.25
 42
6.25
 43
6.25
  0
MTEXT
  5
28303
330
27BD8
100
AcDbEntity
  8
0
370
    13
100
AcDbMText
 10
4815.871390401241
 20
-607.1434428809807
 30
0.0
 40
7.5
 41
0.0
 71
     5
 72
     1
  1
\A1;54（取付寸法）
  7
まこ
 73
     1
 44
1.0
  0
POINT
  5
28304
330
27BD8
100
AcDbEntity
  8
DEFPOINTS
 62
     0
370
    30
100
AcDbPoint
 10
4788.871390401241
 20
-689.0362086454991
 30
0.0
  0
POINT
  5
28305
330
27BD8
100
AcDbEntity
  8
DEFPOINTS
 62
     0
370
    30
100
AcDbPoint
 10
4842.871390401241
 20
-689.0361865073016
 30
0.0
  0
POINT
  5
28306
330
27BD8
100
AcDbEntity
  8
DEFPOINTS
 62
     0
370
    30
100
AcDbPoint
 10
4842.871390401241
 20
-612.1434428809807
 30
0.0
  0
ENDBLK
  5
27BE3
330
27BD8
100
AcDbEntity
  8
0
 62
     4
370
    13
100
AcDbBlockEnd
  0
BLOCK
  5
27BEE
330
27BE4
100
AcDbEntity
  8
0
 62
     4
370
    13
100
AcDbBlockBegin
  2
*D55
 70
     1
 10
0.0
 20
0.0
 30
0.0
  3
*D55
  1

  0
LINE
  5
2820F
330
27BE4
100
AcDbEntity
  8
0
 62
     4
370
    13
100
AcDbLine
 10
4786.87139040124
 20
-689.0361647812444
 30
0.0
 11
4751.549288718018
 21
-689.0361647812444
 31
0.0
  0
LINE
  5
28210
330
27BE4
100
AcDbEntity
  8
0
 62
     4
370
    13
100
AcDbLine
 10
4786.87139040124
 20
-707.0361647812444
 30
0.0
 11
4751.549288718018
 21
-707.0361647812444
 31
0.0
  0
LINE
  5
28211
330
27BE4
100
AcDbEntity
  8
0
 62
     4
370
    13
100
AcDbLine
 10
4751.999288718018
 20
-695.2861647812444
 30
0.0
 11
4751.999288718018
 21
-700.7861647812444
 31
0.0
  0
INSERT
  5
28212
330
27BE4
100
AcDbEntity
  8
0
 62
     4
370
    13
100
AcDbBlockReference
  2
_Open30
 10
4751.999288718018
 20
-689.0361647812444
 30
0.0
 41
6.25
 42
6.25
 43
6.25
 50
90.0
  0
INSERT
  5
28213
330
27BE4
100
AcDbEntity
  8
0
 62
     4
370
    13
100
AcDbBlockReference
  2
_Open30
 10
4751.999288718018
 20
-707.0361647812444
 30
0.0
 41
6.25
 42
6.25
 43
6.25
 50
270.0
  0
MTEXT
  5
28214
330
27BE4
100
AcDbEntity
  8
0
370
    13
100
AcDbMText
 10
4746.999288718018
 20
-698.0361647812437
 30
0.0
 40
7.5
 41
0.0
 71
     5
 72
     1
  1
\A1;（18）
  7
まこ
 11
0.0000000000000001
 21
1.0
 31
0.0
 73
     1
 44
1.0
  0
POINT
  5
28215
330
27BE4
100
AcDbEntity
  8
DEFPOINTS
 62
     0
370
    30
100
AcDbPoint
 10
4788.871390401241
 20
-689.0361647812444
 30
0.0
  0
POINT
  5
28216
330
27BE4
100
AcDbEntity
  8
DEFPOINTS
 62
     0
370
    30
100
AcDbPoint
 10
4788.871390401241
 20
-707.0361647812444
 30
0.0
  0
POINT
  5
28217
330
27BE4
100
AcDbEntity
  8
DEFPOINTS
 62
     0
370
    30
100
AcDbPoint
 10
4751.999288718018
 20
-707.0361647812444
 30
0.0
  0
ENDBLK
  5
27BEF
330
27BE4
100
AcDbEntity
  8
0
 62
     4
370
    13
100
AcDbBlockEnd
  0
BLOCK
  5
27BFB
330
27BF0
100
AcDbEntity
  8
0
 62
     4
370
    13
100
AcDbBlockBegin
  2
*D56
 70
     1
 10
0.0
 20
0.0
 30
0.0
  3
*D56
  1

  0
LINE
  5
2825A
330
27BF0
100
AcDbEntity
  8
0
 62
     4
370
    13
100
AcDbLine
 10
4788.871390401241
 20
-709.0361647812444
 30
0.0
 11
4788.871390401241
 21
-725.8890175374163
 31
0.0
  0
LINE
  5
2825B
330
27BF0
100
AcDbEntity
  8
0
 62
     4
370
    13
100
AcDbLine
 10
4789.371390401242
 20
-709.0361647812444
 30
0.0
 11
4789.371390401242
 21
-725.8890175374163
 31
0.0
  0
LINE
  5
2825C
330
27BF0
100
AcDbEntity
  8
0
 62
     4
370
    13
100
AcDbLine
 10
4795.621390401241
 20
-725.4390175374162
 30
0.0
 11
4801.871390401242
 21
-725.4390175374162
 31
0.0
  0
LINE
  5
2825D
330
27BF0
100
AcDbEntity
  8
0
 62
     4
370
    13
100
AcDbLine
 10
4782.621390401241
 20
-725.4390175374162
 30
0.0
 11
4758.157104686955
 21
-725.4390175374162
 31
0.0
  0
INSERT
  5
2825E
330
27BF0
100
AcDbEntity
  8
0
 62
     4
370
    13
100
AcDbBlockReference
  2
_Open30
 10
4789.371390401242
 20
-725.4390175374162
 30
0.0
 41
6.25
 42
6.25
 43
6.25
 50
180.0
  0
INSERT
  5
2825F
330
27BF0
100
AcDbEntity
  8
0
 62
     4
370
    13
100
AcDbBlockReference
  2
_Open30
 10
4788.871390401241
 20
-725.4390175374162
 30
0.0
 41
6.25
 42
6.25
 43
6.25
  0
MTEXT
  5
28260
330
27BF0
100
AcDbEntity
  8
0
370
    13
100
AcDbMText
 10
4767.264247544098
 20
-720.4390175374162
 30
0.0
 40
7.5
 41
0.0
 71
     5
 72
     1
  1
\A1;0.5
  7
まこ
 73
     1
 44
1.0
  0
POINT
  5
28261
330
27BF0
100
AcDbEntity
  8
DEFPOINTS
 62
     0
370
    30
100
AcDbPoint
 10
4788.871390401241
 20
-707.0361647812444
 30
0.0
  0
POINT
  5
28262
330
27BF0
100
AcDbEntity
  8
DEFPOINTS
 62
     0
370
    30
100
AcDbPoint
 10
4789.371390401242
 20
-707.0361647812444
 30
0.0
  0
POINT
  5
28263
330
27BF0
100
AcDbEntity
  8
DEFPOINTS
 62
     0
370
    30
100
AcDbPoint
 10
4789.371390401242
 20
-725.4390175374162
 30
0.0
  0
ENDBLK
  5
27BFC
330
27BF0
100
AcDbEntity
  8
0
 62
     4
370
    13
100
AcDbBlockEnd
  0
BLOCK
  5
27FD6
330
27FCC
100
AcDbEntity
  8
0
370
    30
100
AcDbBlockBegin
  2
*D57
 70
     1
 10
0.0
 20
0.0
 30
0.0
  3
*D57
  1

  0
LINE
  5
280E0
330
27FCC
100
AcDbEntity
  8
0
 62
     4
370
    13
100
AcDbLine
 10
4786.87139040124
 20
-819.0362086454991
 30
0.0
 11
4763.642558185863
 21
-819.0362086454991
 31
0.0
  0
LINE
  5
280E1
330
27FCC
100
AcDbEntity
  8
0
 62
     4
370
    13
100
AcDbLine
 10
4786.87139040124
 20
-802.0362086454991
 30
0.0
 11
4763.642558185863
 21
-802.0362086454991
 31
0.0
  0
LINE
  5
280E2
330
27FCC
100
AcDbEntity
  8
0
 62
     4
370
    13
100
AcDbLine
 10
4764.092558185863
 20
-812.7862086454991
 30
0.0
 11
4764.092558185863
 21
-808.2862086454991
 31
0.0
  0
INSERT
  5
280E3
330
27FCC
100
AcDbEntity
  8
0
 62
     4
370
    13
100
AcDbBlockReference
  2
_Open30
 10
4764.092558185863
 20
-819.0362086454991
 30
0.0
 41
6.25
 42
6.25
 43
6.25
 50
270.0
  0
INSERT
  5
280E4
330
27FCC
100
AcDbEntity
  8
0
 62
     4
370
    13
100
AcDbBlockReference
  2
_Open30
 10
4764.092558185863
 20
-802.0362086454991
 30
0.0
 41
6.25
 42
6.25
 43
6.25
 50
90.0
  0
MTEXT
  5
280E5
330
27FCC
100
AcDbEntity
  8
0
370
    13
100
AcDbMText
 10
4759.092558185862
 20
-810.5362086454984
 30
0.0
 40
7.5
 41
0.0
 71
     5
 72
     1
  1
\A1;17
  7
まこ
 11
0.0000000000000001
 21
1.0
 31
0.0
 73
     1
 44
1.0
  0
POINT
  5
280E6
330
27FCC
100
AcDbEntity
  8
DEFPOINTS
 62
     0
370
    30
100
AcDbPoint
 10
4788.871390401241
 20
-819.0362086454991
 30
0.0
  0
POINT
  5
280E7
330
27FCC
100
AcDbEntity
  8
DEFPOINTS
 62
     0
370
    30
100
AcDbPoint
 10
4788.871390401241
 20
-802.0362086454991
 30
0.0
  0
POINT
  5
280E8
330
27FCC
100
AcDbEntity
  8
DEFPOINTS
 62
     0
370
    30
100
AcDbPoint
 10
4764.092558185863
 20
-802.0362086454991
 30
0.0
  0
ENDBLK
  5
27FD7
330
27FCC
100
AcDbEntity
  8
0
370
    30
100
AcDbBlockEnd
  0
BLOCK
  5
27FE3
330
27FD9
100
AcDbEntity
  8
0
370
    30
100
AcDbBlockBegin
  2
*D58
 70
     1
 10
0.0
 20
0.0
 30
0.0
  3
*D58
  1

  0
LINE
  5
28264
330
27FD9
100
AcDbEntity
  8
0
 62
     4
370
    13
100
AcDbLine
 10
4786.87139040124
 20
-802.0362086454991
 30
0.0
 11
4763.642558185863
 21
-802.0362086454991
 31
0.0
  0
LINE
  5
28265
330
27FD9
100
AcDbEntity
  8
0
 62
     4
370
    13
100
AcDbLine
 10
4786.87139040124
 20
-778.036208645499
 30
0.0
 11
4763.642558185863
 21
-778.036208645499
 31
0.0
  0
LINE
  5
28266
330
27FD9
100
AcDbEntity
  8
0
 62
     4
370
    13
100
AcDbLine
 10
4764.092558185863
 20
-795.7862086454992
 30
0.0
 11
4764.092558185863
 21
-784.286208645499
 31
0.0
  0
INSERT
  5
28267
330
27FD9
100
AcDbEntity
  8
0
 62
     4
370
    13
100
AcDbBlockReference
  2
_Open30
 10
4764.092558185863
 20
-802.0362086454991
 30
0.0
 41
6.25
 42
6.25
 43
6.25
 50
270.0
  0
INSERT
  5
28268
330
27FD9
100
AcDbEntity
  8
0
 62
     4
370
    13
100
AcDbBlockReference
  2
_Open30
 10
4764.092558185863
 20
-778.036208645499
 30
0.0
 41
6.25
 42
6.25
 43
6.25
 50
90.0
  0
MTEXT
  5
28269
330
27FD9
100
AcDbEntity
  8
0
370
    13
100
AcDbMText
 10
4759.092558185862
 20
-790.0362086454984
 30
0.0
 40
7.5
 41
0.0
 71
     5
 72
     1
  1
\A1;24
  7
まこ
 11
0.0000000000000001
 21
1.0
 31
0.0
 73
     1
 44
1.0
  0
POINT
  5
2826A
330
27FD9
100
AcDbEntity
  8
DEFPOINTS
 62
     0
370
    30
100
AcDbPoint
 10
4788.871390401241
 20
-802.0362086454991
 30
0.0
  0
POINT
  5
2826B
330
27FD9
100
AcDbEntity
  8
DEFPOINTS
 62
     0
370
    30
100
AcDbPoint
 10
4788.871390401241
 20
-778.036208645499
 30
0.0
  0
POINT
  5
2826C
330
27FD9
100
AcDbEntity
  8
DEFPOINTS
 62
     0
370
    30
100
AcDbPoint
 10
4764.092558185863
 20
-778.036208645499
 30
0.0
  0
ENDBLK
  5
27FE4
330
27FD9
100
AcDbEntity
  8
0
370
    30
100
AcDbBlockEnd
  0
BLOCK
  5
28003
330
27FF8
100
AcDbEntity
  8
0
370
    30
100
AcDbBlockBegin
  2
*D59
 70
     1
 10
0.0
 20
0.0
 30
0.0
  3
*D59
  1

  0
LINE
  5
2828D
330
27FF8
100
AcDbEntity
  8
0
 62
     4
370
    13
100
AcDbLine
 10
4788.871390402969
 20
-821.036208645499
 30
0.0
 11
4788.871390402969
 21
-842.402666344644
 31
0.0
  0
LINE
  5
2828E
330
27FF8
100
AcDbEntity
  8
0
 62
     4
370
    13
100
AcDbLine
 10
4796.871390395039
 20
-821.0358497658997
 30
0.0
 11
4796.871390395039
 21
-842.402666344644
 31
0.0
  0
LINE
  5
2828F
330
27FF8
100
AcDbEntity
  8
0
 62
     4
370
    13
100
AcDbLine
 10
4782.621390402969
 20
-841.952666344644
 30
0.0
 11
4776.371390402969
 21
-841.952666344644
 31
0.0
  0
LINE
  5
28290
330
27FF8
100
AcDbEntity
  8
0
 62
     4
370
    13
100
AcDbLine
 10
4803.121390395039
 20
-841.952666344644
 30
0.0
 11
4809.371390395039
 21
-841.952666344644
 31
0.0
  0
INSERT
  5
28291
330
27FF8
100
AcDbEntity
  8
0
 62
     4
370
    13
100
AcDbBlockReference
  2
_Open30
 10
4788.871390402969
 20
-841.952666344644
 30
0.0
 41
6.25
 42
6.25
 43
6.25
  0
INSERT
  5
28292
330
27FF8
100
AcDbEntity
  8
0
 62
     4
370
    13
100
AcDbBlockReference
  2
_Open30
 10
4796.871390395039
 20
-841.952666344644
 30
0.0
 41
6.25
 42
6.25
 43
6.25
 50
180.0
  0
MTEXT
  5
28293
330
27FF8
100
AcDbEntity
  8
0
370
    13
100
AcDbMText
 10
4792.871390399005
 20
-836.9526663446441
 30
0.0
 40
7.5
 41
0.0
 71
     5
 72
     1
  1
\A1;8
  7
まこ
 73
     1
 44
1.0
  0
POINT
  5
28294
330
27FF8
100
AcDbEntity
  8
DEFPOINTS
 62
     0
370
    30
100
AcDbPoint
 10
4788.871390402969
 20
-819.0362086454991
 30
0.0
  0
POINT
  5
28295
330
27FF8
100
AcDbEntity
  8
DEFPOINTS
 62
     0
370
    30
100
AcDbPoint
 10
4796.871390395039
 20
-819.0358497658998
 30
0.0
  0
POINT
  5
28296
330
27FF8
100
AcDbEntity
  8
DEFPOINTS
 62
     0
370
    30
100
AcDbPoint
 10
4796.871390395039
 20
-841.952666344644
 30
0.0
  0
ENDBLK
  5
28004
330
27FF8
100
AcDbEntity
  8
0
370
    30
100
AcDbBlockEnd
  0
ENDSEC
  0
SECTION
  2
ENTITIES
  0
MTEXT
  5
176FC
330
18
100
AcDbEntity
  8
dimension
 62
     2
100
AcDbMText
 10
-100.7823601383244
 20
171.621314412839
 30
0.0
 40
8.0
 41
0.0
 71
     4
 72
     1
  1

 73
     1
 44
1.0
  0
TEXT
  5
187C8
330
18
100
AcDbEntity
  8
A
100
AcDbText
 10
27.08248755054501
 20
1784.547672862096
 30
0.0
 40
2.5
  1

  7
MSｺﾞｼｯｸ
100
AcDbText
  0
TEXT
  5
187C9
330
18
100
AcDbEntity
  8
A
100
AcDbText
 10
19.25748755054502
 20
1784.547672862096
 30
0.0
 40
2.5
  1

 41
0.5
  7
MSｺﾞｼｯｸ
100
AcDbText
  0
TEXT
  5
187CA
330
18
100
AcDbEntity
  8
A
100
AcDbText
 10
167.1825875009164
 20
2214.514692980458
 30
0.0
 40
3.524999999999999
  1
�    
100
AcDbText
  0
MTEXT
  5
187CB
330
18
100
AcDbEntity
  8
0
  6
ByBlock
100
AcDbMText
 10
325.4874764241681
 20
2232.511722574347
 30
0.0
 40
2.0
 41
0.0
 71
     4
 72
     5
  1

 11
-0.0000000000000002
 21
-1.0
 31
0.0
 73
     1
 44
1.0
1001
ACAD
1000
MTEXTBEGIN
1070
    73
1070
     1
1070
    44
1040
1.0
1070
    74
1070
     0
1000
MTEXTEND
  0
MTEXT
  5
187CC
330
18
100
AcDbEntity
  8
0
  6
ByBlock
100
AcDbMText
 10
360.9528647873208
 20
2221.718414215929
 30
0.0
 40
2.0
 41
0.0
 71
     7
 72
     5
  1

 11
0.0000000000000001
 21
1.0
 31
0.0
 73
     1
 44
1.0
1001
ACAD
1000
MTEXTBEGIN
1070
    73
1070
     1
1070
    44
1040
1.0
1070
    74
1070
     0
1000
MTEXTEND
  0
MTEXT
  5
187CD
330
18
100
AcDbEntity
  8
0
100
AcDbMText
 10
325.1733668026532
 20
2146.93890367364
 30
0.0
 40
2.0
 41
10.1453
 71
     1
 72
     5
  1

 11
-0.0000000000000002
 21
-1.0
 31
0.0
 73
     1
 44
1.0
1001
ACAD
1000
MTEXTBEGIN
1070
    73
1070
     1
1070
    44
1040
1.0
1070
    74
1070
     0
1000
MTEXTEND
  0
MTEXT
  5
187CE
330
18
100
AcDbEntity
  8
0
100
AcDbMText
 10
280.7738750495033
 20
2115.30742008065
 30
0.0
 40
2.0
 41
0.0
 71
     1
 72
     5
  1

 73
     1
 44
1.0
1001
ACAD
1000
MTEXTBEGIN
1070
    73
1070
     1
1070
    44
1040
1.0
1070
    74
1070
     0
1000
MTEXTEND
  0
MTEXT
  5
187CF
330
18
100
AcDbEntity
  8
0
  6
CENTER
100
AcDbMText
 10
606.3621522332663
 20
2216.239946825076
 30
0.0
 40
2.0
 41
15.6417
 71
     1
 72
     5
  1

  7
BIGFONT
 73
     1
 44
1.0
1001
ACAD
1000
MTEXTBEGIN
1070
    73
1070
     1
1070
    44
1040
1.0
1070
    74
1070
     0
1000
MTEXTEND
  0
MTEXT
  5
187D0
330
18
100
AcDbEntity
  8
0
  6
DASHDOT
100
AcDbMText
 10
368.6842112890944
 20
2323.029441652852
 30
0.0
 40
1.0
 41
2.0
 71
     1
 72
     5
  1

  7
BIGFONT
 73
     1
 44
1.0
1001
ACAD
1000
MTEXTBEGIN
1070
    73
1070
     1
1070
    44
1040
1.0
1070
    74
1070
     0
1000
MTEXTEND
  0
MTEXT
  5
187D1
330
18
100
AcDbEntity
  8
0
  6
ByBlock
100
AcDbMText
 10
325.4873894192178
 20
2232.511722574347
 30
0.0
 40
2.0
 41
0.0
 71
     4
 72
     5
  1

 11
-0.0000000000000002
 21
-1.0
 31
0.0
 73
     1
 44
1.0
1001
ACAD
1000
MTEXTBEGIN
1070
    73
1070
     1
1070
    44
1040
1.0
1070
    74
1070
     0
1000
MTEXTEND
  0
MTEXT
  5
187D2
330
18
100
AcDbEntity
  8
0
  6
ByBlock
100
AcDbMText
 10
360.9527777823707
 20
2221.718414215929
 30
0.0
 40
2.0
 41
0.0
 71
     7
 72
     5
  1

 11
0.0000000000000001
 21
1.0
 31
0.0
 73
     1
 44
1.0
1001
ACAD
1000
MTEXTBEGIN
1070
    73
1070
     1
1070
    44
1040
1.0
1070
    74
1070
     0
1000
MTEXTEND
  0
MTEXT
  5
187D3
330
18
100
AcDbEntity
  8
0
100
AcDbMText
 10
325.1732797977028
 20
2146.93890367364
 30
0.0
 40
2.0
 41
10.1453
 71
     1
 72
     5
  1

 11
-0.0000000000000002
 21
-1.0
 31
0.0
 73
     1
 44
1.0
1001
ACAD
1000
MTEXTBEGIN
1070
    73
1070
     1
1070
    44
1040
1.0
1070
    74
1070
     0
1000
MTEXTEND
  0
MTEXT
  5
187D4
330
18
100
AcDbEntity
  8
0
100
AcDbMText
 10
280.773788044553
 20
2115.30742008065
 30
0.0
 40
2.0
 41
0.0
 71
     1
 72
     5
  1

 73
     1
 44
1.0
1001
ACAD
1000
MTEXTBEGIN
1070
    73
1070
     1
1070
    44
1040
1.0
1070
    74
1070
     0
1000
MTEXTEND
  0
MTEXT
  5
187D5
330
18
100
AcDbEntity
  8
0
  6
CENTER
100
AcDbMText
 10
606.3620652283159
 20
2216.239946825076
 30
0.0
 40
2.0
 41
15.6417
 71
     1
 72
     5
  1

  7
BIGFONT
 73
     1
 44
1.0
1001
ACAD
1000
MTEXTBEGIN
1070
    73
1070
     1
1070
    44
1040
1.0
1070
    74
1070
     0
1000
MTEXTEND
  0
MTEXT
  5
187D6
330
18
100
AcDbEntity
  8
0
  6
DASHDOT
100
AcDbMText
 10
368.6841242841443
 20
2323.029441652852
 30
0.0
 40
1.0
 41
2.0
 71
     1
 72
     5
  1

  7
BIGFONT
 73
     1
 44
1.0
1001
ACAD
1000
MTEXTBEGIN
1070
    73
1070
     1
1070
    44
1040
1.0
1070
    74
1070
     0
1000
MTEXTEND
  0
INSERT
  5
187D7
330
18
100
AcDbEntity
  8
FRAME025
100
AcDbBlockReference
  2
機械A4横_LBP
 10
271.0019941658661
 20
2006.88884056487
 30
0.0
  0
DIMENSION
  5
27924
330
18
100
AcDbEntity
  8
文字
370
    13
100
AcDbDimension
  2
*D39
 10
4679.835437808219
 20
-860.2451412771344
 30
0.0
 11
4637.298668078209
 21
-855.2451412771345
 31
0.0
 70
    32
  1
（200）
 71
     5
 42
85.07353946002059
  3
まこ
100
AcDbAlignedDimension
 13
4594.761898348198
 23
-819.0384981060907
 33
0.0
 14
4679.835437808219
 24
-822.2649880218842
 34
0.0
100
AcDbRotatedDimension
1001
ACAD
1000
DSTYLE
1002
{
1070
   271
1070
     6
1002
}
  0
DIMENSION
  5
27929
330
18
100
AcDbEntity
  8
0
 62
     4
370
    13
100
AcDbDimension
  2
*D44
 10
4062.091515864049
 20
-819.0384981060907
 30
0.0
 11
4057.091515864049
 21
-848.2527838203756
 31
0.0
 70
    32
  1
（<>）
 71
     5
 42
7.5
  3
まこ
100
AcDbAlignedDimension
 13
4111.655600747343
 23
-811.5384981060906
 33
0.0
 14
4086.761898348199
 24
-819.0384981060907
 34
0.0
 50
90.0
100
AcDbRotatedDimension
1001
ACAD
1000
DSTYLE
1002
{
1070
   271
1070
     6
1002
}
  0
DIMENSION
  5
2792A
330
18
100
AcDbEntity
  8
0
 62
     4
370
    13
100
AcDbDimension
  2
*D47
 10
4062.091515864049
 20
-696.5384981060906
 30
0.0
 11
4062.091515864049
 21
-659.8242123918042
 31
0.0
 70
   160
  1
（<>）
 71
     5
 42
7.5
  3
まこ
100
AcDbAlignedDimension
 13
4086.761898348199
 23
-689.0384981060906
 33
0.0
 14
4111.699714982261
 24
-696.5384981060906
 34
0.0
 50
90.0
100
AcDbRotatedDimension
1001
ACAD
1000
DSTYLE
1002
{
1070
   271
1070
     6
1002
}
  0
DIMENSION
  5
2792B
330
18
100
AcDbEntity
  8
0
 62
     4
370
    13
100
AcDbDimension
  2
*D40
 10
4062.091515864049
 20
-811.5384981060906
 30
0.0
 11
4057.091515864049
 21
-754.0384981060899
 31
0.0
 70
    32
 71
     5
 42
115.0
  3
まこ
100
AcDbAlignedDimension
 13
4111.699714982261
 23
-696.5384981060906
 33
0.0
 14
4111.678658765631
 24
-811.5384981060906
 34
0.0
 50
90.0
100
AcDbRotatedDimension
1001
ACAD
1000
DSTYLE
1002
{
1070
   271
1070
     6
1002
}
  0
DIMENSION
  5
2792C
330
18
100
AcDbEntity
  8
0
 62
     4
370
    13
100
AcDbDimension
  2
*D41
 10
4050.9073976545
 20
-819.0384981060907
 30
0.0
 11
4045.907397654501
 21
-754.0384981060899
 31
0.0
 70
    32
 71
     5
 42
130.0
  3
まこ
100
AcDbAlignedDimension
 13
4086.761898348199
 23
-689.0384981060906
 33
0.0
 14
4086.761898348199
 24
-819.0384981060907
 34
0.0
 50
90.0
100
AcDbRotatedDimension
1001
ACAD
1000
DSTYLE
1002
{
1070
   271
1070
     6
1002
}
  0
LINE
  5
2792E
330
18
100
AcDbEntity
  8
0
  6
PHANTOM
 48
0.75
370
     5
100
AcDbLine
 10
3960.710077611524
 20
-803.9385419703453
 30
0.0
 11
3960.710077611524
 21
-703.9620871479951
 31
0.0
  0
LEADER
  5
27933
330
18
100
AcDbEntity
  8
文字
370
    13
100
AcDbLeader
  3
まこ
 73
     0
 74
     0
 75
     1
 40
8.756345177664973
 41
27.90609137055838
 76
     3
 10
3977.910077611523
 20
-789.5384981060908
 30
0.0
 10
3999.506290368044
 20
-769.0118548127781
 30
0.0
 10
4005.756290368045
 20
-769.0118548127781
 30
0.0
340
27993
1001
ACAD
1000
DSTYLE
1002
{
1070
   147
1040
0.5
1070
    77
1070
     1
1002
}
  0
LEADER
  5
27934
330
18
100
AcDbEntity
  8
文字
370
    13
100
AcDbLeader
  3
まこ
 73
     0
 74
     0
 75
     1
 40
8.946700507614213
 41
18.80710659898477
 76
     3
 10
3978.910077611524
 20
-754.0384588597829
 30
0.0
 10
3998.535498931131
 20
-737.5980059333947
 30
0.0
 10
4004.785498931131
 20
-737.5980059333947
 30
0.0
340
27994
1001
ACAD
1000
DSTYLE
1002
{
1070
   147
1040
0.5
1070
    77
1070
     1
1002
}
  0
LINE
  5
27935
330
18
100
AcDbEntity
  8
0
  6
CENTER
 62
     1
 48
0.75
370
    13
100
AcDbLine
 10
4018.887024966383
 20
-754.0384981060906
 30
0.0
 11
3930.390999098045
 21
-754.0384981060906
 31
0.0
  0
LINE
  5
27937
330
18
100
AcDbEntity
  8
0
 62
     2
100
AcDbLine
 10
3978.910077611524
 20
-771.0384981060907
 30
0.0
 11
3978.910077611524
 21
-737.0384981060907
 31
0.0
  0
LINE
  5
27938
330
18
100
AcDbEntity
  8
0
 62
     2
100
AcDbLine
 10
3971.910077611524
 20
-736.5384981060907
 30
0.0
 11
3971.910077611524
 21
-771.5384981060907
 31
0.0
  0
LINE
  5
27939
330
18
100
AcDbEntity
  8
0
 62
     2
100
AcDbLine
 10
3966.910077611523
 20
-737.0384981060907
 30
0.0
 11
3966.910077611523
 21
-771.0384981060907
 31
0.0
  0
LINE
  5
2793A
330
18
100
AcDbEntity
  8
0
 62
     2
100
AcDbLine
 10
3978.910077611524
 20
-771.0384981060907
 30
0.0
 11
3978.910077611524
 21
-737.0384981060907
 31
0.0
  0
LINE
  5
2793B
330
18
100
AcDbEntity
  8
0
 62
     2
100
AcDbLine
 10
3966.910077611523
 20
-737.0384981060907
 30
0.0
 11
3966.910077611523
 21
-771.0384981060907
 31
0.0
  0
LINE
  5
2793C
330
18
100
AcDbEntity
  8
0
 62
     2
100
AcDbLine
 10
3971.910077611524
 20
-736.5384981060907
 30
0.0
 11
3971.910077611524
 21
-771.5384981060907
 31
0.0
  0
HATCH
  5
2793D
330
18
100
AcDbEntity
  8
0
 62
     4
100
AcDbHatch
 10
0.0
 20
0.0
 30
0.0
210
0.0
220
0.0
230
1.0
  2
SOLID
 70
     1
 71
     1
 91
        2
 92
       16
 93
        1
 72
     2
 10
3970.610321692136
 20
-785.6985715077081
 40
0.6007500000000002
 50
0.0
 51
360.0
 73
     1
 97
        1
330
27958
 92
        1
 93
        8
 72
     2
 10
3970.612184482835
 20
-785.6995029030569
 40
1.00311322310025
 50
23.58977727261614
 51
179.9468005913759
 73
     1
 72
     2
 10
3970.410071692136
 20
-785.6985715077081
 40
0.8009999999999999
 50
180.0
 51
360.0
 73
     1
 72
     1
 10
3971.211071692137
 20
-785.6985715077081
 11
3971.211071692137
 21
-787.9413715077081
 72
     1
 10
3971.211071692137
 20
-787.9413715077081
 11
3969.208571692137
 21
-787.7010715077086
 72
     1
 10
3969.208571692137
 20
-787.7010715077086
 11
3969.208571692137
 21
-783.2955715077079
 72
     1
 10
3969.208571692137
 20
-783.2955715077079
 11
3972.412571692137
 21
-783.6960715077094
 72
     1
 10
3972.412571692137
 20
-783.6960715077094
 11
3972.412571692137
 21
-788.1015715077084
 72
     1
 10
3972.412571692137
 20
-788.1015715077084
 11
3971.531471692136
 21
-785.2980715077084
 97
        8
330
27959
330
27956
330
2793E
330
27957
330
27953
330
2795C
330
27944
330
2793F
 75
     0
 76
     1
 98
        1
 10
3973.089796507896
 20
-584.2208614134725
  0
LINE
  5
2793E
102
{ACAD_REACTORS
330
2793D
102
}
330
18
100
AcDbEntity
  8
0
 62
     4
100
AcDbLine
 10
3971.211071692137
 20
-785.6985715077081
 30
0.0
 11
3971.211071692137
 21
-787.9413715077081
 31
0.0
  0
LINE
  5
2793F
102
{ACAD_REACTORS
330
2793D
102
}
330
18
100
AcDbEntity
  8
0
 62
     4
100
AcDbLine
 10
3972.412571692137
 20
-788.1015715077084
 30
0.0
 11
3971.531471692136
 21
-785.2980715077084
 31
0.0
  0
TEXT
  5
27940
330
18
100
AcDbEntity
  8
0
 62
     4
100
AcDbText
 10
3970.953068239706
 20
-789.0390838422355
 30
0.0
 40
1.44
  1
NIKKI
 50
270.0
  7
TIMESNR
100
AcDbText
  0
ARC
  5
27941
330
18
100
AcDbEntity
  8
0
 62
     4
100
AcDbCircle
 10
3977.410077611524
 20
-782.5384981060907
 30
0.0
 40
0.5
100
AcDbArc
 50
0.0
 51
90.0
  0
TEXT
  5
27942
330
18
100
AcDbEntity
  8
0
 62
     4
100
AcDbText
 10
3974.868637062451
 20
-783.2532165852973
 30
0.0
 40
2.0
  1
Certificate
 50
270.0
  7
TIMESNR
 11
3974.229848309748
 21
-783.2532165852973
 31
0.0
100
AcDbText
 73
     1
  0
LINE
  5
27943
330
18
100
AcDbEntity
  8
0
 62
     4
100
AcDbLine
 10
3973.910077611525
 20
-782.0384981060907
 30
0.0
 11
3973.910077611525
 21
-797.0384981060907
 31
0.0
  0
LINE
  5
27944
102
{ACAD_REACTORS
330
2793D
102
}
330
18
100
AcDbEntity
  8
0
 62
     4
100
AcDbLine
 10
3972.412571692137
 20
-783.6960715077094
 30
0.0
 11
3972.412571692137
 21
-788.1015715077084
 31
0.0
  0
LINE
  5
27945
330
18
100
AcDbEntity
  8
0
 62
     4
100
AcDbLine
 10
3977.910077611523
 20
-796.5384981060907
 30
0.0
 11
3977.910077611523
 21
-782.5384981060907
 31
0.0
  0
ARC
  5
27946
330
18
100
AcDbEntity
  8
0
 62
     4
100
AcDbCircle
 10
3977.410077611524
 20
-796.5384981060907
 30
0.0
 40
0.5
100
AcDbArc
 50
270.0
 51
0.0
  0
ARC
  5
27947
330
18
100
AcDbEntity
  8
0
 62
     2
100
AcDbCircle
 10
3978.410077611524
 20
-771.0384981060907
 30
0.0
 40
0.5
100
AcDbArc
 50
270.0
 51
0.0
  0
ARC
  5
27948
330
18
100
AcDbEntity
  8
0
 62
     2
100
AcDbCircle
 10
3978.410077611524
 20
-771.0384981060907
 30
0.0
 40
0.5
100
AcDbArc
 50
270.0
 51
0.0
  0
LINE
  5
27949
330
18
100
AcDbEntity
  8
0
  6
PHANTOM
 48
0.75
370
     5
100
AcDbLine
 10
3955.710127368492
 20
-803.9385419703453
 30
0.0
 11
3960.710077611524
 21
-803.9385419703453
 31
0.0
  0
LINE
  5
2794D
330
18
100
AcDbEntity
  8
隠れ線
  6
HIDDEN
 48
0.75
370
     5
100
AcDbLine
 10
3948.910127368491
 20
-816.9376981060905
 30
0.0
 11
3955.710127368492
 21
-816.9376981060905
 31
0.0
  0
LINE
  5
2794F
330
18
100
AcDbEntity
  8
0
  6
CENTER
 62
     1
 48
0.75
370
    13
100
AcDbLine
 10
3938.032896500381
 20
-811.4376981060905
 30
0.0
 11
3964.993201969456
 21
-811.4376981060905
 31
0.0
  0
ARC
  5
27950
330
18
100
AcDbEntity
  8
0
 62
     4
100
AcDbCircle
 10
3968.410077611523
 20
-796.5384981060907
 30
0.0
 40
0.5
100
AcDbArc
 50
180.0
 51
270.0
  0
ARC
  5
27951
330
18
100
AcDbEntity
  8
0
 62
     4
100
AcDbCircle
 10
3968.410077611525
 20
-782.5384981060907
 30
0.0
 40
0.5
100
AcDbArc
 50
90.0
 51
180.0
  0
LINE
  5
27952
330
18
100
AcDbEntity
  8
0
 62
     4
100
AcDbLine
 10
3967.910077611525
 20
-782.5384981060907
 30
0.0
 11
3967.910077611524
 21
-796.5384981060907
 31
0.0
  0
LINE
  5
27953
102
{ACAD_REACTORS
330
2793D
102
}
330
18
100
AcDbEntity
  8
0
 62
     4
100
AcDbLine
 10
3969.208571692137
 20
-783.2955715077079
 30
0.0
 11
3969.208571692137
 21
-787.7010715077086
 31
0.0
  0
ARC
  5
27954
330
18
100
AcDbEntity
  8
0
 62
     2
100
AcDbCircle
 10
3967.410077611523
 20
-771.0384981060907
 30
0.0
 40
0.5
100
AcDbArc
 50
180.0
 51
270.0
  0
ARC
  5
27955
330
18
100
AcDbEntity
  8
0
 62
     2
100
AcDbCircle
 10
3967.410077611523
 20
-771.0384981060907
 30
0.0
 40
0.5
100
AcDbArc
 50
180.0
 51
270.0
  0
ARC
  5
27956
102
{ACAD_REACTORS
330
2793D
102
}
330
18
100
AcDbEntity
  8
0
 62
     4
100
AcDbCircle
 10
3970.410071692136
 20
-785.6985715077081
 30
0.0
 40
0.8009999999999999
100
AcDbArc
 50
180.0
 51
0.0
  0
LINE
  5
27957
102
{ACAD_REACTORS
330
2793D
102
}
330
18
100
AcDbEntity
  8
0
 62
     4
100
AcDbLine
 10
3969.208571692137
 20
-787.7010715077086
 30
0.0
 11
3971.211071692137
 21
-787.9413715077081
 31
0.0
  0
CIRCLE
  5
27958
102
{ACAD_REACTORS
330
2793D
102
}
330
18
100
AcDbEntity
  8
0
 62
     4
100
AcDbCircle
 10
3970.610321692136
 20
-785.6985715077081
 30
0.0
 40
0.6007500000000002
  0
ARC
  5
27959
102
{ACAD_REACTORS
330
2793D
102
}
330
18
100
AcDbEntity
  8
0
 62
     4
100
AcDbCircle
 10
3970.612184482835
 20
-785.6995029030569
 30
0.0
 40
1.00311322310025
100
AcDbArc
 50
23.58977727261614
 51
179.9468005913759
  0
TEXT
  5
2795A
330
18
100
AcDbEntity
  8
0
 62
     4
100
AcDbText
 10
3969.25630583072
 20
-788.9176707320967
 30
0.0
 40
1.44
  1
DENSO
 50
270.0
  7
TIMESNR
100
AcDbText
  0
LINE
  5
2795B
330
18
100
AcDbEntity
  8
0
 62
     4
100
AcDbLine
 10
3968.410077611523
 20
-797.0384981060907
 30
0.0
 11
3977.410077611524
 21
-797.0384981060907
 31
0.0
  0
LINE
  5
2795C
102
{ACAD_REACTORS
330
2793D
102
}
330
18
100
AcDbEntity
  8
0
 62
     4
100
AcDbLine
 10
3969.208571692137
 20
-783.2955715077079
 30
0.0
 11
3972.412571692137
 21
-783.6960715077094
 31
0.0
  0
LINE
  5
2795D
330
18
100
AcDbEntity
  8
0
 62
     4
100
AcDbLine
 10
3977.410077611524
 20
-782.0384981060907
 30
0.0
 11
3968.410077611525
 21
-782.0384981060907
 31
0.0
  0
LINE
  5
2795E
330
18
100
AcDbEntity
  8
0
 62
     2
100
AcDbLine
 10
3967.410077611523
 20
-771.5384981060907
 30
0.0
 11
3978.410077611524
 21
-771.5384981060907
 31
0.0
  0
LINE
  5
2795F
330
18
100
AcDbEntity
  8
0
 62
     2
100
AcDbLine
 10
3967.410077611523
 20
-771.5384981060907
 30
0.0
 11
3978.410077611524
 21
-771.5384981060907
 31
0.0
  0
TEXT
  5
27960
330
18
100
AcDbEntity
  8
0
 62
     2
100
AcDbText
 10
3975.292989759202
 20
-738.3624681369566
 30
0.0
 40
2.6
  1
MODEL:CLN1500MA
 50
270.0
 41
1.199999999999999
  7
MSゴシックN
 11
3974.817862855648
 21
-738.3624681369566
 31
0.0
100
AcDbText
 73
     1
  0
HATCH
  5
27961
330
18
100
AcDbEntity
  8
0
 62
     2
100
AcDbHatch
 10
0.0
 20
0.0
 30
0.0
210
0.0
220
0.0
230
1.0
  2
SOLID
 70
     1
 71
     1
 91
        2
 92
       16
 93
        1
 72
     2
 10
3969.165351029525
 20
-741.4875446071692
 40
0.6007500000000002
 50
0.0
 51
360.0
 73
     1
 97
        1
330
27972
 92
        1
 93
        8
 72
     2
 10
3969.167213820222
 20
-741.488476002518
 40
1.00311322310025
 50
23.58977727261614
 51
179.9468005913759
 73
     1
 72
     2
 10
3968.965101029525
 20
-741.4875446071692
 40
0.8009999999999999
 50
180.0
 51
360.0
 73
     1
 72
     1
 10
3969.766101029526
 20
-741.4875446071692
 11
3969.766101029526
 21
-743.7303446071693
 72
     1
 10
3969.766101029526
 20
-743.7303446071693
 11
3967.763601029525
 21
-743.4900446071698
 72
     1
 10
3967.763601029525
 20
-743.4900446071698
 11
3967.763601029525
 21
-739.084544607169
 72
     1
 10
3967.763601029525
 20
-739.084544607169
 11
3970.967601029525
 21
-739.4850446071687
 72
     1
 10
3970.967601029525
 20
-739.4850446071687
 11
3970.967601029525
 21
-743.8905446071695
 72
     1
 10
3970.967601029525
 20
-743.8905446071695
 11
3970.086501029526
 21
-741.0870446071696
 97
        8
330
2796F
330
27973
330
27971
330
27974
330
27970
330
2797B
330
27964
330
2797C
 75
     0
 76
     1
 98
        1
 10
3971.644825845284
 20
-540.0098345129337
  0
HATCH
  5
27962
330
18
100
AcDbEntity
  8
0
 62
     2
100
AcDbHatch
 10
0.0
 20
0.0
 30
0.0
210
0.0
220
0.0
230
1.0
  2
SOLID
 70
     1
 71
     1
 91
        2
 92
       16
 93
        1
 72
     2
 10
3969.165351029525
 20
-741.4875446071688
 40
0.6007500000000002
 50
0.0
 51
360.0
 73
     1
 97
        1
330
2796B
 92
        1
 93
        8
 72
     2
 10
3969.167213820222
 20
-741.4884760025175
 40
1.00311322310025
 50
23.58977727261614
 51
179.9468005914019
 73
     1
 72
     2
 10
3968.965101029525
 20
-741.4875446071688
 40
0.8009999999999999
 50
180.0
 51
360.0
 73
     1
 72
     1
 10
3969.766101029526
 20
-741.4875446071688
 11
3969.766101029526
 21
-743.7303446071688
 72
     1
 10
3969.766101029526
 20
-743.7303446071688
 11
3967.763601029525
 21
-743.4900446071688
 72
     1
 10
3967.763601029525
 20
-743.4900446071688
 11
3967.763601029525
 21
-739.0845446071685
 72
     1
 10
3967.763601029525
 20
-739.0845446071685
 11
3970.967601029525
 21
-739.4850446071687
 72
     1
 10
3970.967601029525
 20
-739.4850446071687
 11
3970.967601029525
 21
-743.8905446071686
 72
     1
 10
3970.967601029525
 20
-743.8905446071686
 11
3970.086501029526
 21
-741.0870446071686
 97
        8
330
2796A
330
2796D
330
2796E
330
27969
330
2796C
330
27979
330
27963
330
2797A
 75
     0
 76
     1
 98
        1
 10
3971.644825845284
 20
-540.0098345129323
  0
LINE
  5
27963
102
{ACAD_REACTORS
330
27962
102
}
330
18
100
AcDbEntity
  8
0
 62
     2
100
AcDbLine
 10
3970.967601029525
 20
-739.4850446071687
 30
0.0
 11
3970.967601029525
 21
-743.8905446071686
 31
0.0
  0
LINE
  5
27964
102
{ACAD_REACTORS
330
27961
102
}
330
18
100
AcDbEntity
  8
0
 62
     2
100
AcDbLine
 10
3970.967601029525
 20
-739.4850446071687
 30
0.0
 11
3970.967601029525
 21
-743.8905446071695
 31
0.0
  0
TEXT
  5
27965
330
18
100
AcDbEntity
  8
0
 62
     2
100
AcDbText
 10
3972.46895641077
 20
-738.3353415641451
 30
0.0
 40
2.0
  1
SER No.******
 50
270.0
 41
1.199999999999999
  7
MSゴシックN
 11
3972.103474177268
 21
-738.3353415641451
 31
0.0
100
AcDbText
 73
     1
  0
TEXT
  5
27966
330
18
100
AcDbEntity
  8
0
 62
     2
100
AcDbText
 10
3972.46895641077
 20
-738.3353415641451
 30
0.0
 40
2.0
  1
SER No.******
 50
270.0
 41
1.199999999999999
  7
MSｺﾞｼｯｸN
 11
3972.103474177268
 21
-738.3353415641451
 31
0.0
100
AcDbText
 73
     1
  0
ARC
  5
27967
330
18
100
AcDbEntity
  8
0
 62
     2
100
AcDbCircle
 10
3978.410077611524
 20
-737.0384981060907
 30
0.0
 40
0.5
100
AcDbArc
 50
0.0
 51
90.0
  0
ARC
  5
27968
330
18
100
AcDbEntity
  8
0
 62
     2
100
AcDbCircle
 10
3978.410077611524
 20
-737.0384981060907
 30
0.0
 40
0.5
100
AcDbArc
 50
0.0
 51
90.0
  0
LINE
  5
27969
102
{ACAD_REACTORS
330
27962
102
}
330
18
100
AcDbEntity
  8
0
 62
     2
100
AcDbLine
 10
3967.763601029525
 20
-743.4900446071688
 30
0.0
 11
3969.766101029526
 21
-743.7303446071688
 31
0.0
  0
ARC
  5
2796A
102
{ACAD_REACTORS
330
27962
102
}
330
18
100
AcDbEntity
  8
0
 62
     2
100
AcDbCircle
 10
3969.167213820222
 20
-741.4884760025175
 30
0.0
 40
1.00311322310025
100
AcDbArc
 50
23.58977727261614
 51
179.9468005914019
  0
CIRCLE
  5
2796B
102
{ACAD_REACTORS
330
27962
102
}
330
18
100
AcDbEntity
  8
0
 62
     2
100
AcDbCircle
 10
3969.165351029525
 20
-741.4875446071688
 30
0.0
 40
0.6007500000000002
  0
LINE
  5
2796C
102
{ACAD_REACTORS
330
27962
102
}
330
18
100
AcDbEntity
  8
0
 62
     2
100
AcDbLine
 10
3967.763601029525
 20
-739.0845446071685
 30
0.0
 11
3967.763601029525
 21
-743.4900446071688
 31
0.0
  0
ARC
  5
2796D
102
{ACAD_REACTORS
330
27962
102
}
330
18
100
AcDbEntity
  8
0
 62
     2
100
AcDbCircle
 10
3968.965101029525
 20
-741.4875446071688
 30
0.0
 40
0.8009999999999999
100
AcDbArc
 50
180.0
 51
0.0
  0
LINE
  5
2796E
102
{ACAD_REACTORS
330
27962
102
}
330
18
100
AcDbEntity
  8
0
 62
     2
100
AcDbLine
 10
3969.766101029526
 20
-741.4875446071688
 30
0.0
 11
3969.766101029526
 21
-743.7303446071688
 31
0.0
  0
ARC
  5
2796F
102
{ACAD_REACTORS
330
27961
102
}
330
18
100
AcDbEntity
  8
0
 62
     2
100
AcDbCircle
 10
3969.167213820222
 20
-741.488476002518
 30
0.0
 40
1.00311322310025
100
AcDbArc
 50
23.58977727261614
 51
179.9468005913759
  0
LINE
  5
27970
102
{ACAD_REACTORS
330
27961
102
}
330
18
100
AcDbEntity
  8
0
 62
     2
100
AcDbLine
 10
3967.763601029525
 20
-739.084544607169
 30
0.0
 11
3967.763601029525
 21
-743.4900446071698
 31
0.0
  0
LINE
  5
27971
102
{ACAD_REACTORS
330
27961
102
}
330
18
100
AcDbEntity
  8
0
 62
     2
100
AcDbLine
 10
3969.766101029526
 20
-741.4875446071692
 30
0.0
 11
3969.766101029526
 21
-743.7303446071693
 31
0.0
  0
CIRCLE
  5
27972
102
{ACAD_REACTORS
330
27961
102
}
330
18
100
AcDbEntity
  8
0
 62
     2
100
AcDbCircle
 10
3969.165351029525
 20
-741.4875446071692
 30
0.0
 40
0.6007500000000002
  0
ARC
  5
27973
102
{ACAD_REACTORS
330
27961
102
}
330
18
100
AcDbEntity
  8
0
 62
     2
100
AcDbCircle
 10
3968.965101029525
 20
-741.4875446071692
 30
0.0
 40
0.8009999999999999
100
AcDbArc
 50
180.0
 51
0.0
  0
LINE
  5
27974
102
{ACAD_REACTORS
330
27961
102
}
330
18
100
AcDbEntity
  8
0
 62
     2
100
AcDbLine
 10
3967.763601029525
 20
-743.4900446071698
 30
0.0
 11
3969.766101029526
 21
-743.7303446071693
 31
0.0
  0
TEXT
  5
27975
330
18
100
AcDbEntity
  8
0
 62
     2
100
AcDbText
 10
3967.811335168109
 20
-744.7066438315565
 30
0.0
 40
1.44
  1
DENSO
 50
270.0
 41
1.3
  7
TIMESNR
100
AcDbText
  0
TEXT
  5
27976
330
18
100
AcDbEntity
  8
0
 62
     2
100
AcDbText
 10
3967.811335168109
 20
-744.7066438315561
 30
0.0
 40
1.44
  1
DENSO
 50
270.0
 41
1.3
  7
TIMESNR
100
AcDbText
  0
ARC
  5
27977
330
18
100
AcDbEntity
  8
0
 62
     2
100
AcDbCircle
 10
3967.410077611523
 20
-737.0384981060907
 30
0.0
 40
0.5
100
AcDbArc
 50
90.0
 51
180.0
  0
ARC
  5
27978
330
18
100
AcDbEntity
  8
0
 62
     2
100
AcDbCircle
 10
3967.410077611523
 20
-737.0384981060907
 30
0.0
 40
0.5
100
AcDbArc
 50
90.0
 51
180.0
  0
LINE
  5
27979
102
{ACAD_REACTORS
330
27962
102
}
330
18
100
AcDbEntity
  8
0
 62
     2
100
AcDbLine
 10
3967.763601029525
 20
-739.0845446071685
 30
0.0
 11
3970.967601029525
 21
-739.4850446071687
 31
0.0
  0
LINE
  5
2797A
102
{ACAD_REACTORS
330
27962
102
}
330
18
100
AcDbEntity
  8
0
 62
     2
100
AcDbLine
 10
3970.967601029525
 20
-743.8905446071686
 30
0.0
 11
3970.086501029526
 21
-741.0870446071686
 31
0.0
  0
LINE
  5
2797B
102
{ACAD_REACTORS
330
27961
102
}
330
18
100
AcDbEntity
  8
0
 62
     2
100
AcDbLine
 10
3967.763601029525
 20
-739.084544607169
 30
0.0
 11
3970.967601029525
 21
-739.4850446071687
 31
0.0
  0
LINE
  5
2797C
102
{ACAD_REACTORS
330
27961
102
}
330
18
100
AcDbEntity
  8
0
 62
     2
100
AcDbLine
 10
3970.967601029525
 20
-743.8905446071695
 30
0.0
 11
3970.086501029526
 21
-741.0870446071696
 31
0.0
  0
TEXT
  5
2797D
330
18
100
AcDbEntity
  8
0
 62
     2
100
AcDbText
 10
3969.508097577095
 20
-744.8280569416953
 30
0.0
 40
1.44
  1
NIKKI
 50
270.0
 41
1.25
  7
TIMESNR
100
AcDbText
  0
TEXT
  5
2797E
330
18
100
AcDbEntity
  8
0
 62
     2
100
AcDbText
 10
3969.508097577095
 20
-744.8280569416966
 30
0.0
 40
1.44
  1
NIKKI
 50
270.0
 41
1.25
  7
TIMESNR
100
AcDbText
  0
LINE
  5
2797F
330
18
100
AcDbEntity
  8
0
 62
     2
100
AcDbLine
 10
3978.410077611524
 20
-736.5384981060907
 30
0.0
 11
3967.410077611523
 21
-736.5384981060907
 31
0.0
  0
LINE
  5
27980
330
18
100
AcDbEntity
  8
0
 62
     2
100
AcDbLine
 10
3978.410077611524
 20
-736.5384981060907
 30
0.0
 11
3967.410077611523
 21
-736.5384981060907
 31
0.0
  0
LINE
  5
27988
330
18
100
AcDbEntity
  8
0
  6
CENTER
 62
     1
 48
0.75
370
    13
100
AcDbLine
 10
4004.875317102092
 20
-811.5384981060906
 30
0.0
 11
3989.494026332772
 21
-811.5384981060906
 31
0.0
  0
LINE
  5
27992
330
18
100
AcDbEntity
  8
0
 62
     4
370
    13
100
AcDbLine
 10
4062.091515864049
 20
-819.0384981060907
 30
0.0
 11
4062.091515864049
 21
-811.5384981060906
 31
0.0
  0
MTEXT
  5
27993
102
{ACAD_REACTORS
330
27933
102
}
330
18
100
AcDbEntity
  8
文字
370
    13
100
AcDbMText
 10
4007.006290368044
 20
-767.7618548127781
 30
0.0
 40
7.5
 41
0.0
 71
     7
 72
     1
  1
\A1;合格証
  7
まこ
 73
     1
 44
1.0
  0
MTEXT
  5
27994
102
{ACAD_REACTORS
330
27934
102
}
330
18
100
AcDbEntity
  8
文字
370
    13
100
AcDbMText
 10
4006.03549893113
 20
-736.3480059333948
 30
0.0
 40
7.5
 41
0.0
 71
     7
 72
     1
  1
\A1;銘板
  7
まこ
 73
     1
 44
1.0
  0
LINE
  5
27996
330
18
100
AcDbEntity
  8
0
  6
PHANTOM
 48
0.75
370
     5
100
AcDbLine
 10
3960.710077611524
 20
-703.9620871479951
 30
0.0
 11
3955.710127368492
 21
-703.9620871479951
 31
0.0
  0
LINE
  5
2799C
330
18
100
AcDbEntity
  8
0
  6
CENTER
 62
     1
 48
0.75
370
    13
100
AcDbLine
 10
3938.032896500381
 20
-696.4376981060905
 30
0.0
 11
3964.951057845664
 21
-696.4376981060905
 31
0.0
  0
LINE
  5
279A2
330
18
100
AcDbEntity
  8
0
  6
CENTER
 62
     1
 48
0.75
370
    13
100
AcDbLine
 10
4004.875317102092
 20
-696.5384981060906
 30
0.0
 11
3989.494026332772
 21
-696.5384981060906
 31
0.0
  0
LINE
  5
279AC
330
18
100
AcDbEntity
  8
0
 62
     4
370
    13
100
AcDbLine
 10
4062.091515864049
 20
-689.0384981060906
 30
0.0
 11
4062.091515864049
 21
-696.5384981060906
 31
0.0
  0
LINE
  5
279AD
330
18
100
AcDbEntity
  8
0
370
    50
100
AcDbLine
 10
4086.761898348199
 20
-689.0384981060906
 30
0.0
 11
4086.761898348199
 21
-819.0384981060907
 31
0.0
  0
LINE
  5
279AE
330
18
100
AcDbEntity
  8
0
370
    50
100
AcDbLine
 10
4594.761898348198
 20
-689.0384981060906
 30
0.0
 11
4594.761898348198
 21
-819.0384981060907
 31
0.0
  0
DIMENSION
  5
279AF
330
18
100
AcDbEntity
  8
文字
370
    13
100
AcDbDimension
  2
*D45
 10
4564.761898348199
 20
-849.6093792937202
 30
0.0
 11
4340.761898348199
 21
-844.6093792937201
 31
0.0
 70
    32
  1
7xP64=<>
 71
     5
 42
448.0
  3
まこ
100
AcDbAlignedDimension
 13
4116.761898348198
 23
-816.9352692111893
 33
0.0
 14
4564.761898348199
 24
-816.9352692111893
 34
0.0
100
AcDbRotatedDimension
1001
ACAD
1000
DSTYLE
1002
{
1070
   271
1070
     6
1002
}
  0
DIMENSION
  5
279B1
330
18
100
AcDbEntity
  8
文字
370
    13
100
AcDbDimension
  2
*D43
 10
4594.761898348198
 20
-860.2451412771344
 30
0.0
 11
4340.761898348199
 21
-855.2451412771345
 31
0.0
 70
    32
 71
     5
 42
508.0
  3
まこ
100
AcDbAlignedDimension
 13
4086.761898348199
 23
-819.0384981060907
 33
0.0
 14
4594.761898348198
 24
-819.0384981060907
 34
0.0
100
AcDbRotatedDimension
1001
ACAD
1000
DSTYLE
1002
{
1070
   271
1070
     6
1002
}
  0
LINE
  5
279B2
330
18
100
AcDbEntity
  8
0
  6
CENTER
 62
     1
 48
0.75
370
    13
100
AcDbLine
 10
4067.810155654892
 20
-754.0384981060906
 30
0.0
 11
4611.224359221481
 21
-754.0384981060906
 31
0.0
  0
LINE
  5
279B3
330
18
100
AcDbEntity
  8
0
370
    50
100
AcDbLine
 10
4086.761898348199
 20
-819.0384981060907
 30
0.0
 11
4594.761898348198
 21
-819.0384981060907
 31
0.0
  0
LWPOLYLINE
  5
279BC
330
18
100
AcDbEntity
  8
0
370
    50
100
AcDbPolyline
 90
        2
 70
     0
 43
0.0
 10
4580.784120748199
 20
-801.0412702779635
 10
4420.784081367976
 20
-801.0412702779635
  0
DIMENSION
  5
279BE
330
18
100
AcDbEntity
  8
文字
370
    13
100
AcDbDimension
  2
*D42
 10
4116.761898348198
 20
-849.9485735497367
 30
0.0
 11
4101.761898348199
 21
-844.9485735497367
 31
0.0
 70
    32
 71
     5
 42
29.99999999999954
  3
まこ
100
AcDbAlignedDimension
 13
4086.761898348199
 23
-819.0384981060907
 33
0.0
 14
4116.761898348198
 24
-816.9352692111893
 34
0.0
100
AcDbRotatedDimension
1001
ACAD
1000
DSTYLE
1002
{
1070
   271
1070
     6
1002
}
  0
LINE
  5
279F3
330
18
100
AcDbEntity
  8
0
370
    50
100
AcDbLine
 10
4086.761898348199
 20
-801.0412702779635
 30
0.0
 11
4420.784081367976
 21
-801.0412702779635
 31
0.0
  0
LINE
  5
279F4
330
18
100
AcDbEntity
  8
0
370
    50
100
AcDbLine
 10
4101.784081367976
 20
-801.0412702779635
 30
0.0
 11
4101.784081367976
 21
-819.0384981060907
 31
0.0
  0
CIRCLE
  5
279F5
330
18
100
AcDbEntity
  8
0
370
     9
100
AcDbCircle
 10
4116.761898348198
 20
-811.5384981060906
 30
0.0
 40
2.5
  0
CIRCLE
  5
279F6
330
18
100
AcDbEntity
  8
0
370
    20
100
AcDbCircle
 10
4116.761898348198
 20
-811.5384981060906
 30
0.0
 40
2.0
  0
LINE
  5
279F7
330
18
100
AcDbEntity
  8
0
  6
CENTER
 62
     1
 48
0.3
370
    13
100
AcDbLine
 10
4116.761898348198
 20
-816.9352692111893
 30
0.0
 11
4116.761898348198
 21
-806.3077867837382
 31
0.0
  0
LINE
  5
279F8
330
18
100
AcDbEntity
  8
0
  6
CENTER
 62
     1
 48
0.3
370
    13
100
AcDbLine
 10
4111.655600747343
 20
-811.5384981060906
 30
0.0
 11
4121.924003746949
 21
-811.5384981060906
 31
0.0
  0
LINE
  5
279F9
330
18
100
AcDbEntity
  8
0
  6
CENTER
 62
     1
 48
0.3
370
    13
100
AcDbLine
 10
4175.655600747343
 20
-811.5384981060906
 30
0.0
 11
4185.924003746949
 21
-811.5384981060906
 31
0.0
  0
LINE
  5
279FA
330
18
100
AcDbEntity
  8
0
  6
CENTER
 62
     1
 48
0.3
370
    13
100
AcDbLine
 10
4180.761898348198
 20
-816.9352692111893
 30
0.0
 11
4180.761898348198
 21
-806.3077867837382
 31
0.0
  0
CIRCLE
  5
279FB
330
18
100
AcDbEntity
  8
0
370
    20
100
AcDbCircle
 10
4180.761898348198
 20
-811.5384981060906
 30
0.0
 40
2.0
  0
CIRCLE
  5
279FC
330
18
100
AcDbEntity
  8
0
370
     9
100
AcDbCircle
 10
4180.761898348198
 20
-811.5384981060906
 30
0.0
 40
2.5
  0
DIMENSION
  5
27A00
330
18
100
AcDbEntity
  8
文字
370
    13
100
AcDbDimension
  2
*D46
 10
4594.761898348198
 20
-849.6093792937202
 30
0.0
 11
4579.761898348198
 21
-844.6093792937201
 31
0.0
 70
    32
  1
（<>）
 71
     5
 42
30.0
  3
まこ
100
AcDbAlignedDimension
 13
4564.761898348199
 23
-816.9352692111893
 33
0.0
 14
4594.761898348198
 24
-819.0384981060907
 34
0.0
100
AcDbRotatedDimension
1001
ACAD
1000
DSTYLE
1002
{
1070
   271
1070
     6
1002
}
  0
LINE
  5
27A3A
330
18
100
AcDbEntity
  8
0
370
    50
100
AcDbLine
 10
4579.804081367977
 20
-801.0412702779635
 30
0.0
 11
4579.784120748199
 21
-819.0384981060907
 31
0.0
  0
LINE
  5
27A3B
330
18
100
AcDbEntity
  8
0
370
    50
100
AcDbLine
 10
4580.804081367977
 20
-801.0412702779635
 30
0.0
 11
4594.761898348198
 21
-801.0412702779635
 31
0.0
  0
LINE
  5
27A3D
330
18
100
AcDbEntity
  8
0
370
    50
100
AcDbLine
 10
4086.761898348199
 20
-689.0384981060906
 30
0.0
 11
4594.761898348198
 21
-689.0384981060906
 31
0.0
  0
LWPOLYLINE
  5
27A3E
330
18
100
AcDbEntity
  8
0
370
    50
100
AcDbPolyline
 90
        2
 70
     0
 43
0.0
 10
4580.784120748199
 20
-707.0357259342172
 10
4420.784081367976
 20
-707.0357259342172
  0
LINE
  5
27A3F
330
18
100
AcDbEntity
  8
0
370
    50
100
AcDbLine
 10
4086.761898348199
 20
-707.0357259342172
 30
0.0
 11
4420.784081367976
 21
-707.0357259342172
 31
0.0
  0
LINE
  5
27A40
330
18
100
AcDbEntity
  8
0
370
    50
100
AcDbLine
 10
4101.784081367976
 20
-689.0384981060906
 30
0.0
 11
4101.784081367976
 21
-707.0357259342172
 31
0.0
  0
CIRCLE
  5
27A41
330
18
100
AcDbEntity
  8
0
370
     9
100
AcDbCircle
 10
4116.761898348198
 20
-696.5384981060906
 30
0.0
 40
2.5
  0
CIRCLE
  5
27A42
330
18
100
AcDbEntity
  8
0
370
    20
100
AcDbCircle
 10
4116.761898348198
 20
-696.5384981060906
 30
0.0
 40
2.0
  0
LINE
  5
27A43
330
18
100
AcDbEntity
  8
0
  6
CENTER
 62
     1
 48
0.3
370
    13
100
AcDbLine
 10
4116.761898348198
 20
-701.2095936395034
 30
0.0
 11
4116.761898348198
 21
-692.0419965568198
 31
0.0
  0
LINE
  5
27A44
330
18
100
AcDbEntity
  8
0
  6
CENTER
 62
     1
 48
0.3
370
    13
100
AcDbLine
 10
4111.676656963974
 20
-696.5384981060906
 30
0.0
 11
4121.644943001053
 21
-696.5384981060906
 31
0.0
  0
LINE
  5
27A45
330
18
100
AcDbEntity
  8
0
  6
CENTER
 62
     1
 48
0.3
370
    13
100
AcDbLine
 10
4175.676656963974
 20
-696.5384981060906
 30
0.0
 11
4185.644943001054
 21
-696.5384981060906
 31
0.0
  0
LINE
  5
27A46
330
18
100
AcDbEntity
  8
0
  6
CENTER
 62
     1
 48
0.3
370
    13
100
AcDbLine
 10
4180.761898348198
 20
-701.2095936395034
 30
0.0
 11
4180.761898348198
 21
-692.0419965568198
 31
0.0
  0
CIRCLE
  5
27A47
330
18
100
AcDbEntity
  8
0
370
    20
100
AcDbCircle
 10
4180.761898348198
 20
-696.5384981060906
 30
0.0
 40
2.0
  0
CIRCLE
  5
27A48
330
18
100
AcDbEntity
  8
0
370
     9
100
AcDbCircle
 10
4180.761898348198
 20
-696.5384981060906
 30
0.0
 40
2.5
  0
LEADER
  5
27A51
330
18
100
AcDbEntity
  8
文字
370
    13
100
AcDbLeader
  3
まこ
 73
     0
 74
     0
 75
     1
 40
8.98477157360406
 41
91.63705583756344
 76
     3
 10
4566.560592539874
 20
-694.7487694913755
 30
0.0
 10
4574.718605280837
 20
-680.2816519021127
 30
0.0
 10
4580.968605280837
 20
-680.2816519021127
 30
0.0
340
27A52
1001
ACAD
1000
DSTYLE
1002
{
1070
   147
1040
0.5
1070
    77
1070
     1
1002
}
  0
MTEXT
  5
27A52
102
{ACAD_REACTORS
330
27A51
102
}
330
18
100
AcDbEntity
  8
文字
370
    13
100
AcDbMText
 10
4582.218605280838
 20
-679.0316519021127
 30
0.0
 40
7.5
 41
0.0
 71
     7
 72
     1
  1
取付穴16-M5ネジ深10
  7
まこ
 73
     1
 44
1.0
  0
LINE
  5
27A57
330
18
100
AcDbEntity
  8
0
370
    50
100
AcDbLine
 10
4579.784120748199
 20
-689.0384981060906
 30
0.0
 11
4579.784120748199
 21
-707.0357259342172
 31
0.0
  0
LINE
  5
27A58
330
18
100
AcDbEntity
  8
0
370
    50
100
AcDbLine
 10
4580.784120748199
 20
-707.0357259342172
 30
0.0
 11
4594.761898348198
 21
-707.0357259342172
 31
0.0
  0
DIMENSION
  5
27A59
330
18
100
AcDbEntity
  8
0
 62
     4
370
    13
100
AcDbDimension
  2
*D48
 10
4751.999288718018
 20
-801.0361647812445
 30
0.0
 11
4746.999288718018
 21
-754.0361647812438
 31
0.0
 70
    32
 71
     5
 42
94.0
  3
まこ
100
AcDbAlignedDimension
 13
4788.871390401241
 23
-707.0361647812444
 33
0.0
 14
4788.870681616715
 24
-801.0361647812445
 34
0.0
 50
90.0
100
AcDbRotatedDimension
1001
ACAD
1000
DSTYLE
1002
{
1070
   279
1070
     1
1002
}
  0
DIMENSION
  5
27A5A
330
18
100
AcDbEntity
  8
0
 62
     4
370
    13
100
AcDbDimension
  2
*D56
 10
4789.371390401242
 20
-725.4390175374162
 30
0.0
 11
4767.264247544098
 21
-725.4390175374162
 31
0.0
 70
   160
 71
     5
 42
0.5
  3
まこ
100
AcDbAlignedDimension
 13
4788.871390401241
 23
-707.0361647812444
 33
0.0
 14
4789.371390401242
 24
-707.0361647812444
 34
0.0
100
AcDbRotatedDimension
1001
ACAD
1000
DSTYLE
1002
{
1070
   271
1070
     8
1002
}
  0
LINE
  5
27A5B
330
18
100
AcDbEntity
  8
0
  6
PHANTOM
 48
0.75
370
     5
100
AcDbLine
 10
4830.071390401241
 20
-803.9362086454991
 30
0.0
 11
4830.071390401241
 21
-703.959753823149
 31
0.0
  0
LWPOLYLINE
  5
27A5C
330
18
100
AcDbEntity
  8
0
  6
PHANTOM
 48
0.75
370
     5
100
AcDbPolyline
 90
        4
 70
     1
 43
0.0
 10
4835.071390401241
 20
-689.0361865073016
 10
4842.871390401241
 20
-689.0361865073016
 10
4842.871390401241
 20
-819.036186507302
 10
4835.071390401241
 20
-819.036186507302
  0
LINE
  5
27A5D
102
{ACAD_REACTORS
330
282C4
102
}
330
18
100
AcDbEntity
  8
0
 48
0.3
370
    50
100
AcDbLine
 10
4828.871390401241
 20
-689.0361647812444
 30
0.0
 11
4828.871390401241
 21
-819.0361647812444
 31
0.0
  0
LWPOLYLINE
  5
27A5F
102
{ACAD_REACTORS
330
282C4
102
}
330
18
100
AcDbEntity
  8
0
  6
HIDDEN
 48
0.6
370
    13
100
AcDbPolyline
 90
        5
 70
     0
 43
0.0
 10
4802.870681616715
 20
-814.9626647812445
 10
4802.870681616715
 20
-692.9626647812445
 10
4790.870681616715
 20
-692.9626647812445
 10
4790.870681616715
 20
-814.9626647812445
 10
4802.870681616715
 20
-814.9626647812445
  0
LINE
  5
27A60
102
{ACAD_REACTORS
330
282C4
102
}
330
18
100
AcDbEntity
  8
0
 48
0.3
370
    50
100
AcDbLine
 10
4789.371390401242
 20
-707.036208645499
 30
0.0
 11
4789.371390401242
 21
-801.0361647812445
 31
0.0
  0
LEADER
  5
27A61
330
18
100
AcDbEntity
  8
0
370
    13
100
AcDbLeader
  3
まこ
 73
     0
 75
     1
 40
9.098984771573602
 41
56.99238578680202
 76
     3
 10
4808.490189094344
 20
-817.1130369459522
 30
0.0
 10
4798.689396352068
 20
-868.219088118367
 30
0.0
 10
4792.439396352068
 20
-868.219088118367
 30
0.0
340
27AE9
213
-3.128765632443901
223
-0.1335371079846936
233
0.0
1001
ACAD
1000
DSTYLE
1002
{
1070
   147
1040
0.5
1070
    77
1070
     1
1002
}
  0
LINE
  5
27A62
102
{ACAD_REACTORS
330
282C4
102
}
330
18
100
AcDbEntity
  8
0
 48
0.3
370
    50
100
AcDbLine
 10
4828.871390401241
 20
-819.0361647812444
 30
0.0
 11
4788.871390401241
 21
-819.0361647812444
 31
0.0
  0
LINE
  5
27A63
330
18
100
AcDbEntity
  8
0
  6
CENTER
 62
     1
 48
0.75
370
    13
100
AcDbLine
 10
4771.894443046381
 20
-754.0361647812444
 30
0.0
 11
4860.390468914721
 21
-754.0361647812444
 31
0.0
  0
DIMENSION
  5
27AC1
330
18
100
AcDbEntity
  8
0
 62
     4
370
    13
100
AcDbDimension
  2
*D49
 10
4751.999288718018
 20
-819.0361647812444
 30
0.0
 11
4751.999288718018
 21
-809.2803143540695
 31
0.0
 70
   160
  1
（<>）
 71
     5
 42
18.0
  3
まこ
100
AcDbAlignedDimension
 13
4788.870681616715
 23
-801.0361647812445
 33
0.0
 14
4788.871390401241
 24
-819.0361647812444
 34
0.0
 50
90.0
100
AcDbRotatedDimension
1001
ACAD
1000
DSTYLE
1002
{
1070
   279
1070
     1
1002
}
  0
CIRCLE
  5
27AC7
102
{ACAD_REACTORS
330
282C4
102
}
330
18
100
AcDbEntity
  8
0
  6
HIDDEN
 48
0.6
370
    13
100
AcDbCircle
 10
4796.870310210572
 20
-808.9467918200732
 30
0.0
 40
4.0
  0
LINE
  5
27ACB
330
18
100
AcDbEntity
  8
0
  6
CENTER
 62
     1
 48
0.75
370
    13
100
AcDbLine
 10
4785.906150910673
 20
-811.5361647812445
 30
0.0
 11
4801.287441679992
 21
-811.5361647812445
 31
0.0
  0
LINE
  5
27AD4
102
{ACAD_REACTORS
330
282C4
102
}
330
18
100
AcDbEntity
  8
0
 48
0.3
370
    50
100
AcDbLine
 10
4789.371522057936
 20
-801.0361647812445
 30
0.0
 11
4788.870681616715
 21
-801.0361647812445
 31
0.0
  0
LINE
  5
27AD5
102
{ACAD_REACTORS
330
282C4
102
}
330
18
100
AcDbEntity
  8
0
 48
0.3
370
    50
100
AcDbLine
 10
4788.871390401241
 20
-819.0361647812444
 30
0.0
 11
4788.870681616715
 21
-801.0361647812445
 31
0.0
  0
LEADER
  5
27AE7
330
18
100
AcDbEntity
  8
文字
370
    13
100
AcDbLeader
  3
まこ
 73
     0
 74
     0
 75
     1
 40
22.28426395939086
 41
106.5228426395939
 76
     3
 10
4837.988617769207
 20
-819.036186507302
 30
0.0
 10
4787.896836660983
 20
-889.3443381750348
 30
0.0
 10
4794.146836660982
 20
-889.3443381750348
 30
0.0
340
27AE8
213
-8.916383151235095
223
-0.0884213099079716
233
0.0
1001
ACAD
1000
DSTYLE
1002
{
1070
   147
1040
0.5
1070
    77
1070
     1
1002
}
  0
MTEXT
  5
27AE8
102
{ACAD_REACTORS
330
27AE7
102
}
330
18
100
AcDbEntity
  8
文字
370
    13
100
AcDbMText
 10
4804.313219812218
 20
-888.0059168651269
 30
0.0
 40
7.5
 41
0.0
 71
     7
 72
     1
  1
組合せマグネットベース\PＭＢＮＡシリーズ
  7
まこ
 73
     1
 44
1.0
  0
MTEXT
  5
27AE9
102
{ACAD_REACTORS
330
27A61
102
}
330
18
100
AcDbEntity
  8
0
 62
     2
370
    13
100
AcDbMText
 10
4737.325776197711
 20
-866.8355510103822
 30
0.0
 40
7.5
 41
0.0
 71
     7
 72
     1
  1
\A1;ケーブル位置
  7
まこ
 73
     1
 44
1.0
  0
LINE
  5
27AED
330
18
100
AcDbEntity
  8
0
  6
PHANTOM
 48
0.75
370
     5
100
AcDbLine
 10
4835.071340644272
 20
-803.9362086454991
 30
0.0
 11
4830.071390401241
 21
-803.9362086454993
 31
0.0
  0
LINE
  5
27AEE
330
18
100
AcDbEntity
  8
0
  6
CENTER
 62
     1
 48
0.75
370
    13
100
AcDbLine
 10
4852.748621269352
 20
-811.4353647812443
 30
0.0
 11
4825.788315800276
 21
-811.4353647812443
 31
0.0
  0
LINE
  5
27AF1
102
{ACAD_REACTORS
330
282C4
102
}
330
18
100
AcDbEntity
  8
0
 48
0.3
370
    50
100
AcDbLine
 10
4788.871390401241
 20
-689.0361647812445
 30
0.0
 11
4828.871390401241
 21
-689.0361647812445
 31
0.0
  0
DIMENSION
  5
27AF2
330
18
100
AcDbEntity
  8
0
 62
     4
370
    13
100
AcDbDimension
  2
*D53
 10
4828.871390401241
 20
-641.0290344591749
 30
0.0
 11
4808.871390401241
 21
-636.0290344591748
 31
0.0
 70
    32
 71
     5
 42
40.0
  3
まこ
100
AcDbAlignedDimension
 13
4788.871390401241
 23
-689.0362086454991
 33
0.0
 14
4828.871390401241
 24
-689.0362086454991
 34
0.0
100
AcDbRotatedDimension
  0
DIMENSION
  5
27AF3
330
18
100
AcDbEntity
  8
0
 62
     4
370
    13
100
AcDbDimension
  2
*D52
 10
4830.071390401241
 20
-641.0290344591749
 30
0.0
 11
4846.461999653095
 21
-624.2578965372431
 31
0.0
 70
   160
 71
     5
 42
1.199999999999818
  3
まこ
100
AcDbAlignedDimension
 13
4828.871390401241
 23
-689.0362086454991
 33
0.0
 14
4830.071390401241
 24
-703.959753823149
 34
0.0
100
AcDbRotatedDimension
1001
ACAD
1000
DSTYLE
1002
{
1070
   344
1005
153E2
1070
   342
1005
0
1070
   173
1070
     1
1070
   343
1005
1215D
1070
   279
1070
     1
1002
}
  0
DIMENSION
  5
27AF4
330
18
100
AcDbEntity
  8
0
 62
     4
370
    13
100
AcDbDimension
  2
*D54
 10
4842.871390401241
 20
-612.1434428809807
 30
0.0
 11
4815.871390401241
 21
-612.1434428809807
 31
0.0
 70
   160
  1
<>（取付寸法）
 71
     5
 42
54.0
  3
まこ
100
AcDbAlignedDimension
 13
4788.871390401241
 23
-689.0362086454991
 33
0.0
 14
4842.871390401241
 24
-689.0361865073016
 34
0.0
100
AcDbRotatedDimension
  0
DIMENSION
  5
27AF5
330
18
100
AcDbEntity
  8
0
 62
     4
370
    13
100
AcDbDimension
  2
*D55
 10
4751.999288718018
 20
-707.0361647812444
 30
0.0
 11
4751.999288718018
 21
-698.0361647812437
 31
0.0
 70
   160
  1
（<>）
 71
     5
 42
18.0
  3
まこ
100
AcDbAlignedDimension
 13
4788.871390401241
 23
-689.0361647812444
 33
0.0
 14
4788.871390401241
 24
-707.0361647812444
 34
0.0
 50
90.0
100
AcDbRotatedDimension
  0
CIRCLE
  5
27AF8
102
{ACAD_REACTORS
330
282C4
102
}
330
18
100
AcDbEntity
  8
0
  6
HIDDEN
 48
0.6
370
    13
100
AcDbCircle
 10
4796.870310210572
 20
-698.9467918200728
 30
0.0
 40
4.0
  0
LINE
  5
27AFB
330
18
100
AcDbEntity
  8
0
  6
CENTER
 62
     1
 48
0.75
370
    13
100
AcDbLine
 10
4785.906150910673
 20
-696.5361647812444
 30
0.0
 11
4801.287441679992
 21
-696.5361647812444
 31
0.0
  0
LINE
  5
27B03
102
{ACAD_REACTORS
330
282C4
102
}
330
18
100
AcDbEntity
  8
0
 48
0.3
370
    50
100
AcDbLine
 10
4788.871390401241
 20
-707.0361647812444
 30
0.0
 11
4788.871390401241
 21
-689.0361647812444
 31
0.0
  0
LINE
  5
27B04
102
{ACAD_REACTORS
330
282C4
102
}
330
18
100
AcDbEntity
  8
0
 48
0.3
370
    50
100
AcDbLine
 10
4788.871390401241
 20
-707.0361647812444
 30
0.0
 11
4789.371390401242
 21
-707.0361647812444
 31
0.0
  0
DIMENSION
  5
27B05
330
18
100
AcDbEntity
  8
0
 62
     4
370
    13
100
AcDbDimension
  2
*D51
 10
4842.871390401241
 20
-641.0290344591749
 30
0.0
 11
4867.510276574467
 21
-644.5944203724685
 31
0.0
 70
   160
 71
     5
 42
12.80000000000018
  3
まこ
100
AcDbAlignedDimension
 13
4830.071390401241
 23
-703.959753823149
 33
0.0
 14
4842.871390401241
 24
-689.0361865073016
 34
0.0
100
AcDbRotatedDimension
1001
ACAD
1000
DSTYLE
1002
{
1070
   173
1070
     1
1070
   271
1070
     6
1070
   279
1070
     1
1070
   342
1005
0
1070
   343
1005
153E2
1070
   344
1005
1215D
1002
}
  0
DIMENSION
  5
27B06
330
18
100
AcDbEntity
  8
0
 62
     4
370
    13
100
AcDbDimension
  2
*D50
 10
4842.871340644273
 20
-659.2334549621646
 30
0.0
 11
4864.478483501416
 21
-654.2334549621646
 31
0.0
 70
    32
 71
     5
 42
7.800000000000181
  3
まこ
100
AcDbAlignedDimension
 13
4835.071340644272
 23
-689.0361865073016
 33
0.0
 14
4842.871340644273
 24
-689.0361865073016
 34
0.0
100
AcDbRotatedDimension
1001
ACAD
1000
DSTYLE
1002
{
1070
   271
1070
     6
1002
}
  0
LINE
  5
27B0A
330
18
100
AcDbEntity
  8
0
  6
PHANTOM
 48
0.75
370
     5
100
AcDbLine
 10
4830.071390401241
 20
-703.959753823149
 30
0.0
 11
4835.071340644272
 21
-703.959753823149
 31
0.0
  0
LINE
  5
27B0B
330
18
100
AcDbEntity
  8
0
  6
CENTER
 62
     1
 48
0.75
370
    13
100
AcDbLine
 10
4852.748621269352
 20
-696.4353647812442
 30
0.0
 11
4825.83045992407
 21
-696.4353647812442
 31
0.0
  0
TEXT
  5
27B0E
330
18
100
AcDbEntity
  8
文字
370
    13
100
AcDbText
 10
4861.273749356622
 20
-623.1516384349172
 30
0.0
 40
7.5
  1
（ギャップ）
 41
0.6
  7
ｽﾀｲﾙ3
100
AcDbText
  0
LINE
  5
27B0F
330
18
100
AcDbEntity
  8
0
 62
     4
370
    13
100
AcDbLine
 10
4849.497713938809
 20
-624.2578965372431
 30
0.0
 11
4877.711571047558
 21
-624.2578965372431
 31
0.0
  0
TEXT
  5
27B10
330
18
100
AcDbEntity
  8
0
 62
     7
100
AcDbText
 10
3967.544886837575
 20
-756.1601585006416
 30
137.5
 40
1.5
  1
MADE IN JAPAN
 50
270.0
  7
MSゴシックN
 11
3967.270775162448
 21
-756.1601585006416
 31
137.5
100
AcDbText
 73
     1
  0
TEXT
  5
27B11
330
18
100
AcDbEntity
  8
0
 62
     7
100
AcDbText
 10
3969.414672887961
 20
-756.1601585006416
 30
137.5
 40
1.5
  1
SN-16140
 50
270.0
  7
MSゴシックN
 11
3969.140561212835
 21
-756.1601585006416
 31
137.5
100
AcDbText
 73
     1
  0
LINE
  5
27CBF
330
18
100
AcDbEntity
  8
0
370
    50
100
AcDbLine
 10
4594.761898348198
 20
-969.8428683892743
 30
0.0
 11
4086.761898348199
 21
-969.8428683892743
 31
0.0
  0
LINE
  5
27CC0
330
18
100
AcDbEntity
  8
0
370
    50
100
AcDbLine
 10
4086.761898348199
 20
-929.8428683892744
 30
0.0
 11
4594.761898348198
 21
-929.8428683892744
 31
0.0
  0
LWPOLYLINE
  5
27CC1
330
18
100
AcDbEntity
  8
0
370
    50
100
AcDbPolyline
 90
        2
 70
     0
 43
0.0
 10
4579.784120748199
 20
-955.8428683892744
 10
4101.784081367976
 20
-955.8428683892744
  0
LINE
  5
27CC2
330
18
100
AcDbEntity
  8
隠れ線
 48
0.75
370
    13
100
AcDbLine
 10
4101.784081367976
 20
-941.3428683892744
 30
0.0
 11
4579.784120748199
 21
-941.3428683892744
 31
0.0
  0
LINE
  5
27CC3
330
18
100
AcDbEntity
  8
隠れ線
 48
0.75
370
    13
100
AcDbLine
 10
4101.784081367976
 20
-931.8342759161346
 30
0.0
 11
4579.784120748199
 21
-931.8428683892744
 31
0.0
  0
LINE
  5
27CDC
330
18
100
AcDbEntity
  8
0
370
    50
100
AcDbLine
 10
4101.784081367976
 20
-929.8428683892744
 30
0.0
 11
4101.784081367976
 21
-955.8428683892744
 31
0.0
  0
LINE
  5
27CDE
330
18
100
AcDbEntity
  8
0
370
    50
100
AcDbLine
 10
4086.761898348199
 20
-929.8428683892744
 30
0.0
 11
4086.761898348199
 21
-969.8428683892743
 31
0.0
  0
CIRCLE
  5
27CE0
330
18
100
AcDbEntity
  8
0
  6
HIDDEN
 48
0.6
370
    13
100
AcDbCircle
 10
4127.37971532842
 20
-937.3428683892743
 30
0.0
 40
6.0
  0
LINE
  5
27CE1
330
18
100
AcDbEntity
  8
隠れ線
 48
0.75
370
    13
100
AcDbLine
 10
4114.76116242834
 20
-929.8428683892744
 30
0.0
 11
4114.76116242834
 21
-939.8428683892744
 31
0.0
  0
LINE
  5
27CE2
330
18
100
AcDbEntity
  8
隠れ線
 48
0.75
370
    13
100
AcDbLine
 10
4115.261162428341
 20
-929.8428683892744
 30
0.0
 11
4115.261162428341
 21
-941.3428683892739
 31
0.0
  0
LINE
  5
27CE3
330
18
100
AcDbEntity
  8
隠れ線
 48
0.75
370
    13
100
AcDbLine
 10
4114.76116242834
 20
-939.8428683892744
 30
0.0
 11
4118.753684919147
 21
-939.8428683892744
 31
0.0
  0
LINE
  5
27CE4
330
18
100
AcDbEntity
  8
隠れ線
 48
0.75
370
    13
100
AcDbLine
 10
4118.261162428341
 20
-929.8428683892744
 30
0.0
 11
4118.261162428341
 21
-941.3428683892739
 31
0.0
  0
LINE
  5
27CE5
330
18
100
AcDbEntity
  8
隠れ線
 48
0.75
370
    13
100
AcDbLine
 10
4118.261162428341
 20
-940.5315610435454
 30
0.0
 11
4118.753684919147
 21
-939.8428683892744
 31
0.0
  0
LINE
  5
27CE6
330
18
100
AcDbEntity
  8
隠れ線
 48
0.75
370
    13
100
AcDbLine
 10
4114.76116242834
 20
-939.8428683892744
 30
0.0
 11
4115.261162428341
 21
-940.5315610435454
 31
0.0
  0
LINE
  5
27CE7
330
18
100
AcDbEntity
  8
隠れ線
 48
0.75
370
    13
100
AcDbLine
 10
4118.753684919147
 20
-939.8428683892744
 30
0.0
 11
4118.753684919147
 21
-929.8428683892744
 31
0.0
  0
LINE
  5
27CE8
330
18
100
AcDbEntity
  8
0
  6
CENTER
 62
     1
 48
0.75
370
    13
100
AcDbLine
 10
4116.761898348198
 20
-943.2249127130134
 30
0.0
 11
4116.761898348198
 21
-928.3764198930484
 31
0.0
  0
LINE
  5
27CE9
330
18
100
AcDbEntity
  8
0
370
    50
100
AcDbLine
 10
4086.761898348199
 20
-931.8342759161346
 30
0.0
 11
4101.784081367976
 21
-931.8342759161346
 31
0.0
  0
CIRCLE
  5
27CEB
330
18
100
AcDbEntity
  8
0
  6
HIDDEN
 48
0.6
370
    13
100
AcDbCircle
 10
4162.939715328421
 20
-937.3428683892743
 30
0.0
 40
6.0
  0
CIRCLE
  5
27CED
330
18
100
AcDbEntity
  8
0
  6
HIDDEN
 48
0.6
370
    13
100
AcDbCircle
 10
4198.49971532842
 20
-937.3428683892743
 30
0.0
 40
6.0
  0
LINE
  5
27CEE
330
18
100
AcDbEntity
  8
隠れ線
 48
0.75
370
    13
100
AcDbLine
 10
4182.753684919148
 20
-939.8428683892744
 30
0.0
 11
4182.753684919148
 21
-929.8428683892744
 31
0.0
  0
LINE
  5
27CEF
330
18
100
AcDbEntity
  8
隠れ線
 48
0.75
370
    13
100
AcDbLine
 10
4178.76116242834
 20
-939.8428683892744
 30
0.0
 11
4179.261162428341
 21
-940.5315610435454
 31
0.0
  0
LINE
  5
27CF0
330
18
100
AcDbEntity
  8
隠れ線
 48
0.75
370
    13
100
AcDbLine
 10
4182.261162428341
 20
-940.5315610435454
 30
0.0
 11
4182.753684919148
 21
-939.8428683892744
 31
0.0
  0
LINE
  5
27CF1
330
18
100
AcDbEntity
  8
隠れ線
 48
0.75
370
    13
100
AcDbLine
 10
4182.261162428341
 20
-929.8428683892744
 30
0.0
 11
4182.261162428341
 21
-941.3428683892739
 31
0.0
  0
LINE
  5
27CF2
330
18
100
AcDbEntity
  8
隠れ線
 48
0.75
370
    13
100
AcDbLine
 10
4178.76116242834
 20
-939.8428683892744
 30
0.0
 11
4182.753684919148
 21
-939.8428683892744
 31
0.0
  0
LINE
  5
27CF3
330
18
100
AcDbEntity
  8
隠れ線
 48
0.75
370
    13
100
AcDbLine
 10
4179.261162428341
 20
-929.8428683892744
 30
0.0
 11
4179.261162428341
 21
-941.3428683892739
 31
0.0
  0
LINE
  5
27CF4
330
18
100
AcDbEntity
  8
隠れ線
 48
0.75
370
    13
100
AcDbLine
 10
4178.76116242834
 20
-929.8428683892744
 30
0.0
 11
4178.76116242834
 21
-939.8428683892744
 31
0.0
  0
LINE
  5
27CF5
330
18
100
AcDbEntity
  8
0
  6
CENTER
 62
     1
 48
0.75
370
    13
100
AcDbLine
 10
4180.761898348198
 20
-943.2249127130134
 30
0.0
 11
4180.761898348198
 21
-928.3764198930484
 31
0.0
  0
LINE
  5
27CF6
330
18
100
AcDbEntity
  8
隠れ線
 48
0.75
370
    13
100
AcDbLine
 10
4246.753684919148
 20
-939.8428683892744
 30
0.0
 11
4246.753684919148
 21
-929.8428683892744
 31
0.0
  0
LINE
  5
27CF7
330
18
100
AcDbEntity
  8
隠れ線
 48
0.75
370
    13
100
AcDbLine
 10
4242.76116242834
 20
-939.8428683892744
 30
0.0
 11
4243.261162428341
 21
-940.5315610435454
 31
0.0
  0
LINE
  5
27CF8
330
18
100
AcDbEntity
  8
隠れ線
 48
0.75
370
    13
100
AcDbLine
 10
4246.261162428341
 20
-940.5315610435454
 30
0.0
 11
4246.753684919148
 21
-939.8428683892744
 31
0.0
  0
LINE
  5
27CF9
330
18
100
AcDbEntity
  8
隠れ線
 48
0.75
370
    13
100
AcDbLine
 10
4246.261162428341
 20
-929.8428683892744
 30
0.0
 11
4246.261162428341
 21
-941.3428683892739
 31
0.0
  0
LINE
  5
27CFA
330
18
100
AcDbEntity
  8
隠れ線
 48
0.75
370
    13
100
AcDbLine
 10
4242.76116242834
 20
-939.8428683892744
 30
0.0
 11
4246.753684919148
 21
-939.8428683892744
 31
0.0
  0
LINE
  5
27CFB
330
18
100
AcDbEntity
  8
隠れ線
 48
0.75
370
    13
100
AcDbLine
 10
4243.261162428341
 20
-929.8428683892744
 30
0.0
 11
4243.261162428341
 21
-941.3428683892739
 31
0.0
  0
LINE
  5
27CFC
330
18
100
AcDbEntity
  8
隠れ線
 48
0.75
370
    13
100
AcDbLine
 10
4242.76116242834
 20
-929.8428683892744
 30
0.0
 11
4242.76116242834
 21
-939.8428683892744
 31
0.0
  0
LINE
  5
27CFE
330
18
100
AcDbEntity
  8
0
  6
CENTER
 62
     1
 48
0.75
370
    13
100
AcDbLine
 10
4244.761898348198
 20
-943.2249127130134
 30
0.0
 11
4244.761898348198
 21
-928.3764198930484
 31
0.0
  0
CIRCLE
  5
27CFF
330
18
100
AcDbEntity
  8
0
  6
HIDDEN
 48
0.6
370
    13
100
AcDbCircle
 10
4234.05971532842
 20
-937.3428683892743
 30
0.0
 40
6.0
  0
CIRCLE
  5
27D00
330
18
100
AcDbEntity
  8
0
  6
HIDDEN
 48
0.6
370
    13
100
AcDbCircle
 10
4269.61971532842
 20
-937.3428683892743
 30
0.0
 40
6.0
  0
CIRCLE
  5
27D02
330
18
100
AcDbEntity
  8
0
  6
HIDDEN
 48
0.6
370
    13
100
AcDbCircle
 10
4322.95971532842
 20
-937.3428683892743
 30
0.0
 40
6.0
  0
LINE
  5
27D04
330
18
100
AcDbEntity
  8
隠れ線
 48
0.75
370
    13
100
AcDbLine
 10
4310.753684919148
 20
-939.8428683892744
 30
0.0
 11
4310.753684919148
 21
-929.8428683892744
 31
0.0
  0
LINE
  5
27D05
330
18
100
AcDbEntity
  8
隠れ線
 48
0.75
370
    13
100
AcDbLine
 10
4306.76116242834
 20
-939.8428683892744
 30
0.0
 11
4307.261162428341
 21
-940.5315610435454
 31
0.0
  0
LINE
  5
27D06
330
18
100
AcDbEntity
  8
隠れ線
 48
0.75
370
    13
100
AcDbLine
 10
4310.261162428341
 20
-940.5315610435454
 30
0.0
 11
4310.753684919148
 21
-939.8428683892744
 31
0.0
  0
LINE
  5
27D07
330
18
100
AcDbEntity
  8
隠れ線
 48
0.75
370
    13
100
AcDbLine
 10
4310.261162428341
 20
-929.8428683892744
 30
0.0
 11
4310.261162428341
 21
-941.3428683892739
 31
0.0
  0
LINE
  5
27D08
330
18
100
AcDbEntity
  8
隠れ線
 48
0.75
370
    13
100
AcDbLine
 10
4306.76116242834
 20
-939.8428683892744
 30
0.0
 11
4310.753684919148
 21
-939.8428683892744
 31
0.0
  0
LINE
  5
27D09
330
18
100
AcDbEntity
  8
隠れ線
 48
0.75
370
    13
100
AcDbLine
 10
4307.261162428341
 20
-929.8428683892744
 30
0.0
 11
4307.261162428341
 21
-941.3428683892739
 31
0.0
  0
LINE
  5
27D0A
330
18
100
AcDbEntity
  8
隠れ線
 48
0.75
370
    13
100
AcDbLine
 10
4306.76116242834
 20
-929.8428683892744
 30
0.0
 11
4306.76116242834
 21
-939.8428683892744
 31
0.0
  0
LINE
  5
27D0C
330
18
100
AcDbEntity
  8
0
  6
CENTER
 62
     1
 48
0.75
370
    13
100
AcDbLine
 10
4308.761898348199
 20
-943.2249127130134
 30
0.0
 11
4308.761898348199
 21
-928.3764198930484
 31
0.0
  0
CIRCLE
  5
27D0D
330
18
100
AcDbEntity
  8
0
  6
HIDDEN
 48
0.6
370
    13
100
AcDbCircle
 10
4287.399715328421
 20
-937.3428683892743
 30
0.0
 40
6.0
  0
LINE
  5
27D0E
330
18
100
AcDbEntity
  8
隠れ線
 48
0.75
370
    13
100
AcDbLine
 10
4374.753684919148
 20
-939.8428683892744
 30
0.0
 11
4374.753684919148
 21
-929.8428683892744
 31
0.0
  0
LINE
  5
27D0F
330
18
100
AcDbEntity
  8
隠れ線
 48
0.75
370
    13
100
AcDbLine
 10
4370.76116242834
 20
-939.8428683892744
 30
0.0
 11
4371.261162428341
 21
-940.5315610435454
 31
0.0
  0
LINE
  5
27D10
330
18
100
AcDbEntity
  8
隠れ線
 48
0.75
370
    13
100
AcDbLine
 10
4374.261162428341
 20
-940.5315610435454
 30
0.0
 11
4374.753684919148
 21
-939.8428683892744
 31
0.0
  0
LINE
  5
27D11
330
18
100
AcDbEntity
  8
隠れ線
 48
0.75
370
    13
100
AcDbLine
 10
4374.261162428341
 20
-929.8428683892744
 30
0.0
 11
4374.261162428341
 21
-941.3428683892739
 31
0.0
  0
LINE
  5
27D12
330
18
100
AcDbEntity
  8
隠れ線
 48
0.75
370
    13
100
AcDbLine
 10
4370.76116242834
 20
-939.8428683892744
 30
0.0
 11
4374.753684919148
 21
-939.8428683892744
 31
0.0
  0
LINE
  5
27D13
330
18
100
AcDbEntity
  8
隠れ線
 48
0.75
370
    13
100
AcDbLine
 10
4371.261162428341
 20
-929.8428683892744
 30
0.0
 11
4371.261162428341
 21
-941.3428683892739
 31
0.0
  0
LINE
  5
27D14
330
18
100
AcDbEntity
  8
隠れ線
 48
0.75
370
    13
100
AcDbLine
 10
4370.76116242834
 20
-929.8428683892744
 30
0.0
 11
4370.76116242834
 21
-939.8428683892744
 31
0.0
  0
LINE
  5
27D16
330
18
100
AcDbEntity
  8
0
  6
CENTER
 62
     1
 48
0.75
370
    13
100
AcDbLine
 10
4372.761898348199
 20
-943.2249127130134
 30
0.0
 11
4372.761898348199
 21
-928.3764198930484
 31
0.0
  0
CIRCLE
  5
27D17
330
18
100
AcDbEntity
  8
0
  6
HIDDEN
 48
0.6
370
    13
100
AcDbCircle
 10
4358.564081367976
 20
-937.3428683892743
 30
0.0
 40
6.0
  0
LINE
  5
27D22
330
18
100
AcDbEntity
  8
0
370
    50
100
AcDbLine
 10
4579.784120748199
 20
-929.8428683892744
 30
0.0
 11
4579.784120748199
 21
-955.8428683892744
 31
0.0
  0
LINE
  5
27D23
330
18
100
AcDbEntity
  8
0
370
    50
100
AcDbLine
 10
4594.761898348198
 20
-929.8428683892744
 30
0.0
 11
4594.761898348198
 21
-969.8428683892743
 31
0.0
  0
LWPOLYLINE
  5
27D3F
330
18
100
AcDbEntity
  8
0
370
    50
100
AcDbPolyline
 90
        2
 70
     0
 43
0.0
 10
4420.784081367976
 20
-929.8428683892744
 10
4580.784120748199
 20
-929.8428683892744
  0
CIRCLE
  5
27D40
330
18
100
AcDbEntity
  8
0
  6
HIDDEN
 48
0.6
370
    13
100
AcDbCircle
 10
4483.024081367976
 20
-937.3428683892743
 30
0.0
 40
6.0
  0
CIRCLE
  5
27D42
330
18
100
AcDbEntity
  8
0
  6
HIDDEN
 48
0.6
370
    13
100
AcDbCircle
 10
4411.904081367977
 20
-937.3428683892743
 30
0.0
 40
6.0
  0
CIRCLE
  5
27D44
330
18
100
AcDbEntity
  8
0
  6
HIDDEN
 48
0.6
370
    13
100
AcDbCircle
 10
4394.124081367976
 20
-937.3428683892743
 30
0.0
 40
6.0
  0
CIRCLE
  5
27D46
330
18
100
AcDbEntity
  8
0
  6
HIDDEN
 48
0.6
370
    13
100
AcDbCircle
 10
4447.464081367976
 20
-937.3428683892743
 30
0.0
 40
6.0
  0
LINE
  5
27D47
330
18
100
AcDbEntity
  8
隠れ線
 48
0.75
370
    13
100
AcDbLine
 10
4438.753684919148
 20
-939.8428683892744
 30
0.0
 11
4438.753684919148
 21
-929.8428683892744
 31
0.0
  0
LINE
  5
27D48
330
18
100
AcDbEntity
  8
隠れ線
 48
0.75
370
    13
100
AcDbLine
 10
4434.76116242834
 20
-939.8428683892744
 30
0.0
 11
4435.261162428341
 21
-940.5315610435454
 31
0.0
  0
LINE
  5
27D49
330
18
100
AcDbEntity
  8
隠れ線
 48
0.75
370
    13
100
AcDbLine
 10
4438.26116242834
 20
-940.5315610435454
 30
0.0
 11
4438.753684919148
 21
-939.8428683892744
 31
0.0
  0
LINE
  5
27D4A
330
18
100
AcDbEntity
  8
隠れ線
 48
0.75
370
    13
100
AcDbLine
 10
4438.26116242834
 20
-929.8428683892744
 30
0.0
 11
4438.26116242834
 21
-941.3428683892739
 31
0.0
  0
LINE
  5
27D4B
330
18
100
AcDbEntity
  8
隠れ線
 48
0.75
370
    13
100
AcDbLine
 10
4434.76116242834
 20
-939.8428683892744
 30
0.0
 11
4438.753684919148
 21
-939.8428683892744
 31
0.0
  0
LINE
  5
27D4C
330
18
100
AcDbEntity
  8
隠れ線
 48
0.75
370
    13
100
AcDbLine
 10
4435.261162428341
 20
-929.8428683892744
 30
0.0
 11
4435.261162428341
 21
-941.3428683892739
 31
0.0
  0
LINE
  5
27D4D
330
18
100
AcDbEntity
  8
隠れ線
 48
0.75
370
    13
100
AcDbLine
 10
4434.76116242834
 20
-929.8428683892744
 30
0.0
 11
4434.76116242834
 21
-939.8428683892744
 31
0.0
  0
LINE
  5
27D4E
330
18
100
AcDbEntity
  8
0
  6
CENTER
 62
     1
 48
0.75
370
    13
100
AcDbLine
 10
4436.761898348199
 20
-943.2249127130134
 30
0.0
 11
4436.761898348199
 21
-928.3764198930484
 31
0.0
  0
LINE
  5
27D50
330
18
100
AcDbEntity
  8
隠れ線
 48
0.75
370
    13
100
AcDbLine
 10
4502.753684919148
 20
-939.8428683892744
 30
0.0
 11
4502.753684919148
 21
-929.8428683892744
 31
0.0
  0
LINE
  5
27D51
330
18
100
AcDbEntity
  8
隠れ線
 48
0.75
370
    13
100
AcDbLine
 10
4498.761162428341
 20
-939.8428683892744
 30
0.0
 11
4499.261162428341
 21
-940.5315610435454
 31
0.0
  0
LINE
  5
27D52
330
18
100
AcDbEntity
  8
隠れ線
 48
0.75
370
    13
100
AcDbLine
 10
4502.26116242834
 20
-940.5315610435454
 30
0.0
 11
4502.753684919148
 21
-939.8428683892744
 31
0.0
  0
LINE
  5
27D53
330
18
100
AcDbEntity
  8
隠れ線
 48
0.75
370
    13
100
AcDbLine
 10
4502.26116242834
 20
-929.8428683892744
 30
0.0
 11
4502.26116242834
 21
-941.3428683892739
 31
0.0
  0
LINE
  5
27D54
330
18
100
AcDbEntity
  8
隠れ線
 48
0.75
370
    13
100
AcDbLine
 10
4498.761162428341
 20
-939.8428683892744
 30
0.0
 11
4502.753684919148
 21
-939.8428683892744
 31
0.0
  0
LINE
  5
27D55
330
18
100
AcDbEntity
  8
隠れ線
 48
0.75
370
    13
100
AcDbLine
 10
4499.261162428341
 20
-929.8428683892744
 30
0.0
 11
4499.261162428341
 21
-941.3428683892739
 31
0.0
  0
LINE
  5
27D56
330
18
100
AcDbEntity
  8
隠れ線
 48
0.75
370
    13
100
AcDbLine
 10
4498.761162428341
 20
-929.8428683892744
 30
0.0
 11
4498.761162428341
 21
-939.8428683892744
 31
0.0
  0
LINE
  5
27D57
330
18
100
AcDbEntity
  8
0
  6
CENTER
 62
     1
 48
0.75
370
    13
100
AcDbLine
 10
4500.761898348199
 20
-943.2249127130134
 30
0.0
 11
4500.761898348199
 21
-928.3764198930484
 31
0.0
  0
CIRCLE
  5
27D58
330
18
100
AcDbEntity
  8
0
  6
HIDDEN
 48
0.6
370
    13
100
AcDbCircle
 10
4518.584081367976
 20
-937.3428683892743
 30
0.0
 40
6.0
  0
LINE
  5
27D5A
330
18
100
AcDbEntity
  8
隠れ線
 48
0.75
370
    13
100
AcDbLine
 10
4566.753684919148
 20
-939.8428683892744
 30
0.0
 11
4566.753684919148
 21
-929.8428683892744
 31
0.0
  0
LINE
  5
27D5B
330
18
100
AcDbEntity
  8
隠れ線
 48
0.75
370
    13
100
AcDbLine
 10
4562.761162428341
 20
-939.8428683892744
 30
0.0
 11
4563.26116242834
 21
-940.5315610435454
 31
0.0
  0
LINE
  5
27D5C
330
18
100
AcDbEntity
  8
隠れ線
 48
0.75
370
    13
100
AcDbLine
 10
4566.26116242834
 20
-940.5315610435454
 30
0.0
 11
4566.753684919148
 21
-939.8428683892744
 31
0.0
  0
LINE
  5
27D5D
330
18
100
AcDbEntity
  8
隠れ線
 48
0.75
370
    13
100
AcDbLine
 10
4566.26116242834
 20
-929.8428683892744
 30
0.0
 11
4566.26116242834
 21
-941.3428683892739
 31
0.0
  0
LINE
  5
27D5E
330
18
100
AcDbEntity
  8
隠れ線
 48
0.75
370
    13
100
AcDbLine
 10
4562.761162428341
 20
-939.8428683892744
 30
0.0
 11
4566.753684919148
 21
-939.8428683892744
 31
0.0
  0
LINE
  5
27D5F
330
18
100
AcDbEntity
  8
隠れ線
 48
0.75
370
    13
100
AcDbLine
 10
4563.26116242834
 20
-929.8428683892744
 30
0.0
 11
4563.26116242834
 21
-941.3428683892739
 31
0.0
  0
LINE
  5
27D60
330
18
100
AcDbEntity
  8
隠れ線
 48
0.75
370
    13
100
AcDbLine
 10
4562.761162428341
 20
-929.8428683892744
 30
0.0
 11
4562.761162428341
 21
-939.8428683892744
 31
0.0
  0
LINE
  5
27D62
330
18
100
AcDbEntity
  8
0
  6
CENTER
 62
     1
 48
0.75
370
    13
100
AcDbLine
 10
4564.761898348199
 20
-943.2249127130134
 30
0.0
 11
4564.761898348199
 21
-928.3764198930484
 31
0.0
  0
CIRCLE
  5
27D63
330
18
100
AcDbEntity
  8
0
  6
HIDDEN
 48
0.6
370
    13
100
AcDbCircle
 10
4554.144081367976
 20
-937.3428683892743
 30
0.0
 40
6.0
  0
LINE
  5
27D6E
330
18
100
AcDbEntity
  8
0
370
    50
100
AcDbLine
 10
4579.784120748199
 20
-931.8342759161346
 30
0.0
 11
4594.761898348198
 21
-931.8342759161346
 31
0.0
  0
CIRCLE
  5
27DF2
330
18
100
AcDbEntity
  8
0
370
     9
100
AcDbCircle
 10
4244.761898348198
 20
-811.5384981060906
 30
0.0
 40
2.5
  0
CIRCLE
  5
27DF3
330
18
100
AcDbEntity
  8
0
370
    20
100
AcDbCircle
 10
4244.761898348198
 20
-811.5384981060906
 30
0.0
 40
2.0
  0
LINE
  5
27DF4
330
18
100
AcDbEntity
  8
0
  6
CENTER
 62
     1
 48
0.3
370
    13
100
AcDbLine
 10
4244.761898348198
 20
-816.9352692111893
 30
0.0
 11
4244.761898348198
 21
-806.3077867837382
 31
0.0
  0
LINE
  5
27DF5
330
18
100
AcDbEntity
  8
0
  6
CENTER
 62
     1
 48
0.3
370
    13
100
AcDbLine
 10
4239.655600747343
 20
-811.5384981060906
 30
0.0
 11
4249.924003746949
 21
-811.5384981060906
 31
0.0
  0
LINE
  5
27DF6
330
18
100
AcDbEntity
  8
0
  6
CENTER
 62
     1
 48
0.3
370
    13
100
AcDbLine
 10
4308.761898348199
 20
-816.9352692111893
 30
0.0
 11
4308.761898348199
 21
-806.3077867837382
 31
0.0
  0
CIRCLE
  5
27DF7
330
18
100
AcDbEntity
  8
0
370
    20
100
AcDbCircle
 10
4308.761898348199
 20
-811.5384981060906
 30
0.0
 40
2.0
  0
CIRCLE
  5
27DF8
330
18
100
AcDbEntity
  8
0
370
     9
100
AcDbCircle
 10
4308.761898348199
 20
-811.5384981060906
 30
0.0
 40
2.5
  0
LINE
  5
27DF9
330
18
100
AcDbEntity
  8
0
  6
CENTER
 62
     1
 48
0.3
370
    13
100
AcDbLine
 10
4303.655600747343
 20
-811.5384981060906
 30
0.0
 11
4313.924003746949
 21
-811.5384981060906
 31
0.0
  0
CIRCLE
  5
27DFA
330
18
100
AcDbEntity
  8
0
370
     9
100
AcDbCircle
 10
4244.761898348198
 20
-696.5384981060906
 30
0.0
 40
2.5
  0
CIRCLE
  5
27DFB
330
18
100
AcDbEntity
  8
0
370
    20
100
AcDbCircle
 10
4244.761898348198
 20
-696.5384981060906
 30
0.0
 40
2.0
  0
LINE
  5
27DFC
330
18
100
AcDbEntity
  8
0
  6
CENTER
 62
     1
 48
0.3
370
    13
100
AcDbLine
 10
4244.761898348198
 20
-701.2095936395034
 30
0.0
 11
4244.761898348198
 21
-692.0419965568198
 31
0.0
  0
LINE
  5
27DFD
330
18
100
AcDbEntity
  8
0
  6
CENTER
 62
     1
 48
0.3
370
    13
100
AcDbLine
 10
4239.676656963974
 20
-696.5384981060906
 30
0.0
 11
4249.644943001054
 21
-696.5384981060906
 31
0.0
  0
LINE
  5
27DFE
330
18
100
AcDbEntity
  8
0
  6
CENTER
 62
     1
 48
0.3
370
    13
100
AcDbLine
 10
4303.676656963974
 20
-696.5384981060906
 30
0.0
 11
4313.644943001054
 21
-696.5384981060906
 31
0.0
  0
LINE
  5
27DFF
330
18
100
AcDbEntity
  8
0
  6
CENTER
 62
     1
 48
0.3
370
    13
100
AcDbLine
 10
4308.761898348199
 20
-701.2095936395034
 30
0.0
 11
4308.761898348199
 21
-692.0419965568198
 31
0.0
  0
CIRCLE
  5
27E00
330
18
100
AcDbEntity
  8
0
370
    20
100
AcDbCircle
 10
4308.761898348199
 20
-696.5384981060906
 30
0.0
 40
2.0
  0
CIRCLE
  5
27E01
330
18
100
AcDbEntity
  8
0
370
     9
100
AcDbCircle
 10
4308.761898348199
 20
-696.5384981060906
 30
0.0
 40
2.5
  0
CIRCLE
  5
27E02
330
18
100
AcDbEntity
  8
0
370
     9
100
AcDbCircle
 10
4436.761898348199
 20
-811.5384981060906
 30
0.0
 40
2.5
  0
CIRCLE
  5
27E03
330
18
100
AcDbEntity
  8
0
370
    20
100
AcDbCircle
 10
4436.761898348199
 20
-811.5384981060906
 30
0.0
 40
2.0
  0
LINE
  5
27E04
330
18
100
AcDbEntity
  8
0
  6
CENTER
 62
     1
 48
0.3
370
    13
100
AcDbLine
 10
4436.761898348199
 20
-816.9352692111893
 30
0.0
 11
4436.761898348199
 21
-806.3077867837382
 31
0.0
  0
LINE
  5
27E05
330
18
100
AcDbEntity
  8
0
  6
CENTER
 62
     1
 48
0.3
370
    13
100
AcDbLine
 10
4372.761898348199
 20
-816.9352692111893
 30
0.0
 11
4372.761898348199
 21
-806.3077867837382
 31
0.0
  0
CIRCLE
  5
27E06
330
18
100
AcDbEntity
  8
0
370
    20
100
AcDbCircle
 10
4372.761898348199
 20
-811.5384981060906
 30
0.0
 40
2.0
  0
CIRCLE
  5
27E07
330
18
100
AcDbEntity
  8
0
370
     9
100
AcDbCircle
 10
4372.761898348199
 20
-811.5384981060906
 30
0.0
 40
2.5
  0
LINE
  5
27E08
330
18
100
AcDbEntity
  8
0
  6
CENTER
 62
     1
 48
0.3
370
    13
100
AcDbLine
 10
4367.655600747343
 20
-811.5384981060906
 30
0.0
 11
4377.924003746949
 21
-811.5384981060906
 31
0.0
  0
LINE
  5
27E09
330
18
100
AcDbEntity
  8
0
  6
CENTER
 62
     1
 48
0.3
370
    13
100
AcDbLine
 10
4431.655600747343
 20
-811.5384981060906
 30
0.0
 11
4441.924003746949
 21
-811.5384981060906
 31
0.0
  0
LINE
  5
27E0A
330
18
100
AcDbEntity
  8
0
  6
CENTER
 62
     1
 48
0.3
370
    13
100
AcDbLine
 10
4367.676656963974
 20
-696.5384981060906
 30
0.0
 11
4377.644943001054
 21
-696.5384981060906
 31
0.0
  0
LINE
  5
27E0B
330
18
100
AcDbEntity
  8
0
  6
CENTER
 62
     1
 48
0.3
370
    13
100
AcDbLine
 10
4372.761898348199
 20
-701.2095936395034
 30
0.0
 11
4372.761898348199
 21
-692.0419965568198
 31
0.0
  0
CIRCLE
  5
27E0C
330
18
100
AcDbEntity
  8
0
370
    20
100
AcDbCircle
 10
4372.761898348199
 20
-696.5384981060906
 30
0.0
 40
2.0
  0
CIRCLE
  5
27E0D
330
18
100
AcDbEntity
  8
0
370
     9
100
AcDbCircle
 10
4372.761898348199
 20
-696.5384981060906
 30
0.0
 40
2.5
  0
CIRCLE
  5
27E0E
330
18
100
AcDbEntity
  8
0
370
     9
100
AcDbCircle
 10
4436.761898348199
 20
-696.5384981060906
 30
0.0
 40
2.5
  0
CIRCLE
  5
27E0F
330
18
100
AcDbEntity
  8
0
370
    20
100
AcDbCircle
 10
4436.761898348199
 20
-696.5384981060906
 30
0.0
 40
2.0
  0
LINE
  5
27E10
330
18
100
AcDbEntity
  8
0
  6
CENTER
 62
     1
 48
0.3
370
    13
100
AcDbLine
 10
4436.761898348199
 20
-701.2095936395034
 30
0.0
 11
4436.761898348199
 21
-692.0419965568198
 31
0.0
  0
LINE
  5
27E11
330
18
100
AcDbEntity
  8
0
  6
CENTER
 62
     1
 48
0.3
370
    13
100
AcDbLine
 10
4431.676656963974
 20
-696.5384981060906
 30
0.0
 11
4441.644943001054
 21
-696.5384981060906
 31
0.0
  0
CIRCLE
  5
27E12
330
18
100
AcDbEntity
  8
0
370
     9
100
AcDbCircle
 10
4564.761898348199
 20
-811.5384981060906
 30
0.0
 40
2.5
  0
CIRCLE
  5
27E13
330
18
100
AcDbEntity
  8
0
370
    20
100
AcDbCircle
 10
4564.761898348199
 20
-811.5384981060906
 30
0.0
 40
2.0
  0
LINE
  5
27E14
330
18
100
AcDbEntity
  8
0
  6
CENTER
 62
     1
 48
0.3
370
    13
100
AcDbLine
 10
4564.761898348199
 20
-816.9352692111893
 30
0.0
 11
4564.761898348199
 21
-806.3077867837382
 31
0.0
  0
LINE
  5
27E15
330
18
100
AcDbEntity
  8
0
  6
CENTER
 62
     1
 48
0.3
370
    13
100
AcDbLine
 10
4500.761898348199
 20
-816.9352692111893
 30
0.0
 11
4500.761898348199
 21
-806.3077867837382
 31
0.0
  0
CIRCLE
  5
27E16
330
18
100
AcDbEntity
  8
0
370
    20
100
AcDbCircle
 10
4500.761898348199
 20
-811.5384981060906
 30
0.0
 40
2.0
  0
CIRCLE
  5
27E17
330
18
100
AcDbEntity
  8
0
370
     9
100
AcDbCircle
 10
4500.761898348199
 20
-811.5384981060906
 30
0.0
 40
2.5
  0
LINE
  5
27E18
330
18
100
AcDbEntity
  8
0
  6
CENTER
 62
     1
 48
0.3
370
    13
100
AcDbLine
 10
4495.655600747343
 20
-811.5384981060906
 30
0.0
 11
4505.924003746949
 21
-811.5384981060906
 31
0.0
  0
LINE
  5
27E19
330
18
100
AcDbEntity
  8
0
  6
CENTER
 62
     1
 48
0.3
370
    13
100
AcDbLine
 10
4559.655600747343
 20
-811.5384981060906
 30
0.0
 11
4569.924003746949
 21
-811.5384981060906
 31
0.0
  0
LINE
  5
27E1A
330
18
100
AcDbEntity
  8
0
  6
CENTER
 62
     1
 48
0.3
370
    13
100
AcDbLine
 10
4495.676656963974
 20
-696.5384981060906
 30
0.0
 11
4505.644943001054
 21
-696.5384981060906
 31
0.0
  0
LINE
  5
27E1B
330
18
100
AcDbEntity
  8
0
  6
CENTER
 62
     1
 48
0.3
370
    13
100
AcDbLine
 10
4500.761898348199
 20
-701.2095936395034
 30
0.0
 11
4500.761898348199
 21
-692.0419965568198
 31
0.0
  0
CIRCLE
  5
27E1C
330
18
100
AcDbEntity
  8
0
370
    20
100
AcDbCircle
 10
4500.761898348199
 20
-696.5384981060906
 30
0.0
 40
2.0
  0
CIRCLE
  5
27E1D
330
18
100
AcDbEntity
  8
0
370
     9
100
AcDbCircle
 10
4500.761898348199
 20
-696.5384981060906
 30
0.0
 40
2.5
  0
CIRCLE
  5
27E1E
330
18
100
AcDbEntity
  8
0
370
     9
100
AcDbCircle
 10
4564.761898348199
 20
-696.5384981060906
 30
0.0
 40
2.5
  0
CIRCLE
  5
27E1F
330
18
100
AcDbEntity
  8
0
370
    20
100
AcDbCircle
 10
4564.761898348199
 20
-696.5384981060906
 30
0.0
 40
2.0
  0
LINE
  5
27E20
330
18
100
AcDbEntity
  8
0
  6
CENTER
 62
     1
 48
0.3
370
    13
100
AcDbLine
 10
4564.761898348199
 20
-701.2095936395034
 30
0.0
 11
4564.761898348199
 21
-692.0419965568198
 31
0.0
  0
LINE
  5
27E21
330
18
100
AcDbEntity
  8
0
  6
CENTER
 62
     1
 48
0.3
370
    13
100
AcDbLine
 10
4559.676656963974
 20
-696.5384981060906
 30
0.0
 11
4569.644943001054
 21
-696.5384981060906
 31
0.0
  0
LINE
  5
27F52
330
18
100
AcDbEntity
  8
0
 62
     4
370
    13
100
AcDbLine
 10
4835.071340644272
 20
-659.2334549621646
 30
0.0
 11
4844.871340644273
 21
-659.2334549621646
 31
0.0
  0
LINE
  5
27FC4
330
18
100
AcDbEntity
  8
0
  6
CENTER
 62
     1
 48
0.6
370
    13
100
AcDbLine
 10
4802.870681616715
 20
-802.0362086454991
 30
0.0
 11
4788.871390401241
 21
-802.0362086454991
 31
0.0
  0
LINE
  5
27FC5
330
18
100
AcDbEntity
  8
0
  6
CENTER
 62
     1
 48
0.6
370
    13
100
AcDbLine
 10
4802.870681616715
 20
-778.036208645499
 30
0.0
 11
4788.871390401241
 21
-778.036208645499
 31
0.0
  0
CIRCLE
  5
27FC7
330
18
100
AcDbEntity
  8
0
370
     9
100
AcDbCircle
 10
4796.870681616715
 20
-778.036208645499
 30
0.0
 40
2.0
  0
CIRCLE
  5
27FC8
330
18
100
AcDbEntity
  8
0
370
    20
100
AcDbCircle
 10
4796.870681616715
 20
-778.036208645499
 30
0.0
 40
1.6
  0
CIRCLE
  5
27FC9
330
18
100
AcDbEntity
  8
0
370
     9
100
AcDbCircle
 10
4796.870456944147
 20
-802.0362086454991
 30
0.0
 40
2.0
  0
CIRCLE
  5
27FCA
330
18
100
AcDbEntity
  8
0
370
    20
100
AcDbCircle
 10
4796.870456944147
 20
-802.0362086454991
 30
0.0
 40
1.6
  0
DIMENSION
  5
27FCB
330
18
100
AcDbEntity
  8
0
370
    13
100
AcDbDimension
  2
*D57
 10
4764.092558185863
 20
-802.0362086454991
 30
0.0
 11
4759.092558185862
 21
-810.5362086454984
 31
0.0
 70
    32
 71
     5
 42
16.99999999999988
  3
まこ
100
AcDbAlignedDimension
 13
4788.871390401241
 23
-819.0362086454991
 33
0.0
 14
4788.871390401241
 24
-802.0362086454991
 34
0.0
 50
90.0
100
AcDbRotatedDimension
  0
DIMENSION
  5
27FD8
330
18
100
AcDbEntity
  8
0
370
    13
100
AcDbDimension
  2
*D58
 10
4764.092558185863
 20
-778.036208645499
 30
0.0
 11
4759.092558185862
 21
-790.0362086454984
 31
0.0
 70
    32
 71
     5
 42
24.00000000000011
  3
まこ
100
AcDbAlignedDimension
 13
4788.871390401241
 23
-802.0362086454991
 33
0.0
 14
4788.871390401241
 24
-778.036208645499
 34
0.0
 50
90.0
100
AcDbRotatedDimension
1001
ACAD
1000
DSTYLE
1002
{
1070
   271
1070
     6
1070
   279
1070
     1
1002
}
  0
DIMENSION
  5
27FF7
330
18
100
AcDbEntity
  8
0
370
    13
100
AcDbDimension
  2
*D59
 10
4796.871390395039
 20
-841.952666344644
 30
0.0
 11
4792.871390399005
 21
-836.9526663446441
 31
0.0
 70
    32
 71
     5
 42
7.999999992070115
  3
まこ
100
AcDbAlignedDimension
 13
4788.871390402969
 23
-819.0362086454991
 33
0.0
 14
4796.871390395039
 24
-819.0358497658998
 34
0.0
100
AcDbRotatedDimension
  0
LINE
  5
28005
330
18
100
AcDbEntity
  8
0
 62
     4
370
    13
100
AcDbLine
 10
4788.871390401241
 20
-841.952666344644
 30
0.0
 11
4796.870310210572
 21
-841.952666344644
 31
0.0
  0
LEADER
  5
28011
330
18
100
AcDbEntity
  8
0
370
    30
100
AcDbLeader
  3
まこ
 73
     0
 75
     1
 40
21.75126903553299
 41
92.01776649746191
 76
     3
 10
4795.625400695004
 20
-803.6014035012494
 30
0.0
 10
4773.654759782224
 20
-854.2370569661889
 30
0.0
 10
4767.404759782224
 20
-854.2370569661889
 30
0.0
340
28012
213
-1.315297508870571
223
-0.6766944839700955
233
0.0
1001
ACAD
1000
DSTYLE
1002
{
1070
   147
1040
0.5
1070
    77
1070
     1
1002
}
  0
MTEXT
  5
28012
102
{ACAD_REACTORS
330
28011
102
}
330
18
100
AcDbEntity
  8
0
370
    13
100
AcDbMText
 10
4767.470057291094
 20
-852.3103624822187
 30
0.0
 40
7.5
 41
0.0
 71
     9
 72
     1
  1
\A1;2-M4ネジ深10\Pｵﾌﾟｼｮﾝ磁極ｾﾝｻ取付用
  7
まこ
 73
     1
 44
1.0
  0
LINE
  5
28029
330
18
100
AcDbEntity
  8
0
  6
CENTER
 62
     1
 48
0.6
370
    13
100
AcDbLine
 10
4600.761980389338
 20
-778.036208645499
 30
0.0
 11
4586.762689173864
 21
-778.036208645499
 31
0.0
  0
LINE
  5
2802A
330
18
100
AcDbEntity
  8
0
  6
CENTER
 62
     1
 48
0.6
370
    13
100
AcDbLine
 10
4600.761980389338
 20
-802.0362086454991
 30
0.0
 11
4586.762689173864
 21
-802.0362086454991
 31
0.0
  0
LINE
  5
2826D
330
18
100
AcDbEntity
  8
0
  6
CENTER
 62
     1
 48
0.3
370
    13
100
AcDbLine
 10
4796.871390395039
 20
-819.0358497658998
 30
0.0
 11
4796.870681610513
 21
-768.8306383603321
 31
0.0
  0
LWPOLYLINE
  5
282D1
102
{ACAD_REACTORS
330
282DC
102
}
330
18
100
AcDbEntity
  8
0
  6
HIDDEN
 48
0.6
370
    13
100
AcDbPolyline
 90
        5
 70
     0
 43
0.0
 10
3987.910836153018
 20
-814.9626647812445
 10
3987.910836153018
 20
-692.9626647812445
 10
3999.910836153017
 20
-692.9626647812445
 10
3999.910836153017
 20
-814.9626647812445
 10
3987.910836153018
 20
-814.9626647812445
  0
LINE
  5
282D2
102
{ACAD_REACTORS
330
282DC
102
}
330
18
100
AcDbEntity
  8
0
 48
0.3
370
    50
100
AcDbLine
 10
4001.410127368491
 20
-707.036208645499
 30
0.0
 11
4001.410127368491
 21
-801.0361647812445
 31
0.0
  0
LINE
  5
282D3
102
{ACAD_REACTORS
330
282DC
102
}
330
18
100
AcDbEntity
  8
0
 48
0.3
370
    50
100
AcDbLine
 10
3961.910127368491
 20
-689.0361647812444
 30
0.0
 11
3961.910127368491
 21
-819.0361647812444
 31
0.0
  0
CIRCLE
  5
282D4
102
{ACAD_REACTORS
330
282DC
102
}
330
18
100
AcDbEntity
  8
0
  6
HIDDEN
 48
0.6
370
    13
100
AcDbCircle
 10
3993.911207559159
 20
-808.9467918200732
 30
0.0
 40
4.0
  0
LINE
  5
282D5
102
{ACAD_REACTORS
330
282DC
102
}
330
18
100
AcDbEntity
  8
0
 48
0.3
370
    50
100
AcDbLine
 10
4001.910127368492
 20
-819.0361647812444
 30
0.0
 11
4001.910836153018
 21
-801.0361647812445
 31
0.0
  0
LINE
  5
282D6
102
{ACAD_REACTORS
330
282DC
102
}
330
18
100
AcDbEntity
  8
0
 48
0.3
370
    50
100
AcDbLine
 10
3961.910127368491
 20
-819.0361647812444
 30
0.0
 11
4001.910127368492
 21
-819.0361647812444
 31
0.0
  0
LINE
  5
282D7
102
{ACAD_REACTORS
330
282DC
102
}
330
18
100
AcDbEntity
  8
0
 48
0.3
370
    50
100
AcDbLine
 10
4001.409995711796
 20
-801.0361647812445
 30
0.0
 11
4001.910836153018
 21
-801.0361647812445
 31
0.0
  0
CIRCLE
  5
282D8
102
{ACAD_REACTORS
330
282DC
102
}
330
18
100
AcDbEntity
  8
0
  6
HIDDEN
 48
0.6
370
    13
100
AcDbCircle
 10
3993.911207559161
 20
-698.9467918200728
 30
0.0
 40
4.0
  0
LINE
  5
282D9
102
{ACAD_REACTORS
330
282DC
102
}
330
18
100
AcDbEntity
  8
0
 48
0.3
370
    50
100
AcDbLine
 10
4001.910127368492
 20
-689.0361647812445
 30
0.0
 11
3961.910127368491
 21
-689.0361647812445
 31
0.0
  0
LINE
  5
282DA
102
{ACAD_REACTORS
330
282DC
102
}
330
18
100
AcDbEntity
  8
0
 48
0.3
370
    50
100
AcDbLine
 10
4001.910127368492
 20
-707.0361647812444
 30
0.0
 11
4001.410127368491
 21
-707.0361647812444
 31
0.0
  0
LINE
  5
282DB
102
{ACAD_REACTORS
330
282DC
102
}
330
18
100
AcDbEntity
  8
0
 48
0.3
370
    50
100
AcDbLine
 10
4001.910127368492
 20
-707.0361647812444
 30
0.0
 11
4001.910127368492
 21
-689.0361647812444
 31
0.0
  0
LINE
  5
282DD
330
18
100
AcDbEntity
  8
0
  6
PHANTOM
 48
0.75
370
     5
100
AcDbLine
 10
3955.710127368492
 20
-689.0385198321478
 30
0.0
 11
3947.910127368492
 21
-689.0385198321478
 31
0.0
  0
LINE
  5
282DE
330
18
100
AcDbEntity
  8
0
  6
PHANTOM
 48
0.75
370
     5
100
AcDbLine
 10
3947.910127368492
 20
-689.0385198321478
 30
0.0
 11
3947.910127368492
 21
-819.0385198321482
 31
0.0
  0
LINE
  5
282DF
330
18
100
AcDbEntity
  8
0
  6
PHANTOM
 48
0.75
370
     5
100
AcDbLine
 10
3947.910127368492
 20
-819.0385198321482
 30
0.0
 11
3955.710127368492
 21
-819.0385198321482
 31
0.0
  0
LINE
  5
282E0
330
18
100
AcDbEntity
  8
0
  6
PHANTOM
 48
0.75
370
     5
100
AcDbLine
 10
3955.710127368492
 20
-819.0385198321482
 30
0.0
 11
3955.710127368492
 21
-689.0385198321478
 31
0.0
  0
LINE
  5
282FA
330
18
100
AcDbEntity
  8
隠れ線
  6
HIDDEN
 48
0.75
370
     5
100
AcDbLine
 10
4842.871390401241
 20
-808.4353647812443
 30
0.0
 11
4835.071390401241
 21
-808.4353647812443
 31
0.0
  0
LINE
  5
282FB
330
18
100
AcDbEntity
  8
隠れ線
  6
HIDDEN
 48
0.75
370
     5
100
AcDbLine
 10
4842.871390401241
 20
-814.4353647812442
 30
0.0
 11
4835.071390401241
 21
-814.4353647812442
 31
0.0
  0
LINE
  5
282FC
330
18
100
AcDbEntity
  8
隠れ線
  6
HIDDEN
 48
0.75
370
     5
100
AcDbLine
 10
4842.871390401241
 20
-693.4353647812443
 30
0.0
 11
4835.071390401241
 21
-693.4353647812443
 31
0.0
  0
LINE
  5
282FD
330
18
100
AcDbEntity
  8
隠れ線
  6
HIDDEN
 48
0.75
370
     5
100
AcDbLine
 10
4842.871390401241
 20
-699.4353647812443
 30
0.0
 11
4835.071390401241
 21
-699.4353647812443
 31
0.0
  0
LINE
  5
283AA
330
18
100
AcDbEntity
  8
隠れ線
  6
HIDDEN
 48
0.75
370
     5
100
AcDbLine
 10
3947.910127368492
 20
-808.4376981060904
 30
0.0
 11
3955.710127368492
 21
-808.4376981060904
 31
0.0
  0
LINE
  5
283AB
330
18
100
AcDbEntity
  8
隠れ線
  6
HIDDEN
 48
0.75
370
     5
100
AcDbLine
 10
3947.910127368492
 20
-814.4376981060903
 30
0.0
 11
3955.710127368492
 21
-814.4376981060903
 31
0.0
  0
LINE
  5
283AC
330
18
100
AcDbEntity
  8
隠れ線
  6
HIDDEN
 48
0.75
370
     5
100
AcDbLine
 10
3947.910127368492
 20
-693.4376981060904
 30
0.0
 11
3955.710127368492
 21
-693.4376981060904
 31
0.0
  0
LINE
  5
283AD
330
18
100
AcDbEntity
  8
隠れ線
  6
HIDDEN
 48
0.75
370
     5
100
AcDbLine
 10
3947.910127368492
 20
-699.4376981060904
 30
0.0
 11
3955.710127368492
 21
-699.4376981060904
 31
0.0
  0
TEXT
  5
28403
330
18
100
AcDbEntity
  8
文字
370
    13
100
AcDbText
 10
4886.295164060679
 20
-613.1269219609805
 30
0.0
 40
7.5
  1
注：1
 41
0.6
  7
ｽﾀｲﾙ3
100
AcDbText
  0
TEXT
  5
28407
330
18
100
AcDbEntity
  8
文字
370
    13
100
AcDbText
 10
4883.580052386571
 20
-639.7473286111874
 30
0.0
 40
7.5
  1
注：1
 41
0.6
  7
ｽﾀｲﾙ3
100
AcDbText
  0
LINE
  5
2853F
102
{ACAD_REACTORS
330
28579
102
}
330
18
100
AcDbEntity
  8
0
100
AcDbLine
 10
4679.83543780822
 20
-824.0384981060906
 30
0.0
 11
4679.83543780822
 21
-802.0384981060907
 31
0.0
  0
LINE
  5
28540
102
{ACAD_REACTORS
330
28579
102
}
330
18
100
AcDbEntity
  8
0
  6
CENTER
 62
     1
 48
0.45
370
    13
100
AcDbLine
 10
4590.63047083317
 20
-813.0384981060906
 30
0.0
 11
4658.792380676648
 21
-813.0384981060906
 31
0.0
  0
LINE
  5
28541
102
{ACAD_REACTORS
330
28579
102
}
330
18
100
AcDbEntity
  8
0
370
    50
100
AcDbLine
 10
4638.272894955499
 20
-816.7884981060906
 30
0.0
 11
4614.761898348199
 21
-816.7884981060906
 31
0.0
  0
LINE
  5
28542
102
{ACAD_REACTORS
330
28579
102
}
330
18
100
AcDbEntity
  8
0
370
    50
100
AcDbLine
 10
4614.761898348199
 20
-809.2884981060906
 30
0.0
 11
4640.606739444322
 21
-809.288498106091
 31
0.0
  0
LINE
  5
28543
102
{ACAD_REACTORS
330
28579
102
}
330
18
100
AcDbEntity
  8
0
370
    50
100
AcDbLine
 10
4614.761898348199
 20
-816.7772069805163
 30
0.0
 11
4614.761898348199
 21
-809.2997892316647
 31
0.0
  0
LINE
  5
28544
102
{ACAD_REACTORS
330
28579
102
}
330
18
100
AcDbEntity
  8
0
370
    50
100
AcDbLine
 10
4614.761898348199
 20
-808.5384981060906
 30
0.0
 11
4614.761898348199
 21
-817.5384981060906
 31
0.0
  0
LINE
  5
28545
102
{ACAD_REACTORS
330
28579
102
}
330
18
100
AcDbEntity
  8
0
 48
10.0
370
    50
100
AcDbLine
 10
4594.761898348198
 20
-808.5384981060906
 30
0.0
 11
4594.761898348198
 21
-817.5384981060906
 31
0.0
  0
LINE
  5
28546
102
{ACAD_REACTORS
330
28579
102
}
330
18
100
AcDbEntity
  8
0
 48
10.0
370
    50
100
AcDbLine
 10
4594.761898348198
 20
-808.5384981060906
 30
0.0
 11
4614.761898348199
 21
-808.5384981060906
 31
0.0
  0
LINE
  5
28547
102
{ACAD_REACTORS
330
28579
102
}
330
18
100
AcDbEntity
  8
0
 48
10.0
370
    50
100
AcDbLine
 10
4614.761898348199
 20
-817.5384981060906
 30
0.0
 11
4594.761898348198
 21
-817.5384981060906
 31
0.0
  0
LINE
  5
28548
102
{ACAD_REACTORS
330
28579
102
}
330
18
100
AcDbEntity
  8
0
100
AcDbLine
 10
4703.83543780822
 20
-824.0384981060906
 30
0.0
 11
4679.83543780822
 21
-824.0384981060906
 31
0.0
  0
LINE
  5
28549
102
{ACAD_REACTORS
330
28579
102
}
330
18
100
AcDbEntity
  8
0
100
AcDbLine
 10
4704.83543780822
 20
-827.7884981060905
 30
0.0
 11
4717.83543780822
 21
-827.7884981060905
 31
0.0
  0
LINE
  5
2854A
102
{ACAD_REACTORS
330
28579
102
}
330
18
100
AcDbEntity
  8
0
100
AcDbLine
 10
4704.83543780822
 20
-823.5384981060906
 30
0.0
 11
4717.83543780822
 21
-823.5384981060906
 31
0.0
  0
LINE
  5
2854B
102
{ACAD_REACTORS
330
28579
102
}
330
18
100
AcDbEntity
  8
0
100
AcDbLine
 10
4703.83543780822
 20
-824.0384981060906
 30
0.0
 11
4704.83543780822
 21
-823.5384981060906
 31
0.0
  0
LINE
  5
2854C
102
{ACAD_REACTORS
330
28579
102
}
330
18
100
AcDbEntity
  8
0
100
AcDbLine
 10
4704.83543780822
 20
-827.7884981060905
 30
0.0
 11
4703.83543780822
 21
-824.0384981060906
 31
0.0
  0
LINE
  5
2854D
102
{ACAD_REACTORS
330
28579
102
}
330
18
100
AcDbEntity
  8
0
100
AcDbLine
 10
4704.83543780822
 20
-827.7884981060905
 30
0.0
 11
4704.83543780822
 21
-823.5384981060906
 31
0.0
  0
LWPOLYLINE
  5
2854E
102
{ACAD_REACTORS
330
28579
102
}
330
18
100
AcDbEntity
  8
0
100
AcDbPolyline
 90
        4
 70
     1
 43
0.0
 10
4697.457412185336
 20
-804.2884981060906
 10
4687.457412185336
 20
-804.2884981060906
 10
4687.457412185336
 20
-821.7884981060906
 10
4697.457412185336
 20
-821.7884981060906
  0
TEXT
  5
2854F
102
{ACAD_REACTORS
330
28579
102
}
330
18
100
AcDbEntity
  8
FRAME020
  6
Continuous
100
AcDbText
 10
4688.141491441209
 20
-807.4133339347755
 30
0.0
 40
2.799999999999999
  1
0-5200
 50
270.0
100
AcDbText
  0
LINE
  5
28550
102
{ACAD_REACTORS
330
28579
102
}
330
18
100
AcDbEntity
  8
0
100
AcDbLine
 10
4657.93543780822
 20
-811.0384981060906
 30
0.0
 11
4679.83543780822
 21
-807.3384981060899
 31
0.0
  0
LINE
  5
28551
102
{ACAD_REACTORS
330
28579
102
}
330
18
100
AcDbEntity
  8
0
100
AcDbLine
 10
4657.93543780822
 20
-813.4384981060902
 30
0.0
 11
4679.83543780822
 21
-809.7384981060914
 31
0.0
  0
LINE
  5
28552
102
{ACAD_REACTORS
330
28579
102
}
330
18
100
AcDbEntity
  8
0
100
AcDbLine
 10
4657.93543780822
 20
-813.0384981060906
 30
0.0
 11
4679.83543780822
 21
-809.3384981060898
 31
0.0
  0
LINE
  5
28553
102
{ACAD_REACTORS
330
28579
102
}
330
18
100
AcDbEntity
  8
0
100
AcDbLine
 10
4657.93543780822
 20
-815.4384981060902
 30
0.0
 11
4679.83543780822
 21
-811.7384981060913
 31
0.0
  0
LINE
  5
28554
102
{ACAD_REACTORS
330
28579
102
}
330
18
100
AcDbEntity
  8
0
100
AcDbLine
 10
4664.549531767952
 20
-814.3210484416613
 30
0.0
 11
4679.83543780822
 21
-816.9384981060902
 31
0.0
  0
LINE
  5
28555
102
{ACAD_REACTORS
330
28579
102
}
330
18
100
AcDbEntity
  8
0
100
AcDbLine
 10
4665.630032402815
 20
-814.1384981060909
 30
0.0
 11
4679.83543780822
 21
-816.5384981060906
 31
0.0
  0
LINE
  5
28556
102
{ACAD_REACTORS
330
28579
102
}
330
18
100
AcDbEntity
  8
基板
100
AcDbLine
 10
4657.935437808219
 20
-816.4239730161479
 30
0.0
 11
4657.935437808219
 21
-809.9239730161475
 31
0.0
  0
LINE
  5
28557
102
{ACAD_REACTORS
330
28579
102
}
330
18
100
AcDbEntity
  8
0
100
AcDbLine
 10
4657.93543780822
 20
-810.7884981060905
 30
0.0
 11
4658.670337137079
 21
-810.9143370322653
 31
0.0
  0
LINE
  5
28558
102
{ACAD_REACTORS
330
28579
102
}
330
18
100
AcDbEntity
  8
0
100
AcDbLine
 10
4657.93543780822
 20
-813.1884981060903
 30
0.0
 11
4658.670337137079
 21
-813.3143370322651
 31
0.0
  0
LINE
  5
28559
102
{ACAD_REACTORS
330
28579
102
}
330
18
100
AcDbEntity
  8
0
100
AcDbLine
 10
4658.527329700111
 20
-812.9384981060903
 30
0.0
 11
4659.711113483896
 21
-813.1384981060909
 31
0.0
  0
LINE
  5
2855A
102
{ACAD_REACTORS
330
28579
102
}
330
18
100
AcDbEntity
  8
0
100
AcDbLine
 10
4664.549531767952
 20
-811.9210484416617
 30
0.0
 11
4665.725370694127
 21
-812.1223907235398
 31
0.0
  0
LWPOLYLINE
  5
2855B
102
{ACAD_REACTORS
330
28579
102
}
330
18
100
AcDbEntity
  8
0
100
AcDbPolyline
 90
        4
 70
     1
 43
0.0
 10
4684.33543780822
 20
-805.2884981060906
 10
4679.83543780822
 20
-805.2884981060906
 10
4679.83543780822
 20
-809.7884981060905
 10
4684.33543780822
 20
-809.7884981060905
  0
LINE
  5
2855C
102
{ACAD_REACTORS
330
28579
102
}
330
18
100
AcDbEntity
  8
0
100
AcDbLine
 10
4671.604565324998
 20
-813.1291021329362
 30
0.0
 11
4679.83543780822
 21
-814.5384981060907
 31
0.0
  0
LINE
  5
2855D
102
{ACAD_REACTORS
330
28579
102
}
330
18
100
AcDbEntity
  8
0
370
    50
100
AcDbLine
 10
4657.935437808218
 20
-809.2884981060906
 30
0.0
 11
4657.935437808219
 21
-816.7884981060906
 31
0.0
  0
LINE
  5
2855E
102
{ACAD_REACTORS
330
28579
102
}
330
18
100
AcDbEntity
  8
0
370
    50
100
AcDbLine
 10
4657.935437808219
 20
-816.7884981060906
 30
0.0
 11
4642.966717704122
 21
-816.7884981060906
 31
0.0
  0
LINE
  5
2855F
102
{ACAD_REACTORS
330
28579
102
}
330
18
100
AcDbEntity
  8
0
370
    50
100
AcDbLine
 10
4645.300562192945
 20
-809.2884981060906
 30
0.0
 11
4657.935437808219
 21
-809.2884981060906
 31
0.0
  0
LWPOLYLINE
  5
28560
102
{ACAD_REACTORS
330
28579
102
}
330
18
100
AcDbEntity
  8
0
100
AcDbPolyline
 90
        4
 70
     1
 43
0.0
 10
4684.33543780822
 20
-816.2884981060907
 10
4679.83543780822
 20
-816.2884981060907
 10
4679.83543780822
 20
-820.7884981060907
 10
4684.33543780822
 20
-820.7884981060907
  0
LINE
  5
28561
102
{ACAD_REACTORS
330
28579
102
}
330
18
100
AcDbEntity
  8
0
100
AcDbLine
 10
4658.527329700111
 20
-815.3384981060899
 30
0.0
 11
4679.83543780822
 21
-818.9384981060902
 31
0.0
  0
LINE
  5
28562
102
{ACAD_REACTORS
330
28579
102
}
330
18
100
AcDbEntity
  8
0
370
    20
100
AcDbLine
 10
4679.83543780822
 20
-820.4134981060906
 30
0.0
 11
4679.83543780822
 21
-805.6634981060906
 31
0.0
  0
LINE
  5
28563
102
{ACAD_REACTORS
330
28579
102
}
330
18
100
AcDbEntity
  8
0
100
AcDbLine
 10
4704.83543780822
 20
-817.5384981060906
 30
0.0
 11
4717.83543780822
 21
-817.5384981060906
 31
0.0
  0
LINE
  5
28564
102
{ACAD_REACTORS
330
28579
102
}
330
18
100
AcDbEntity
  8
0
100
AcDbLine
 10
4704.83543780822
 20
-808.5384981060906
 30
0.0
 11
4717.83543780822
 21
-808.5384981060906
 31
0.0
  0
LINE
  5
28565
102
{ACAD_REACTORS
330
28579
102
}
330
18
100
AcDbEntity
  8
0
100
AcDbLine
 10
4704.83543780822
 20
-805.5384981060907
 30
0.0
 11
4717.83543780822
 21
-805.5384981060907
 31
0.0
  0
LINE
  5
28566
102
{ACAD_REACTORS
330
28579
102
}
330
18
100
AcDbEntity
  8
0
100
AcDbLine
 10
4704.83543780822
 20
-814.5384981060907
 30
0.0
 11
4717.83543780822
 21
-814.5384981060907
 31
0.0
  0
LINE
  5
28567
102
{ACAD_REACTORS
330
28579
102
}
330
18
100
AcDbEntity
  8
0
100
AcDbLine
 10
4704.83543780822
 20
-811.5384981060906
 30
0.0
 11
4717.83543780822
 21
-811.5384981060906
 31
0.0
  0
LINE
  5
28568
102
{ACAD_REACTORS
330
28579
102
}
330
18
100
AcDbEntity
  8
0
100
AcDbLine
 10
4704.83543780822
 20
-808.5384981060906
 30
0.0
 11
4704.83543780822
 21
-805.5384981060907
 31
0.0
  0
LINE
  5
28569
102
{ACAD_REACTORS
330
28579
102
}
330
18
100
AcDbEntity
  8
0
100
AcDbLine
 10
4704.83543780822
 20
-814.5384981060907
 30
0.0
 11
4704.83543780822
 21
-811.5384981060906
 31
0.0
  0
LINE
  5
2856A
102
{ACAD_REACTORS
330
28579
102
}
330
18
100
AcDbEntity
  8
0
100
AcDbLine
 10
4704.83543780822
 20
-820.5384981060905
 30
0.0
 11
4717.83543780822
 21
-820.5384981060905
 31
0.0
  0
LINE
  5
2856B
102
{ACAD_REACTORS
330
28579
102
}
330
18
100
AcDbEntity
  8
0
100
AcDbLine
 10
4704.83543780822
 20
-820.5384981060905
 30
0.0
 11
4704.83543780822
 21
-817.5384981060906
 31
0.0
  0
TEXT
  5
2856C
102
{ACAD_REACTORS
330
28579
102
}
330
18
100
AcDbEntity
  8
FRAME020
  6
Continuous
100
AcDbText
 10
4691.713955589148
 20
-806.6048437579684
 30
0.0
 40
4.0
  1
ＡＭＰ
 50
270.0
100
AcDbText
  0
LWPOLYLINE
  5
2856D
102
{ACAD_REACTORS
330
28579
102
}
330
18
100
AcDbEntity
  8
0
100
AcDbPolyline
 90
        4
 70
     1
 43
0.0
 10
4726.835437808221
 20
-827.7884981060905
 10
4721.83543780822
 20
-827.7884981060905
 10
4721.83543780822
 20
-798.2884981060906
 10
4726.835437808221
 20
-798.2884981060906
  0
LWPOLYLINE
  5
2856E
102
{ACAD_REACTORS
330
28579
102
}
330
18
100
AcDbEntity
  8
0
100
AcDbPolyline
 90
        4
 70
     1
 43
0.0
 10
4721.83543780822
 20
-829.8884981060909
 10
4717.83543780822
 20
-829.8884981060909
 10
4717.83543780822
 20
-796.1884981060903
 10
4721.83543780822
 20
-796.1884981060903
  0
LINE
  5
2856F
102
{ACAD_REACTORS
330
28579
102
}
330
18
100
AcDbEntity
  8
0
100
AcDbLine
 10
4703.83543780822
 20
-802.0384981060907
 30
0.0
 11
4679.83543780822
 21
-802.0384981060907
 31
0.0
  0
LINE
  5
28570
102
{ACAD_REACTORS
330
28579
102
}
330
18
100
AcDbEntity
  8
0
100
AcDbLine
 10
4704.83543780822
 20
-802.5384981060906
 30
0.0
 11
4717.83543780822
 21
-802.5384981060906
 31
0.0
  0
LINE
  5
28571
102
{ACAD_REACTORS
330
28579
102
}
330
18
100
AcDbEntity
  8
0
100
AcDbLine
 10
4717.83543780822
 20
-798.2884981060906
 30
0.0
 11
4704.83543780822
 21
-798.2884981060906
 31
0.0
  0
LINE
  5
28572
102
{ACAD_REACTORS
330
28579
102
}
330
18
100
AcDbEntity
  8
0
100
AcDbLine
 10
4704.83543780822
 20
-798.2884981060906
 30
0.0
 11
4703.83543780822
 21
-802.0384981060907
 31
0.0
  0
LINE
  5
28573
102
{ACAD_REACTORS
330
28579
102
}
330
18
100
AcDbEntity
  8
0
100
AcDbLine
 10
4703.83543780822
 20
-802.0384981060907
 30
0.0
 11
4704.83543780822
 21
-802.5384981060906
 31
0.0
  0
LINE
  5
28574
102
{ACAD_REACTORS
330
28579
102
}
330
18
100
AcDbEntity
  8
0
100
AcDbLine
 10
4704.83543780822
 20
-802.5384981060906
 30
0.0
 11
4704.83543780822
 21
-798.2884981060906
 31
0.0
  0
LINE
  5
28575
102
{ACAD_REACTORS
330
28579
102
}
330
18
100
AcDbEntity
  8
0
  6
CENTER
 62
     1
 48
0.45
370
    13
100
AcDbLine
 10
4643.566168900107
 20
-799.8180562176903
 30
0.0
 11
4634.972462583411
 21
-827.3514811946375
 31
0.0
  0
LINE
  5
28576
102
{ACAD_REACTORS
330
28579
102
}
330
18
100
AcDbEntity
  8
0
  6
CENTER
 62
     1
 48
0.45
370
    13
100
AcDbLine
 10
4648.259991648729
 20
-799.8180562176903
 30
0.0
 11
4639.666285332034
 21
-827.3514811946375
 31
0.0
  0
LINE
  5
285CE
102
{ACAD_REACTORS
330
28609
102
}
330
18
100
AcDbEntity
  8
0
  6
CENTER
 62
     1
 48
0.45
370
    13
100
AcDbLine
 10
4643.566168900107
 20
-936.6224265008741
 30
0.0
 11
4634.972462583411
 21
-964.1558514778212
 31
0.0
  0
LINE
  5
285CF
102
{ACAD_REACTORS
330
28609
102
}
330
18
100
AcDbEntity
  8
0
  6
CENTER
 62
     1
 48
0.45
370
    13
100
AcDbLine
 10
4590.63047083317
 20
-949.8428683892743
 30
0.0
 11
4658.792380676648
 21
-949.8428683892743
 31
0.0
  0
LINE
  5
285D0
102
{ACAD_REACTORS
330
28609
102
}
330
18
100
AcDbEntity
  8
0
  6
CENTER
 62
     1
 48
0.45
370
    13
100
AcDbLine
 10
4648.259991648729
 20
-936.6224265008741
 30
0.0
 11
4639.666285332034
 21
-964.1558514778212
 31
0.0
  0
LINE
  5
285D1
102
{ACAD_REACTORS
330
28609
102
}
330
18
100
AcDbEntity
  8
0
370
    50
100
AcDbLine
 10
4614.761898348199
 20
-945.3428683892743
 30
0.0
 11
4614.761898348199
 21
-954.3428683892743
 31
0.0
  0
LINE
  5
285D2
102
{ACAD_REACTORS
330
28609
102
}
330
18
100
AcDbEntity
  8
0
370
    50
100
AcDbLine
 10
4614.761898348199
 20
-953.5815772637002
 30
0.0
 11
4614.761898348199
 21
-946.1041595148484
 31
0.0
  0
LINE
  5
285D3
102
{ACAD_REACTORS
330
28609
102
}
330
18
100
AcDbEntity
  8
0
 48
10.0
370
    50
100
AcDbLine
 10
4614.761898348199
 20
-954.3428683892743
 30
0.0
 11
4594.761898348198
 21
-954.3428683892743
 31
0.0
  0
LINE
  5
285D4
102
{ACAD_REACTORS
330
28609
102
}
330
18
100
AcDbEntity
  8
0
370
    50
100
AcDbLine
 10
4638.272894955499
 20
-953.5928683892743
 30
0.0
 11
4614.761898348199
 21
-953.5928683892743
 31
0.0
  0
LINE
  5
285D5
102
{ACAD_REACTORS
330
28609
102
}
330
18
100
AcDbEntity
  8
0
 48
10.0
370
    50
100
AcDbLine
 10
4594.761898348198
 20
-945.3428683892743
 30
0.0
 11
4614.761898348199
 21
-945.3428683892743
 31
0.0
  0
LINE
  5
285D6
102
{ACAD_REACTORS
330
28609
102
}
330
18
100
AcDbEntity
  8
0
370
    50
100
AcDbLine
 10
4614.761898348199
 20
-946.0928683892744
 30
0.0
 11
4640.606739444322
 21
-946.0928683892747
 31
0.0
  0
LINE
  5
285D9
102
{ACAD_REACTORS
330
28609
102
}
330
18
100
AcDbEntity
  8
0
100
AcDbLine
 10
4657.93543780822
 20
-952.1073934792166
 30
0.0
 11
4679.83543780822
 21
-948.4073934792176
 31
0.0
  0
LINE
  5
285DA
102
{ACAD_REACTORS
330
28609
102
}
330
18
100
AcDbEntity
  8
0
100
AcDbLine
 10
4665.630032402815
 20
-950.8073934792173
 30
0.0
 11
4679.83543780822
 21
-953.2073934792169
 31
0.0
  0
LINE
  5
285DB
102
{ACAD_REACTORS
330
28609
102
}
330
18
100
AcDbEntity
  8
0
100
AcDbLine
 10
4664.549531767952
 20
-950.9899438147877
 30
0.0
 11
4679.83543780822
 21
-953.6073934792167
 31
0.0
  0
LINE
  5
285DC
102
{ACAD_REACTORS
330
28609
102
}
330
18
100
AcDbEntity
  8
基板
100
AcDbLine
 10
4657.935437808219
 20
-953.0928683892744
 30
0.0
 11
4657.935437808219
 21
-946.5928683892743
 31
0.0
  0
LINE
  5
285DD
102
{ACAD_REACTORS
330
28609
102
}
330
18
100
AcDbEntity
  8
0
370
    50
100
AcDbLine
 10
4657.935437808219
 20
-946.0928683892744
 30
0.0
 11
4657.935437808219
 21
-953.5928683892743
 31
0.0
  0
LINE
  5
285DE
102
{ACAD_REACTORS
330
28609
102
}
330
18
100
AcDbEntity
  8
0
370
    20
100
AcDbLine
 10
4679.83543780822
 20
-957.0823934792169
 30
0.0
 11
4679.83543780822
 21
-942.332393479217
 31
0.0
  0
LINE
  5
285DF
102
{ACAD_REACTORS
330
28609
102
}
330
18
100
AcDbEntity
  8
0
100
AcDbLine
 10
4679.83543780822
 20
-957.3323934792179
 30
0.0
 11
4679.83543780822
 21
-942.2073934792175
 31
0.0
  0
LINE
  5
285E0
102
{ACAD_REACTORS
330
28609
102
}
330
18
100
AcDbEntity
  8
0
100
AcDbLine
 10
4717.83543780822
 20
-963.0573934792177
 30
0.0
 11
4717.83543780822
 21
-936.3573934792166
 31
0.0
  0
LINE
  5
285E1
102
{ACAD_REACTORS
330
28609
102
}
330
18
100
AcDbEntity
  8
0
100
AcDbLine
 10
4726.835437808219
 20
-938.457393479217
 30
0.0
 11
4726.835437808221
 21
-960.9573934792175
 31
0.0
  0
LINE
  5
285E2
102
{ACAD_REACTORS
330
28609
102
}
330
18
100
AcDbEntity
  8
0
100
AcDbLine
 10
4721.83543780822
 20
-963.0573934792177
 30
0.0
 11
4721.83543780822
 21
-936.3573934792166
 31
0.0
  0
LINE
  5
285E3
102
{ACAD_REACTORS
330
28609
102
}
330
18
100
AcDbEntity
  8
0
100
AcDbLine
 10
4721.83543780822
 20
-936.3573934792166
 30
0.0
 11
4721.83543780822
 21
-963.0573934792177
 31
0.0
  0
LINE
  5
285E4
102
{ACAD_REACTORS
330
28609
102
}
330
18
100
AcDbEntity
  8
0
100
AcDbLine
 10
4703.83543780822
 20
-957.3323934792179
 30
0.0
 11
4679.83543780822
 21
-957.3323934792179
 31
0.0
  0
LINE
  5
285E5
102
{ACAD_REACTORS
330
28609
102
}
330
18
100
AcDbEntity
  8
0
100
AcDbLine
 10
4658.527329700111
 20
-952.0073934792163
 30
0.0
 11
4679.83543780822
 21
-955.6073934792166
 31
0.0
  0
LINE
  5
285E6
102
{ACAD_REACTORS
330
28609
102
}
330
18
100
AcDbEntity
  8
0
370
    50
100
AcDbLine
 10
4657.935437808219
 20
-953.5928683892743
 30
0.0
 11
4642.966717704122
 21
-953.5928683892743
 31
0.0
  0
LINE
  5
285E7
102
{ACAD_REACTORS
330
28609
102
}
330
18
100
AcDbEntity
  8
0
100
AcDbLine
 10
4721.83543780822
 20
-963.0573934792177
 30
0.0
 11
4717.83543780822
 21
-963.0573934792177
 31
0.0
  0
LINE
  5
285E8
102
{ACAD_REACTORS
330
28609
102
}
330
18
100
AcDbEntity
  8
0
100
AcDbLine
 10
4704.83543780822
 20
-954.2073934792169
 30
0.0
 11
4717.83543780822
 21
-954.2073934792169
 31
0.0
  0
LINE
  5
285E9
102
{ACAD_REACTORS
330
28609
102
}
330
18
100
AcDbEntity
  8
0
100
AcDbLine
 10
4704.83543780822
 20
-957.207393479217
 30
0.0
 11
4717.83543780822
 21
-957.207393479217
 31
0.0
  0
LINE
  5
285EA
102
{ACAD_REACTORS
330
28609
102
}
330
18
100
AcDbEntity
  8
0
100
AcDbLine
 10
4704.83543780822
 20
-960.2073934792169
 30
0.0
 11
4717.83543780822
 21
-960.2073934792169
 31
0.0
  0
LINE
  5
285EB
102
{ACAD_REACTORS
330
28609
102
}
330
18
100
AcDbEntity
  8
0
100
AcDbLine
 10
4704.83543780822
 20
-960.9573934792175
 30
0.0
 11
4717.83543780822
 21
-960.9573934792175
 31
0.0
  0
LINE
  5
285EC
102
{ACAD_REACTORS
330
28609
102
}
330
18
100
AcDbEntity
  8
0
100
AcDbLine
 10
4704.83543780822
 20
-957.207393479217
 30
0.0
 11
4704.83543780822
 21
-954.2073934792169
 31
0.0
  0
LINE
  5
285ED
102
{ACAD_REACTORS
330
28609
102
}
330
18
100
AcDbEntity
  8
0
100
AcDbLine
 10
4704.83543780822
 20
-960.9573934792175
 30
0.0
 11
4704.83543780822
 21
-956.7073934792174
 31
0.0
  0
LINE
  5
285EE
102
{ACAD_REACTORS
330
28609
102
}
330
18
100
AcDbEntity
  8
0
100
AcDbLine
 10
4704.83543780822
 20
-960.9573934792175
 30
0.0
 11
4703.83543780822
 21
-957.3323934792179
 31
0.0
  0
LINE
  5
285EF
102
{ACAD_REACTORS
330
28609
102
}
330
18
100
AcDbEntity
  8
0
100
AcDbLine
 10
4703.83543780822
 20
-957.3323934792179
 30
0.0
 11
4704.83543780822
 21
-956.7073934792174
 31
0.0
  0
LINE
  5
285F0
102
{ACAD_REACTORS
330
28609
102
}
330
18
100
AcDbEntity
  8
0
100
AcDbLine
 10
4726.835437808221
 20
-960.9573934792175
 30
0.0
 11
4721.83543780822
 21
-960.9573934792175
 31
0.0
  0
LINE
  5
285F1
102
{ACAD_REACTORS
330
28609
102
}
330
18
100
AcDbEntity
  8
0
100
AcDbLine
 10
4703.83543780822
 20
-942.2073934792175
 30
0.0
 11
4679.83543780822
 21
-942.2073934792175
 31
0.0
  0
LINE
  5
285F2
102
{ACAD_REACTORS
330
28609
102
}
330
18
100
AcDbEntity
  8
0
370
    50
100
AcDbLine
 10
4645.300562192945
 20
-946.0928683892744
 30
0.0
 11
4657.935437808219
 21
-946.0928683892744
 31
0.0
  0
LINE
  5
285F3
102
{ACAD_REACTORS
330
28609
102
}
330
18
100
AcDbEntity
  8
0
100
AcDbLine
 10
4657.93543780822
 20
-947.457393479217
 30
0.0
 11
4658.670337137079
 21
-947.5832324053918
 31
0.0
  0
LINE
  5
285F4
102
{ACAD_REACTORS
330
28609
102
}
330
18
100
AcDbEntity
  8
0
100
AcDbLine
 10
4657.93543780822
 20
-947.7073934792169
 30
0.0
 11
4679.83543780822
 21
-944.0073934792163
 31
0.0
  0
LINE
  5
285F5
102
{ACAD_REACTORS
330
28609
102
}
330
18
100
AcDbEntity
  8
0
100
AcDbLine
 10
4658.527329700111
 20
-949.6073934792166
 30
0.0
 11
4659.711113483896
 21
-949.8073934792174
 31
0.0
  0
LINE
  5
285F6
102
{ACAD_REACTORS
330
28609
102
}
330
18
100
AcDbEntity
  8
0
100
AcDbLine
 10
4657.93543780822
 20
-949.8573934792165
 30
0.0
 11
4658.670337137079
 21
-949.9832324053913
 31
0.0
  0
LINE
  5
285F7
102
{ACAD_REACTORS
330
28609
102
}
330
18
100
AcDbEntity
  8
0
100
AcDbLine
 10
4671.604565324998
 20
-949.7979975060625
 30
0.0
 11
4679.83543780822
 21
-951.2073934792169
 31
0.0
  0
LINE
  5
285F8
102
{ACAD_REACTORS
330
28609
102
}
330
18
100
AcDbEntity
  8
0
100
AcDbLine
 10
4664.549531767952
 20
-948.589943814788
 30
0.0
 11
4665.725370694127
 21
-948.7912860966662
 31
0.0
  0
LINE
  5
285F9
102
{ACAD_REACTORS
330
28609
102
}
330
18
100
AcDbEntity
  8
0
100
AcDbLine
 10
4657.93543780822
 20
-950.1073934792167
 30
0.0
 11
4679.83543780822
 21
-946.4073934792176
 31
0.0
  0
LINE
  5
285FA
102
{ACAD_REACTORS
330
28609
102
}
330
18
100
AcDbEntity
  8
0
100
AcDbLine
 10
4657.93543780822
 20
-949.7073934792169
 30
0.0
 11
4679.83543780822
 21
-946.0073934792163
 31
0.0
  0
LINE
  5
285FB
102
{ACAD_REACTORS
330
28609
102
}
330
18
100
AcDbEntity
  8
0
100
AcDbLine
 10
4717.83543780822
 20
-936.3573934792166
 30
0.0
 11
4721.83543780822
 21
-936.3573934792166
 31
0.0
  0
LINE
  5
285FC
102
{ACAD_REACTORS
330
28609
102
}
330
18
100
AcDbEntity
  8
0
100
AcDbLine
 10
4717.83543780822
 20
-938.457393479217
 30
0.0
 11
4704.83543780822
 21
-938.457393479217
 31
0.0
  0
LINE
  5
285FD
102
{ACAD_REACTORS
330
28609
102
}
330
18
100
AcDbEntity
  8
0
100
AcDbLine
 10
4704.83543780822
 20
-942.207393479217
 30
0.0
 11
4717.83543780822
 21
-942.207393479217
 31
0.0
  0
LINE
  5
285FE
102
{ACAD_REACTORS
330
28609
102
}
330
18
100
AcDbEntity
  8
0
100
AcDbLine
 10
4704.83543780822
 20
-939.207393479217
 30
0.0
 11
4717.83543780822
 21
-939.207393479217
 31
0.0
  0
LINE
  5
285FF
102
{ACAD_REACTORS
330
28609
102
}
330
18
100
AcDbEntity
  8
0
100
AcDbLine
 10
4704.83543780822
 20
-945.2073934792169
 30
0.0
 11
4717.83543780822
 21
-945.2073934792169
 31
0.0
  0
LINE
  5
28600
102
{ACAD_REACTORS
330
28609
102
}
330
18
100
AcDbEntity
  8
0
100
AcDbLine
 10
4704.83543780822
 20
-942.707393479217
 30
0.0
 11
4704.83543780822
 21
-938.457393479217
 31
0.0
  0
LINE
  5
28601
102
{ACAD_REACTORS
330
28609
102
}
330
18
100
AcDbEntity
  8
0
100
AcDbLine
 10
4703.83543780822
 20
-942.207393479217
 30
0.0
 11
4704.83543780822
 21
-942.707393479217
 31
0.0
  0
LINE
  5
28602
102
{ACAD_REACTORS
330
28609
102
}
330
18
100
AcDbEntity
  8
0
100
AcDbLine
 10
4704.83543780822
 20
-938.457393479217
 30
0.0
 11
4703.83543780822
 21
-942.207393479217
 31
0.0
  0
LINE
  5
28603
102
{ACAD_REACTORS
330
28609
102
}
330
18
100
AcDbEntity
  8
0
100
AcDbLine
 10
4704.83543780822
 20
-945.2073934792169
 30
0.0
 11
4704.83543780822
 21
-942.207393479217
 31
0.0
  0
LINE
  5
28604
102
{ACAD_REACTORS
330
28609
102
}
330
18
100
AcDbEntity
  8
0
100
AcDbLine
 10
4721.83543780822
 20
-938.457393479217
 30
0.0
 11
4726.835437808221
 21
-938.457393479217
 31
0.0
  0
LINE
  5
28605
102
{ACAD_REACTORS
330
28609
102
}
330
18
100
AcDbEntity
  8
0
100
AcDbLine
 10
4704.83543780822
 20
-948.207393479217
 30
0.0
 11
4717.83543780822
 21
-948.207393479217
 31
0.0
  0
LINE
  5
28606
102
{ACAD_REACTORS
330
28609
102
}
330
18
100
AcDbEntity
  8
0
100
AcDbLine
 10
4704.83543780822
 20
-951.2073934792169
 30
0.0
 11
4717.83543780822
 21
-951.2073934792169
 31
0.0
  0
LINE
  5
28607
102
{ACAD_REACTORS
330
28609
102
}
330
18
100
AcDbEntity
  8
0
100
AcDbLine
 10
4704.83543780822
 20
-951.2073934792169
 30
0.0
 11
4704.83543780822
 21
-948.207393479217
 31
0.0
  0
LINE
  5
28608
102
{ACAD_REACTORS
330
28609
102
}
330
18
100
AcDbEntity
  8
0
 48
10.0
370
    50
100
AcDbLine
 10
4594.761898348198
 20
-945.3428683892743
 30
0.0
 11
4594.761898348198
 21
-954.3428683892743
 31
0.0
  0
LINE
  5
28638
330
18
100
AcDbEntity
  8
細線
100
AcDbLine
 10
4811.523040830691
 20
-813.0361647812444
 30
0.0
 11
4812.510840840988
 21
-812.0483647709482
 31
0.0
  0
CIRCLE
  5
28639
330
18
100
AcDbEntity
  8
実線
370
    50
100
AcDbCircle
 10
4808.871390401241
 20
-812.9097592779123
 30
0.0
 40
3.74
  0
LINE
  5
2863A
330
18
100
AcDbEntity
  8
細線
100
AcDbLine
 10
4808.871390401241
 20
-813.0361647812444
 30
0.0
 11
4811.578417165995
 21
-810.3291380164902
 31
0.0
  0
LINE
  5
2863B
330
18
100
AcDbEntity
  8
0
  6
CENTER
 62
     1
 48
0.3
370
    13
100
AcDbLine
 10
4813.499110273279
 20
-813.0361647812444
 30
0.0
 11
4803.367048472764
 21
-813.0361647812444
 31
0.0
  0
LINE
  5
2863C
330
18
100
AcDbEntity
  8
細線
100
AcDbLine
 10
4805.536692343963
 20
-814.6030958855556
 30
0.0
 11
4807.103623448275
 21
-813.0361647812435
 31
0.0
  0
LINE
  5
2863D
330
18
100
AcDbEntity
  8
細線
100
AcDbLine
 10
4805.875332790567
 20
-815.1483389154348
 30
0.0
 11
4807.987506924758
 21
-813.0361647812444
 31
0.0
  0
LINE
  5
2863E
330
18
100
AcDbEntity
  8
細線
100
AcDbLine
 10
4806.290769139819
 20
-815.616786042667
 30
0.0
 11
4808.871390401241
 21
-813.0361647812444
 31
0.0
  0
LINE
  5
2863F
330
18
100
AcDbEntity
  8
細線
100
AcDbLine
 10
4806.780647943627
 20
-816.0107907153426
 30
0.0
 11
4808.871390401241
 21
-813.9200482577281
 31
0.0
  0
LINE
  5
28640
330
18
100
AcDbEntity
  8
0
  6
CENTER
 62
     1
 48
0.3
370
    13
100
AcDbLine
 10
4808.871390401241
 20
-807.9965923752718
 30
0.0
 11
4808.871390401241
 21
-817.4758694515597
 31
0.0
  0
LINE
  5
28641
330
18
100
AcDbEntity
  8
細線
100
AcDbLine
 10
4808.871390401241
 20
-810.3845143517943
 30
0.0
 11
4809.932468546216
 21
-809.3234362068189
 31
0.0
  0
LINE
  5
28642
330
18
100
AcDbEntity
  8
細線
100
AcDbLine
 10
4808.871390401241
 20
-811.2683978282777
 30
0.0
 11
4810.564727008884
 21
-809.5750612206341
 31
0.0
  0
LINE
  5
28643
330
18
100
AcDbEntity
  8
細線
100
AcDbLine
 10
4809.755273877724
 20
-813.0361647812444
 30
0.0
 11
4811.972421838671
 21
-810.8190168202979
 31
0.0
  0
LINE
  5
28644
330
18
100
AcDbEntity
  8
細線
100
AcDbLine
 10
4808.871390401241
 20
-812.1522813047615
 30
0.0
 11
4811.109970038764
 21
-809.9137016672395
 31
0.0
  0
LINE
  5
28645
330
18
100
AcDbEntity
  8
細線
100
AcDbLine
 10
4810.639157354209
 20
-813.0361647812444
 30
0.0
 11
4812.287652134787
 21
-811.3876700006647
 31
0.0
  0
VIEWPORT
  5
23
330
15
100
AcDbEntity
 67
     1
  8
0
100
AcDbViewport
 10
200.9504861100902
 20
143.9980279681828
 30
0.0
 40
580.6141596774835
 41
291.4659903371
 68
     1
 69
     1
 12
200.9504861100902
 22
143.9980279681828
 13
0.0
 23
0.0
 14
10.0
 24
10.0
 15
10.0
 25
10.0
 16
0.0
 26
0.0
 36
1.0
 17
0.0
 27
0.0
 37
0.0
 42
50.0
 43
0.0
 44
0.0
 45
291.4659903371
 50
0.0
 51
0.0
 72
   100
 90
    32768
  1

281
     0
 71
     1
 74
     0
110
0.0
120
0.0
130
0.0
111
1.0
121
0.0
131
0.0
112
0.0
122
1.0
132
0.0
 79
     0
146
0.0
  0
VIEWPORT
  5
2E
330
15
100
AcDbEntity
 67
     1
  8
M_VIEW
100
AcDbViewport
 10
200.0
 20
144.0
 30
0.0
 40
400.0
 41
288.0
 68
     2
 69
     2
 12
4432.983713522413
 22
-881.8326499689851
 13
0.0
 23
0.0
 14
10.0
 24
10.0
 15
10.0
 25
10.0
 16
0.0
 26
0.0
 36
1.0
 17
0.0
 27
0.0
 37
0.0
 42
50.0
 43
0.0
 44
0.0
 45
720.0000041188281
 50
0.0
 51
0.0
 72
   100
 90
    32768
  1

281
     0
 71
     1
 74
     0
110
0.0
120
0.0
130
0.0
111
1.0
121
0.0
131
0.0
112
0.0
122
1.0
132
0.0
 79
     0
146
0.0
  0
INSERT
  5
115F
330
15
100
AcDbEntity
 67
     1
  8
FRAME025
100
AcDbBlockReference
  2
機械A4横_LBP
 10
82.74908858651452
 20
152.030959079227
 30
0.0
  0
TEXT
  5
AA6A
330
15
100
AcDbEntity
 67
     1
  8
文字
  6
ByBlock
 62
     0
100
AcDbText
 10
32.81885892396519
 20
73.01882819621747
 30
0.0
 40
3.2
  1

 50
90.0
 41
0.625
  7
MSｺﾞｼｯｸ
100
AcDbText
  0
TEXT
  5
AA6C
330
15
100
AcDbEntity
 67
     1
  8
文字
  6
ByBlock
 62
     0
100
AcDbText
 10
37.25020936743055
 20
73.01882819621747
 30
0.0
 40
3.2
  1

 50
90.0
 41
0.625
  7
MSｺﾞｼｯｸ
100
AcDbText
  0
TEXT
  5
FCA5
330
15
100
AcDbEntity
 67
     1
  8
FRAME020
  6
Continuous
100
AcDbText
 10
126.6213117262079
 20
29.63926951973459
 30
0.0
 40
2.5
  1

 41
0.625
  7
MSｺﾞｼｯｸ
100
AcDbText
  0
TEXT
  5
12229
330
15
100
AcDbEntity
 67
     1
  8
0
100
AcDbText
 10
324.703280378293
 20
10.6316829925787
 30
0.0
 40
6.0
  1
ＳＥ－３８０１０Ｂ
 41
1.1
100
AcDbText
  0
MTEXT
  5
21047
330
15
100
AcDbEntity
 67
     1
  8
0
 48
10.0
100
AcDbMText
 10
327.7719738752167
 20
55.46212977036839
 30
0.0
 40
6.0
 41
50.05040000000001
 71
     1
 72
     5
  1
{\L質量：17.0kg}
 73
     1
 44
1.0
  0
LINE
  5
283E6
330
15
100
AcDbEntity
 67
     1
  8
細線
  6
Continuous
100
AcDbLine
 10
17.43438746271434
 20
30.34467421753243
 30
0.0
 11
107.7165685218278
 21
30.34467421753243
 31
0.0
  0
LINE
  5
283E7
330
15
100
AcDbEntity
 67
     1
  8
細線
  6
Continuous
100
AcDbLine
 10
17.43438746271434
 20
25.34467421753243
 30
0.0
 11
107.7165685218278
 21
25.34467421753243
 31
0.0
  0
TEXT
  5
283E8
330
15
100
AcDbEntity
 67
     1
  8
wakumoji
  6
Continuous
100
AcDbText
 10
19.53487108163415
 20
26.41713572360471
 30
0.0
 40
2.88
  1
  マグネットカバーを付けた場合は、マグネットベースの
 41
0.9
  7
まこ
100
AcDbText
  0
TEXT
  5
283E9
330
15
100
AcDbEntity
 67
     1
  8
wakumoji
  6
Continuous
100
AcDbText
 10
19.53487108163415
 20
21.41713572360471
 30
0.0
 40
2.88
  1
  全高は13mm、ギャップは1mmになります。
 41
0.9
  7
まこ
100
AcDbText
  0
LINE
  5
283EA
330
15
100
AcDbEntity
 67
     1
  8
細線
  6
Continuous
100
AcDbLine
 10
17.43438746271434
 20
20.34467421753242
 30
0.0
 11
107.7165685218278
 21
20.34467421753242
 31
0.0
  0
TEXT
  5
283EB
330
15
100
AcDbEntity
 67
     1
  8
wakumoji
  6
Continuous
100
AcDbText
 10
19.53487108163415
 20
31.41713572360471
 30
0.0
 40
2.88
  1
1.本図は、オプション（マグネットカバー）未装着です。
 41
0.9
  7
まこ
100
AcDbText
  0
LINE
  5
283EC
330
15
100
AcDbEntity
 67
     1
  8
細線
  6
Continuous
100
AcDbLine
 10
17.43438746271434
 20
35.7446742175324
 30
0.0
 11
33.13123620262848
 21
35.7446742175324
 31
0.0
  0
TEXT
  5
283ED
330
15
100
AcDbEntity
 67
     1
  8
wakumoji
  6
Continuous
100
AcDbText
 10
18.39326712426958
 20
37.16127201058196
 30
0.0
 40
2.88
  1
注　　記
  7
まこ
100
AcDbText
  0
MTEXT
  5
28662
330
15
100
AcDbEntity
 67
     1
  8
dimension
100
AcDbMText
 10
213.2796460489049
 20
27.68787502604255
 30
0.0
 40
6.0
 41
185.4933
 71
     1
 72
     5
  1
τﾘﾆｱﾓｰﾀ ｺｱ付N NLA-NA CLﾕﾆｯﾄ CLN1500MA (1500N)
  7
ｽﾀｲﾙ3
 73
     1
 44
1.0
1001
ACAD
1000
MTEXTBEGIN
1070
    73
1070
     1
1070
    44
1040
1.0
1070
    74
1070
     0
1000
MTEXTEND
  0
ENDSEC
  0
SECTION
  2
OBJECTS
  0
DICTIONARY
  5
C
330
0
100
AcDbDictionary
281
     1
  3
ACAD_GROUP
350
D
  3
ACAD_LAYOUT
350
DB2
  3
ACAD_MLINESTYLE
350
1B
  3
ACAD_PLOTSETTINGS
350
DB3
  3
ACAD_PLOTSTYLENAME
350
FB5B
  3
AcadDim
350
1B534
  3
AcDbVariableDictionary
350
106A6
  3
ASE_INDEX_DICTIONARY
350
1A99F
  3
DWGPROPS
350
15EC9
1001
ACAD
1000
TREAT_AS_HARD
1070
     0
  0
DICTIONARY
  5
283CC
330
2
100
AcDbDictionary
280
     1
281
     1
  3
ACAD_LAYERFILTERS
360
283CD
  3
ACAD_LAYERSTATES
360
283D9
  0
DICTIONARY
  5
EFC6
330
18
100
AcDbDictionary
280
     1
281
     1
  0
DICTIONARY
  5
EFC4
330
15
100
AcDbDictionary
280
     1
281
     1
  0
DICTIONARY
  5
D
102
{ACAD_REACTORS
330
C
102
}
330
C
100
AcDbDictionary
281
     1
  3
*A1
350
AC8A
  3
*A10
350
1D68E
  3
*A100
350
196C2
  3
*A101
350
26E60
  3
*A102
350
26C43
  3
*A103
350
1738A
  3
*A104
350
1F8F0
  3
*A105
350
2532B
  3
*A106
350
27CB5
  3
*A107
350
28579
  3
*A108
350
28609
  3
*A109
350
25331
  3
*A11
350
265CA
  3
*A110
350
19FAB
  3
*A111
350
1D710
  3
*A112
350
25385
  3
*A113
350
1F8F5
  3
*A114
350
26C53
  3
*A115
350
173BE
  3
*A116
350
25584
  3
*A117
350
16059
  3
*A118
350
1D670
  3
*A119
350
19F67
  3
*A12
350
20213
  3
*A120
350
2001C
  3
*A121
350
19F87
  3
*A122
350
1EB7D
  3
*A123
350
25585
  3
*A124
350
2531F
  3
*A125
350
26E24
  3
*A126
350
16069
  3
*A127
350
25307
  3
*A128
350
1D6DE
  3
*A129
350
1D706
  3
*A13
350
25301
  3
*A130
350
25586
  3
*A131
350
25E12
  3
*A132
350
25325
  3
*A133
350
1D698
  3
*A134
350
25590
  3
*A135
350
25343
  3
*A136
350
1D6CA
  3
*A137
350
265CE
  3
*A138
350
252DD
  3
*A139
350
25596
  3
*A14
350
2535B
  3
*A140
350
252EF
  3
*A141
350
1D6C0
  3
*A142
350
16058
  3
*A143
350
2559C
  3
*A144
350
1606B
  3
*A145
350
2022C
  3
*A146
350
26E61
  3
*A147
350
2559D
  3
*A148
350
259CF
  3
*A149
350
20022
  3
*A15
350
27CB8
  3
*A150
350
1EB7F
  3
*A151
350
1EB7E
  3
*A152
350
259D0
  3
*A153
350
25337
  3
*A154
350
19255
  3
*A155
350
ACA1
  3
*A156
350
259D1
  3
*A157
350
18FA8
  3
*A158
350
19AA4
  3
*A159
350
20025
  3
*A16
350
19787
  3
*A160
350
1F91D
  3
*A161
350
2629A
  3
*A162
350
20CA2
  3
*A163
350
262A0
  3
*A164
350
AC9A
  3
*A165
350
1D67A
  3
*A166
350
252F5
  3
*A167
350
265D2
  3
*A168
350
2732E
  3
*A169
350
26C78
  3
*A17
350
25397
  3
*A170
350
26E26
  3
*A171
350
20013
  3
*A172
350
25373
  3
*A173
350
2001F
  3
*A174
350
1D6AC
  3
*A175
350
ACBD
  3
*A176
350
25319
  3
*A177
350
2629D
  3
*A178
350
259D2
  3
*A179
350
173BF
  3
*A18
350
18F23
  3
*A180
350
25AC2
  3
*A181
350
25AC3
  3
*A182
350
19881
  3
*A183
350
106A5
  3
*A184
350
26E5E
  3
*A185
350
169DA
  3
*A186
350
20209
  3
*A187
350
1F90E
  3
*A188
350
1A695
  3
*A189
350
26C8B
  3
*A19
350
18FA7
  3
*A190
350
FB6B
  3
*A191
350
1EB7C
  3
*A192
350
26095
  3
*A193
350
2020E
  3
*A194
350
262A1
  3
*A195
350
1A09A
  3
*A196
350
19A52
  3
*A197
350
26B3D
  3
*A198
350
2533D
  3
*A199
350
20218
  3
*A2
350
265C7
  3
*A20
350
16068
  3
*A200
350
19861
  3
*A201
350
2530D
  3
*A202
350
2732F
  3
*A203
350
27330
  3
*A204
350
27CB6
  3
*A205
350
25355
  3
*A206
350
2536D
  3
*A207
350
25E10
  3
*A208
350
27331
  3
*A209
350
106C6
  3
*A21
350
265D0
  3
*A210
350
17901
  3
*A211
350
20227
  3
*A212
350
265CC
  3
*A213
350
25349
  3
*A214
350
27332
  3
*A215
350
2608F
  3
*A216
350
27CB7
  3
*A217
350
265D1
  3
*A218
350
25D0E
  3
*A219
350
27333
  3
*A22
350
26C06
  3
*A220
350
26094
  3
*A221
350
1F918
  3
*A222
350
1F904
  3
*A223
350
27334
  3
*A224
350
27335
  3
*A225
350
26096
  3
*A226
350
17B11
  3
*A227
350
18F20
  3
*A228
350
265CB
  3
*A229
350
2629F
  3
*A23
350
19988
  3
*A230
350
27336
  3
*A231
350
265C8
  3
*A232
350
2002B
  3
*A233
350
252FB
  3
*A234
350
25D97
  3
*A235
350
27337
  3
*A236
350
282C4
  3
*A237
350
20CA6
  3
*A238
350
25D0D
  3
*A239
350
27338
  3
*A24
350
1B744
  3
*A240
350
25D0A
  3
*A241
350
25367
  3
*A242
350
1606A
  3
*A243
350
18F22
  3
*A244
350
277FA
  3
*A245
350
277FB
  3
*A246
350
19A5A
  3
*A247
350
26090
  3
*A248
350
19729
  3
*A249
350
1D6FC
  3
*A25
350
FC95
  3
*A250
350
1AA94
  3
*A251
350
19A86
  3
*A252
350
277FC
  3
*A253
350
26E25
  3
*A254
350
1A691
  3
*A255
350
26C4B
  3
*A256
350
25D0B
  3
*A257
350
265CF
  3
*A258
350
282D0
  3
*A259
350
2629C
  3
*A26
350
1F909
  3
*A260
350
20016
  3
*A261
350
277FD
  3
*A262
350
277FE
  3
*A263
350
277FF
  3
*A264
350
1B756
  3
*A265
350
1D6E8
  3
*A266
350
2538B
  3
*A267
350
27800
  3
*A268
350
27801
  3
*A269
350
173BD
  3
*A27
350
20010
  3
*A270
350
25D0C
  3
*A271
350
20222
  3
*A272
350
27802
  3
*A273
350
27803
  3
*A274
350
19989
  3
*A275
350
282DC
  3
*A28
350
1B732
  3
*A29
350
1998A
  3
*A3
350
26093
  3
*A30
350
25379
  3
*A31
350
265CD
  3
*A32
350
106C7
  3
*A33
350
1A692
  3
*A34
350
2629B
  3
*A35
350
20019
  3
*A36
350
1D6D4
  3
*A37
350
27CB4
  3
*A38
350
20236
  3
*A39
350
1D6A2
  3
*A4
350
25391
  3
*A40
350
25313
  3
*A41
350
24D3F
  3
*A42
350
26C07
  3
*A43
350
ACAB
  3
*A44
350
1B720
  3
*A45
350
FCB8
  3
*A46
350
FB6C
  3
*A47
350
2786D
  3
*A48
350
252E3
  3
*A49
350
1B74D
  3
*A5
350
2534F
  3
*A50
350
26E22
  3
*A51
350
1B729
  3
*A52
350
18FA6
  3
*A53
350
18F1F
  3
*A54
350
26091
  3
*A55
350
26092
  3
*A56
350
19786
  3
*A57
350
25E13
  3
*A58
350
1D684
  3
*A59
350
17BFF
  3
*A6
350
20028
  3
*A60
350
265C9
  3
*A61
350
27CB3
  3
*A62
350
19F55
  3
*A63
350
2786E
  3
*A64
350
26B62
  3
*A65
350
2786C
  3
*A66
350
1F8FA
  3
*A67
350
19259
  3
*A68
350
1738B
  3
*A69
350
1D6B6
  3
*A7
350
27804
  3
*A70
350
19F99
  3
*A71
350
19794
  3
*A72
350
198F1
  3
*A73
350
215A2
  3
*A74
350
1F8FF
  3
*A75
350
25361
  3
*A76
350
ACA2
  3
*A77
350
253AB
  3
*A78
350
FC9B
  3
*A79
350
20231
  3
*A8
350
1B73B
  3
*A80
350
FC91
  3
*A81
350
27805
  3
*A82
350
17389
  3
*A83
350
2021D
  3
*A84
350
FBFF
  3
*A85
350
ACB4
  3
*A86
350
1D6F2
  3
*A87
350
252E9
  3
*A88
350
FC9A
  3
*A89
350
1F913
  3
*A9
350
25E11
  3
*A90
350
26E5F
  3
*A91
350
19A51
  3
*A92
350
19256
  3
*A93
350
2537F
  3
*A94
350
27806
  3
*A95
350
26E23
  3
*A96
350
106B3
  3
*A97
350
18F21
  3
*A98
350
2629E
  3
*A99
350
1EB80
1001
ACAD
1000
TREAT_AS_HARD
1070
     0
  0
DICTIONARY
  5
DB2
102
{ACAD_REACTORS
330
C
102
}
330
C
100
AcDbDictionary
281
     1
  3
Model
350
FB5D
  3
外形図
350
FB5E
1001
ACAD
1000
TREAT_AS_HARD
1070
     0
  0
DICTIONARY
  5
1B
102
{ACAD_REACTORS
330
C
102
}
330
C
100
AcDbDictionary
281
     1
  3
STANDARD
350
1C
1001
ACAD
1000
TREAT_AS_HARD
1070
     0
  0
DICTIONARY
  5
DB3
102
{ACAD_REACTORS
330
C
102
}
330
C
100
AcDbDictionary
281
     1
1001
ACAD
1000
TREAT_AS_HARD
1070
     0
  0
ACDBDICTIONARYWDFLT
  5
FB5B
102
{ACAD_REACTORS
330
C
102
}
330
C
100
AcDbDictionary
281
     1
  3
Normal
350
FB5C
100
AcDbDictionaryWithDefault
340
FB5C
  0
XRECORD
  5
1B534
102
{ACAD_REACTORS
330
C
102
}
330
C
100
AcDbXrecord
280
     1
 90
   990106
  3

 60
     0
 61
     0
 62
     4
 63
     4
 64
     1
 65
     0
 66
     0
 67
     3
 68
     1
 69
     0
 70
     0
 71
     0
 72
     0
 40
0.0
170
     2
340
28012
  0
DICTIONARY
  5
106A6
102
{ACAD_REACTORS
330
C
102
}
330
C
100
AcDbDictionary
281
     1
  3
SORTENTS
350
106A7
  0
DICTIONARY
  5
1A99F
102
{ACAD_REACTORS
330
C
102
}
330
C
100
AcDbDictionary
281
     1
  3
ASEBlockHierarchyIndexRecord
350
1A9A1
1001
DCO15
1040
1464612067.17
  0
XRECORD
  5
15EC9
102
{ACAD_REACTORS
330
C
102
}
330
C
100
AcDbXrecord
280
     1
  1
DWGPROPS COOKIE
  2

  3

  4

  6

  7

  8

  9

300
=
301
=
302
=
303
=
304
=
305
=
306
=
307
=
308
=
309
=
 40
12.65185717592592
 41
2451224.660162384
 42
2452395.660827315
  1

 90
        0
  0
DICTIONARY
  5
283CD
102
{ACAD_REACTORS
330
283CC
102
}
330
283CC
100
AcDbDictionary
280
     1
281
     1
  3
0
360
283CE
  3
11
360
283CF
  3
150_
360
283D0
  3
160_
360
283D1
  3
170_
360
283D2
  3
171_
360
283D3
  3
350_
360
283D4
  3
4
360
283D5
  3
5
360
283D6
  3
7
360
283D7
  3
kiseki
360
283D8
  0
DICTIONARY
  5
283D9
102
{ACAD_REACTORS
330
283CC
102
}
330
283CC
100
AcDbDictionary
281
     1
  0
GROUP
  5
AC8A
102
{ACAD_REACTORS
330
D
102
}
330
D
100
AcDbGroup
300

 70
     1
 71
     1
  0
GROUP
  5
1D68E
102
{ACAD_REACTORS
330
D
102
}
330
D
100
AcDbGroup
300

 70
     1
 71
     1
  0
GROUP
  5
196C2
102
{ACAD_REACTORS
330
D
102
}
330
D
100
AcDbGroup
300

 70
     1
 71
     1
  0
GROUP
  5
26E60
102
{ACAD_REACTORS
330
D
102
}
330
D
100
AcDbGroup
300

 70
     1
 71
     1
  0
GROUP
  5
26C43
102
{ACAD_REACTORS
330
D
102
}
330
D
100
AcDbGroup
300

 70
     1
 71
     1
  0
GROUP
  5
1738A
102
{ACAD_REACTORS
330
D
102
}
330
D
100
AcDbGroup
300

 70
     1
 71
     1
  0
GROUP
  5
1F8F0
102
{ACAD_REACTORS
330
D
102
}
330
D
100
AcDbGroup
300

 70
     1
 71
     1
  0
GROUP
  5
2532B
102
{ACAD_REACTORS
330
D
102
}
330
D
100
AcDbGroup
300

 70
     1
 71
     1
  0
GROUP
  5
27CB5
102
{ACAD_REACTORS
330
D
102
}
330
D
100
AcDbGroup
300

 70
     1
 71
     1
  0
GROUP
  5
28579
102
{ACAD_REACTORS
330
D
102
}
330
D
100
AcDbGroup
300

 70
     1
 71
     1
340
2856E
340
2856D
340
2854E
340
2853F
340
2854A
340
28549
340
2854D
340
2854C
340
2854B
340
28548
340
28561
340
2855A
340
28554
340
28553
340
28552
340
28551
340
28550
340
28540
340
2855F
340
2855E
340
2855D
340
28559
340
28558
340
28557
340
28556
340
28571
340
28570
340
2856A
340
28567
340
28566
340
28565
340
28564
340
28563
340
28574
340
28573
340
28572
340
2856F
340
2856C
340
2856B
340
28569
340
28568
340
28562
340
28560
340
2855C
340
2855B
340
28555
340
2854F
340
28576
340
28575
340
28542
340
28541
340
28547
340
28546
340
28545
340
28544
340
28543
  0
GROUP
  5
28609
102
{ACAD_REACTORS
330
D
102
}
330
D
100
AcDbGroup
300

 70
     1
 71
     1
340
285DA
340
285E3
340
285E2
340
285E0
340
285E7
340
28607
340
28606
340
28605
340
28603
340
28602
340
28601
340
28600
340
285FF
340
285FE
340
285FD
340
285FC
340
285F7
340
285F1
340
285EF
340
285EE
340
285ED
340
285EC
340
285EB
340
285EA
340
285E9
340
285E8
340
285E4
340
285DF
340
285DE
340
28604
340
285F0
340
285E1
340
285FB
340
285FA
340
285F9
340
285F4
340
285E5
340
285DB
340
285D9
340
285F8
340
285D0
340
285CE
340
285D6
340
285D4
340
285CF
340
285F6
340
285F5
340
285F3
340
285F2
340
285E6
340
285DD
340
285DC
340
28608
340
285D5
340
285D3
340
285D2
340
285D1
  0
GROUP
  5
25331
102
{ACAD_REACTORS
330
D
102
}
330
D
100
AcDbGroup
300

 70
     1
 71
     1
  0
GROUP
  5
265CA
102
{ACAD_REACTORS
330
D
102
}
330
D
100
AcDbGroup
300

 70
     1
 71
     1
  0
GROUP
  5
19FAB
102
{ACAD_REACTORS
330
D
102
}
330
D
100
AcDbGroup
300

 70
     1
 71
     1
  0
GROUP
  5
1D710
102
{ACAD_REACTORS
330
D
102
}
330
D
100
AcDbGroup
300

 70
     1
 71
     1
  0
GROUP
  5
25385
102
{ACAD_REACTORS
330
D
102
}
330
D
100
AcDbGroup
300

 70
     1
 71
     1
  0
GROUP
  5
1F8F5
102
{ACAD_REACTORS
330
D
102
}
330
D
100
AcDbGroup
300

 70
     1
 71
     1
  0
GROUP
  5
26C53
102
{ACAD_REACTORS
330
D
102
}
330
D
100
AcDbGroup
300

 70
     1
 71
     1
  0
GROUP
  5
173BE
102
{ACAD_REACTORS
330
D
102
}
330
D
100
AcDbGroup
300

 70
     1
 71
     1
  0
GROUP
  5
25584
102
{ACAD_REACTORS
330
D
102
}
330
D
100
AcDbGroup
300

 70
     1
 71
     1
  0
GROUP
  5
16059
102
{ACAD_REACTORS
330
D
102
}
330
D
100
AcDbGroup
300

 70
     1
 71
     1
  0
GROUP
  5
1D670
102
{ACAD_REACTORS
330
D
102
}
330
D
100
AcDbGroup
300

 70
     1
 71
     1
  0
GROUP
  5
19F67
102
{ACAD_REACTORS
330
D
102
}
330
D
100
AcDbGroup
300

 70
     1
 71
     1
  0
GROUP
  5
20213
102
{ACAD_REACTORS
330
D
102
}
330
D
100
AcDbGroup
300

 70
     1
 71
     1
  0
GROUP
  5
2001C
102
{ACAD_REACTORS
330
D
102
}
330
D
100
AcDbGroup
300

 70
     1
 71
     1
  0
GROUP
  5
19F87
102
{ACAD_REACTORS
330
D
102
}
330
D
100
AcDbGroup
300

 70
     1
 71
     1
  0
GROUP
  5
1EB7D
102
{ACAD_REACTORS
330
D
102
}
330
D
100
AcDbGroup
300

 70
     1
 71
     1
  0
GROUP
  5
25585
102
{ACAD_REACTORS
330
D
102
}
330
D
100
AcDbGroup
300

 70
     1
 71
     1
  0
GROUP
  5
2531F
102
{ACAD_REACTORS
330
D
102
}
330
D
100
AcDbGroup
300

 70
     1
 71
     1
  0
GROUP
  5
26E24
102
{ACAD_REACTORS
330
D
102
}
330
D
100
AcDbGroup
300

 70
     1
 71
     1
  0
GROUP
  5
16069
102
{ACAD_REACTORS
330
D
102
}
330
D
100
AcDbGroup
300

 70
     1
 71
     1
  0
GROUP
  5
25307
102
{ACAD_REACTORS
330
D
102
}
330
D
100
AcDbGroup
300

 70
     1
 71
     1
  0
GROUP
  5
1D6DE
102
{ACAD_REACTORS
330
D
102
}
330
D
100
AcDbGroup
300

 70
     1
 71
     1
  0
GROUP
  5
1D706
102
{ACAD_REACTORS
330
D
102
}
330
D
100
AcDbGroup
300

 70
     1
 71
     1
  0
GROUP
  5
25301
102
{ACAD_REACTORS
330
D
102
}
330
D
100
AcDbGroup
300

 70
     1
 71
     1
  0
GROUP
  5
25586
102
{ACAD_REACTORS
330
D
102
}
330
D
100
AcDbGroup
300

 70
     1
 71
     1
  0
GROUP
  5
25E12
102
{ACAD_REACTORS
330
D
102
}
330
D
100
AcDbGroup
300

 70
     1
 71
     1
  0
GROUP
  5
25325
102
{ACAD_REACTORS
330
D
102
}
330
D
100
AcDbGroup
300

 70
     1
 71
     1
  0
GROUP
  5
1D698
102
{ACAD_REACTORS
330
D
102
}
330
D
100
AcDbGroup
300

 70
     1
 71
     1
  0
GROUP
  5
25590
102
{ACAD_REACTORS
330
D
102
}
330
D
100
AcDbGroup
300

 70
     1
 71
     1
  0
GROUP
  5
25343
102
{ACAD_REACTORS
330
D
102
}
330
D
100
AcDbGroup
300

 70
     1
 71
     1
  0
GROUP
  5
1D6CA
102
{ACAD_REACTORS
330
D
102
}
330
D
100
AcDbGroup
300

 70
     1
 71
     1
  0
GROUP
  5
265CE
102
{ACAD_REACTORS
330
D
102
}
330
D
100
AcDbGroup
300

 70
     1
 71
     1
  0
GROUP
  5
252DD
102
{ACAD_REACTORS
330
D
102
}
330
D
100
AcDbGroup
300

 70
     1
 71
     1
  0
GROUP
  5
25596
102
{ACAD_REACTORS
330
D
102
}
330
D
100
AcDbGroup
300

 70
     1
 71
     1
  0
GROUP
  5
2535B
102
{ACAD_REACTORS
330
D
102
}
330
D
100
AcDbGroup
300

 70
     1
 71
     1
  0
GROUP
  5
252EF
102
{ACAD_REACTORS
330
D
102
}
330
D
100
AcDbGroup
300

 70
     1
 71
     1
  0
GROUP
  5
1D6C0
102
{ACAD_REACTORS
330
D
102
}
330
D
100
AcDbGroup
300

 70
     1
 71
     1
  0
GROUP
  5
16058
102
{ACAD_REACTORS
330
D
102
}
330
D
100
AcDbGroup
300

 70
     1
 71
     1
  0
GROUP
  5
2559C
102
{ACAD_REACTORS
330
D
102
}
330
D
100
AcDbGroup
300

 70
     1
 71
     1
  0
GROUP
  5
1606B
102
{ACAD_REACTORS
330
D
102
}
330
D
100
AcDbGroup
300

 70
     1
 71
     1
  0
GROUP
  5
2022C
102
{ACAD_REACTORS
330
D
102
}
330
D
100
AcDbGroup
300

 70
     1
 71
     1
  0
GROUP
  5
26E61
102
{ACAD_REACTORS
330
D
102
}
330
D
100
AcDbGroup
300

 70
     1
 71
     1
  0
GROUP
  5
2559D
102
{ACAD_REACTORS
330
D
102
}
330
D
100
AcDbGroup
300

 70
     1
 71
     1
  0
GROUP
  5
259CF
102
{ACAD_REACTORS
330
D
102
}
330
D
100
AcDbGroup
300

 70
     1
 71
     1
  0
GROUP
  5
20022
102
{ACAD_REACTORS
330
D
102
}
330
D
100
AcDbGroup
300

 70
     1
 71
     1
  0
GROUP
  5
27CB8
102
{ACAD_REACTORS
330
D
102
}
330
D
100
AcDbGroup
300

 70
     1
 71
     1
  0
GROUP
  5
1EB7F
102
{ACAD_REACTORS
330
D
102
}
330
D
100
AcDbGroup
300

 70
     1
 71
     1
  0
GROUP
  5
1EB7E
102
{ACAD_REACTORS
330
D
102
}
330
D
100
AcDbGroup
300

 70
     1
 71
     1
  0
GROUP
  5
259D0
102
{ACAD_REACTORS
330
D
102
}
330
D
100
AcDbGroup
300

 70
     1
 71
     1
  0
GROUP
  5
25337
102
{ACAD_REACTORS
330
D
102
}
330
D
100
AcDbGroup
300

 70
     1
 71
     1
  0
GROUP
  5
19255
102
{ACAD_REACTORS
330
D
102
}
330
D
100
AcDbGroup
300

 70
     1
 71
     1
  0
GROUP
  5
ACA1
102
{ACAD_REACTORS
330
D
102
}
330
D
100
AcDbGroup
300

 70
     1
 71
     1
  0
GROUP
  5
259D1
102
{ACAD_REACTORS
330
D
102
}
330
D
100
AcDbGroup
300

 70
     1
 71
     1
  0
GROUP
  5
18FA8
102
{ACAD_REACTORS
330
D
102
}
330
D
100
AcDbGroup
300

 70
     1
 71
     1
  0
GROUP
  5
19AA4
102
{ACAD_REACTORS
330
D
102
}
330
D
100
AcDbGroup
300

 70
     1
 71
     1
  0
GROUP
  5
20025
102
{ACAD_REACTORS
330
D
102
}
330
D
100
AcDbGroup
300

 70
     1
 71
     1
  0
GROUP
  5
19787
102
{ACAD_REACTORS
330
D
102
}
330
D
100
AcDbGroup
300

 70
     1
 71
     1
  0
GROUP
  5
1F91D
102
{ACAD_REACTORS
330
D
102
}
330
D
100
AcDbGroup
300

 70
     1
 71
     1
  0
GROUP
  5
2629A
102
{ACAD_REACTORS
330
D
102
}
330
D
100
AcDbGroup
300

 70
     1
 71
     1
  0
GROUP
  5
20CA2
102
{ACAD_REACTORS
330
D
102
}
330
D
100
AcDbGroup
300

 70
     1
 71
     1
  0
GROUP
  5
262A0
102
{ACAD_REACTORS
330
D
102
}
330
D
100
AcDbGroup
300

 70
     1
 71
     1
  0
GROUP
  5
AC9A
102
{ACAD_REACTORS
330
D
102
}
330
D
100
AcDbGroup
300

 70
     1
 71
     1
  0
GROUP
  5
1D67A
102
{ACAD_REACTORS
330
D
102
}
330
D
100
AcDbGroup
300

 70
     1
 71
     1
  0
GROUP
  5
252F5
102
{ACAD_REACTORS
330
D
102
}
330
D
100
AcDbGroup
300

 70
     1
 71
     1
  0
GROUP
  5
265D2
102
{ACAD_REACTORS
330
D
102
}
330
D
100
AcDbGroup
300

 70
     1
 71
     1
  0
GROUP
  5
2732E
102
{ACAD_REACTORS
330
D
102
}
330
D
100
AcDbGroup
300

 70
     1
 71
     1
  0
GROUP
  5
26C78
102
{ACAD_REACTORS
330
D
102
}
330
D
100
AcDbGroup
300

 70
     1
 71
     1
  0
GROUP
  5
25397
102
{ACAD_REACTORS
330
D
102
}
330
D
100
AcDbGroup
300

 70
     1
 71
     1
  0
GROUP
  5
26E26
102
{ACAD_REACTORS
330
D
102
}
330
D
100
AcDbGroup
300

 70
     1
 71
     1
  0
GROUP
  5
20013
102
{ACAD_REACTORS
330
D
102
}
330
D
100
AcDbGroup
300

 70
     1
 71
     1
  0
GROUP
  5
25373
102
{ACAD_REACTORS
330
D
102
}
330
D
100
AcDbGroup
300

 70
     1
 71
     1
  0
GROUP
  5
2001F
102
{ACAD_REACTORS
330
D
102
}
330
D
100
AcDbGroup
300

 70
     1
 71
     1
  0
GROUP
  5
1D6AC
102
{ACAD_REACTORS
330
D
102
}
330
D
100
AcDbGroup
300

 70
     1
 71
     1
  0
GROUP
  5
ACBD
102
{ACAD_REACTORS
330
D
102
}
330
D
100
AcDbGroup
300

 70
     1
 71
     1
  0
GROUP
  5
25319
102
{ACAD_REACTORS
330
D
102
}
330
D
100
AcDbGroup
300

 70
     1
 71
     1
  0
GROUP
  5
2629D
102
{ACAD_REACTORS
330
D
102
}
330
D
100
AcDbGroup
300

 70
     1
 71
     1
  0
GROUP
  5
259D2
102
{ACAD_REACTORS
330
D
102
}
330
D
100
AcDbGroup
300

 70
     1
 71
     1
  0
GROUP
  5
173BF
102
{ACAD_REACTORS
330
D
102
}
330
D
100
AcDbGroup
300

 70
     1
 71
     1
  0
GROUP
  5
18F23
102
{ACAD_REACTORS
330
D
102
}
330
D
100
AcDbGroup
300

 70
     1
 71
     1
  0
GROUP
  5
25AC2
102
{ACAD_REACTORS
330
D
102
}
330
D
100
AcDbGroup
300

 70
     1
 71
     1
  0
GROUP
  5
25AC3
102
{ACAD_REACTORS
330
D
102
}
330
D
100
AcDbGroup
300

 70
     1
 71
     1
  0
GROUP
  5
19881
102
{ACAD_REACTORS
330
D
102
}
330
D
100
AcDbGroup
300

 70
     1
 71
     1
  0
GROUP
  5
106A5
102
{ACAD_REACTORS
330
D
102
}
330
D
100
AcDbGroup
300

 70
     1
 71
     1
  0
GROUP
  5
26E5E
102
{ACAD_REACTORS
330
D
102
}
330
D
100
AcDbGroup
300

 70
     1
 71
     1
  0
GROUP
  5
169DA
102
{ACAD_REACTORS
330
D
102
}
330
D
100
AcDbGroup
300

 70
     1
 71
     1
  0
GROUP
  5
20209
102
{ACAD_REACTORS
330
D
102
}
330
D
100
AcDbGroup
300

 70
     1
 71
     1
  0
GROUP
  5
1F90E
102
{ACAD_REACTORS
330
D
102
}
330
D
100
AcDbGroup
300

 70
     1
 71
     1
  0
GROUP
  5
1A695
102
{ACAD_REACTORS
330
D
102
}
330
D
100
AcDbGroup
300

 70
     1
 71
     1
  0
GROUP
  5
26C8B
102
{ACAD_REACTORS
330
D
102
}
330
D
100
AcDbGroup
300

 70
     1
 71
     1
  0
GROUP
  5
18FA7
102
{ACAD_REACTORS
330
D
102
}
330
D
100
AcDbGroup
300

 70
     1
 71
     1
  0
GROUP
  5
FB6B
102
{ACAD_REACTORS
330
D
102
}
330
D
100
AcDbGroup
300

 70
     1
 71
     1
  0
GROUP
  5
1EB7C
102
{ACAD_REACTORS
330
D
102
}
330
D
100
AcDbGroup
300

 70
     1
 71
     1
  0
GROUP
  5
26095
102
{ACAD_REACTORS
330
D
102
}
330
D
100
AcDbGroup
300

 70
     1
 71
     1
  0
GROUP
  5
2020E
102
{ACAD_REACTORS
330
D
102
}
330
D
100
AcDbGroup
300

 70
     1
 71
     1
  0
GROUP
  5
262A1
102
{ACAD_REACTORS
330
D
102
}
330
D
100
AcDbGroup
300

 70
     1
 71
     1
  0
GROUP
  5
1A09A
102
{ACAD_REACTORS
330
D
102
}
330
D
100
AcDbGroup
300

 70
     1
 71
     1
  0
GROUP
  5
19A52
102
{ACAD_REACTORS
330
D
102
}
330
D
100
AcDbGroup
300

 70
     1
 71
     1
  0
GROUP
  5
26B3D
102
{ACAD_REACTORS
330
D
102
}
330
D
100
AcDbGroup
300

 70
     1
 71
     1
  0
GROUP
  5
2533D
102
{ACAD_REACTORS
330
D
102
}
330
D
100
AcDbGroup
300

 70
     1
 71
     1
  0
GROUP
  5
20218
102
{ACAD_REACTORS
330
D
102
}
330
D
100
AcDbGroup
300

 70
     1
 71
     1
  0
GROUP
  5
265C7
102
{ACAD_REACTORS
330
D
102
}
330
D
100
AcDbGroup
300

 70
     1
 71
     1
  0
GROUP
  5
16068
102
{ACAD_REACTORS
330
D
102
}
330
D
100
AcDbGroup
300

 70
     1
 71
     1
  0
GROUP
  5
19861
102
{ACAD_REACTORS
330
D
102
}
330
D
100
AcDbGroup
300

 70
     1
 71
     1
  0
GROUP
  5
2530D
102
{ACAD_REACTORS
330
D
102
}
330
D
100
AcDbGroup
300

 70
     1
 71
     1
  0
GROUP
  5
2732F
102
{ACAD_REACTORS
330
D
102
}
330
D
100
AcDbGroup
300

 70
     1
 71
     1
  0
GROUP
  5
27330
102
{ACAD_REACTORS
330
D
102
}
330
D
100
AcDbGroup
300

 70
     1
 71
     1
  0
GROUP
  5
27CB6
102
{ACAD_REACTORS
330
D
102
}
330
D
100
AcDbGroup
300

 70
     1
 71
     1
  0
GROUP
  5
25355
102
{ACAD_REACTORS
330
D
102
}
330
D
100
AcDbGroup
300

 70
     1
 71
     1
  0
GROUP
  5
2536D
102
{ACAD_REACTORS
330
D
102
}
330
D
100
AcDbGroup
300

 70
     1
 71
     1
  0
GROUP
  5
25E10
102
{ACAD_REACTORS
330
D
102
}
330
D
100
AcDbGroup
300

 70
     1
 71
     1
  0
GROUP
  5
27331
102
{ACAD_REACTORS
330
D
102
}
330
D
100
AcDbGroup
300

 70
     1
 71
     1
  0
GROUP
  5
106C6
102
{ACAD_REACTORS
330
D
102
}
330
D
100
AcDbGroup
300

 70
     1
 71
     1
  0
GROUP
  5
265D0
102
{ACAD_REACTORS
330
D
102
}
330
D
100
AcDbGroup
300

 70
     1
 71
     1
  0
GROUP
  5
17901
102
{ACAD_REACTORS
330
D
102
}
330
D
100
AcDbGroup
300

 70
     1
 71
     1
  0
GROUP
  5
20227
102
{ACAD_REACTORS
330
D
102
}
330
D
100
AcDbGroup
300

 70
     1
 71
     1
  0
GROUP
  5
265CC
102
{ACAD_REACTORS
330
D
102
}
330
D
100
AcDbGroup
300

 70
     1
 71
     1
  0
GROUP
  5
25349
102
{ACAD_REACTORS
330
D
102
}
330
D
100
AcDbGroup
300

 70
     1
 71
     1
  0
GROUP
  5
27332
102
{ACAD_REACTORS
330
D
102
}
330
D
100
AcDbGroup
300

 70
     1
 71
     1
  0
GROUP
  5
2608F
102
{ACAD_REACTORS
330
D
102
}
330
D
100
AcDbGroup
300

 70
     1
 71
     1
  0
GROUP
  5
27CB7
102
{ACAD_REACTORS
330
D
102
}
330
D
100
AcDbGroup
300

 70
     1
 71
     1
  0
GROUP
  5
265D1
102
{ACAD_REACTORS
330
D
102
}
330
D
100
AcDbGroup
300

 70
     1
 71
     1
  0
GROUP
  5
25D0E
102
{ACAD_REACTORS
330
D
102
}
330
D
100
AcDbGroup
300

 70
     1
 71
     1
  0
GROUP
  5
27333
102
{ACAD_REACTORS
330
D
102
}
330
D
100
AcDbGroup
300

 70
     1
 71
     1
  0
GROUP
  5
26C06
102
{ACAD_REACTORS
330
D
102
}
330
D
100
AcDbGroup
300

 70
     1
 71
     1
  0
GROUP
  5
26094
102
{ACAD_REACTORS
330
D
102
}
330
D
100
AcDbGroup
300

 70
     1
 71
     1
  0
GROUP
  5
1F918
102
{ACAD_REACTORS
330
D
102
}
330
D
100
AcDbGroup
300

 70
     1
 71
     1
  0
GROUP
  5
1F904
102
{ACAD_REACTORS
330
D
102
}
330
D
100
AcDbGroup
300

 70
     1
 71
     1
  0
GROUP
  5
27334
102
{ACAD_REACTORS
330
D
102
}
330
D
100
AcDbGroup
300

 70
     1
 71
     1
  0
GROUP
  5
27335
102
{ACAD_REACTORS
330
D
102
}
330
D
100
AcDbGroup
300

 70
     1
 71
     1
  0
GROUP
  5
26096
102
{ACAD_REACTORS
330
D
102
}
330
D
100
AcDbGroup
300

 70
     1
 71
     1
  0
GROUP
  5
17B11
102
{ACAD_REACTORS
330
D
102
}
330
D
100
AcDbGroup
300

 70
     1
 71
     1
  0
GROUP
  5
18F20
102
{ACAD_REACTORS
330
D
102
}
330
D
100
AcDbGroup
300

 70
     1
 71
     1
  0
GROUP
  5
265CB
102
{ACAD_REACTORS
330
D
102
}
330
D
100
AcDbGroup
300

 70
     1
 71
     1
  0
GROUP
  5
2629F
102
{ACAD_REACTORS
330
D
102
}
330
D
100
AcDbGroup
300

 70
     1
 71
     1
  0
GROUP
  5
19988
102
{ACAD_REACTORS
330
D
102
}
330
D
100
AcDbGroup
300

 70
     1
 71
     1
  0
GROUP
  5
27336
102
{ACAD_REACTORS
330
D
102
}
330
D
100
AcDbGroup
300

 70
     1
 71
     1
  0
GROUP
  5
265C8
102
{ACAD_REACTORS
330
D
102
}
330
D
100
AcDbGroup
300

 70
     1
 71
     1
  0
GROUP
  5
2002B
102
{ACAD_REACTORS
330
D
102
}
330
D
100
AcDbGroup
300

 70
     1
 71
     1
  0
GROUP
  5
252FB
102
{ACAD_REACTORS
330
D
102
}
330
D
100
AcDbGroup
300

 70
     1
 71
     1
  0
GROUP
  5
25D97
102
{ACAD_REACTORS
330
D
102
}
330
D
100
AcDbGroup
300

 70
     1
 71
     1
  0
GROUP
  5
27337
102
{ACAD_REACTORS
330
D
102
}
330
D
100
AcDbGroup
300

 70
     1
 71
     1
  0
GROUP
  5
282C4
102
{ACAD_REACTORS
330
D
102
}
330
D
100
AcDbGroup
300

 70
     1
 71
     1
340
27A5D
340
27AF1
340
27B03
340
27B04
340
27A60
340
27AD5
340
27AD4
340
27A62
340
27A5F
340
27AC7
340
27AF8
  0
GROUP
  5
20CA6
102
{ACAD_REACTORS
330
D
102
}
330
D
100
AcDbGroup
300

 70
     1
 71
     1
  0
GROUP
  5
25D0D
102
{ACAD_REACTORS
330
D
102
}
330
D
100
AcDbGroup
300

 70
     1
 71
     1
  0
GROUP
  5
27338
102
{ACAD_REACTORS
330
D
102
}
330
D
100
AcDbGroup
300

 70
     1
 71
     1
  0
GROUP
  5
1B744
102
{ACAD_REACTORS
330
D
102
}
330
D
100
AcDbGroup
300

 70
     1
 71
     1
  0
GROUP
  5
25D0A
102
{ACAD_REACTORS
330
D
102
}
330
D
100
AcDbGroup
300

 70
     1
 71
     1
  0
GROUP
  5
25367
102
{ACAD_REACTORS
330
D
102
}
330
D
100
AcDbGroup
300

 70
     1
 71
     1
  0
GROUP
  5
1606A
102
{ACAD_REACTORS
330
D
102
}
330
D
100
AcDbGroup
300

 70
     1
 71
     1
  0
GROUP
  5
18F22
102
{ACAD_REACTORS
330
D
102
}
330
D
100
AcDbGroup
300

 70
     1
 71
     1
  0
GROUP
  5
277FA
102
{ACAD_REACTORS
330
D
102
}
330
D
100
AcDbGroup
300

 70
     1
 71
     1
  0
GROUP
  5
277FB
102
{ACAD_REACTORS
330
D
102
}
330
D
100
AcDbGroup
300

 70
     1
 71
     1
  0
GROUP
  5
19A5A
102
{ACAD_REACTORS
330
D
102
}
330
D
100
AcDbGroup
300

 70
     1
 71
     1
  0
GROUP
  5
26090
102
{ACAD_REACTORS
330
D
102
}
330
D
100
AcDbGroup
300

 70
     1
 71
     1
  0
GROUP
  5
19729
102
{ACAD_REACTORS
330
D
102
}
330
D
100
AcDbGroup
300

 70
     1
 71
     1
  0
GROUP
  5
1D6FC
102
{ACAD_REACTORS
330
D
102
}
330
D
100
AcDbGroup
300

 70
     1
 71
     1
  0
GROUP
  5
FC95
102
{ACAD_REACTORS
330
D
102
}
330
D
100
AcDbGroup
300

 70
     1
 71
     1
  0
GROUP
  5
1AA94
102
{ACAD_REACTORS
330
D
102
}
330
D
100
AcDbGroup
300

 70
     1
 71
     1
  0
GROUP
  5
19A86
102
{ACAD_REACTORS
330
D
102
}
330
D
100
AcDbGroup
300

 70
     1
 71
     1
  0
GROUP
  5
277FC
102
{ACAD_REACTORS
330
D
102
}
330
D
100
AcDbGroup
300

 70
     1
 71
     1
  0
GROUP
  5
26E25
102
{ACAD_REACTORS
330
D
102
}
330
D
100
AcDbGroup
300

 70
     1
 71
     1
  0
GROUP
  5
1A691
102
{ACAD_REACTORS
330
D
102
}
330
D
100
AcDbGroup
300

 70
     1
 71
     1
  0
GROUP
  5
26C4B
102
{ACAD_REACTORS
330
D
102
}
330
D
100
AcDbGroup
300

 70
     1
 71
     1
  0
GROUP
  5
25D0B
102
{ACAD_REACTORS
330
D
102
}
330
D
100
AcDbGroup
300

 70
     1
 71
     1
  0
GROUP
  5
265CF
102
{ACAD_REACTORS
330
D
102
}
330
D
100
AcDbGroup
300

 70
     1
 71
     1
  0
GROUP
  5
282D0
102
{ACAD_REACTORS
330
D
102
}
330
D
100
AcDbGroup
300

 70
     1
 71
     1
  0
GROUP
  5
2629C
102
{ACAD_REACTORS
330
D
102
}
330
D
100
AcDbGroup
300

 70
     1
 71
     1
  0
GROUP
  5
1F909
102
{ACAD_REACTORS
330
D
102
}
330
D
100
AcDbGroup
300

 70
     1
 71
     1
  0
GROUP
  5
20016
102
{ACAD_REACTORS
330
D
102
}
330
D
100
AcDbGroup
300

 70
     1
 71
     1
  0
GROUP
  5
277FD
102
{ACAD_REACTORS
330
D
102
}
330
D
100
AcDbGroup
300

 70
     1
 71
     1
  0
GROUP
  5
277FE
102
{ACAD_REACTORS
330
D
102
}
330
D
100
AcDbGroup
300

 70
     1
 71
     1
  0
GROUP
  5
277FF
102
{ACAD_REACTORS
330
D
102
}
330
D
100
AcDbGroup
300

 70
     1
 71
     1
  0
GROUP
  5
1B756
102
{ACAD_REACTORS
330
D
102
}
330
D
100
AcDbGroup
300

 70
     1
 71
     1
  0
GROUP
  5
1D6E8
102
{ACAD_REACTORS
330
D
102
}
330
D
100
AcDbGroup
300

 70
     1
 71
     1
  0
GROUP
  5
2538B
102
{ACAD_REACTORS
330
D
102
}
330
D
100
AcDbGroup
300

 70
     1
 71
     1
  0
GROUP
  5
27800
102
{ACAD_REACTORS
330
D
102
}
330
D
100
AcDbGroup
300

 70
     1
 71
     1
  0
GROUP
  5
27801
102
{ACAD_REACTORS
330
D
102
}
330
D
100
AcDbGroup
300

 70
     1
 71
     1
  0
GROUP
  5
173BD
102
{ACAD_REACTORS
330
D
102
}
330
D
100
AcDbGroup
300

 70
     1
 71
     1
  0
GROUP
  5
20010
102
{ACAD_REACTORS
330
D
102
}
330
D
100
AcDbGroup
300

 70
     1
 71
     1
  0
GROUP
  5
25D0C
102
{ACAD_REACTORS
330
D
102
}
330
D
100
AcDbGroup
300

 70
     1
 71
     1
  0
GROUP
  5
20222
102
{ACAD_REACTORS
330
D
102
}
330
D
100
AcDbGroup
300

 70
     1
 71
     1
  0
GROUP
  5
27802
102
{ACAD_REACTORS
330
D
102
}
330
D
100
AcDbGroup
300

 70
     1
 71
     1
  0
GROUP
  5
27803
102
{ACAD_REACTORS
330
D
102
}
330
D
100
AcDbGroup
300

 70
     1
 71
     1
  0
GROUP
  5
19989
102
{ACAD_REACTORS
330
D
102
}
330
D
100
AcDbGroup
300

 70
     1
 71
     1
  0
GROUP
  5
282DC
102
{ACAD_REACTORS
330
D
102
}
330
D
100
AcDbGroup
300

 70
     1
 71
     1
340
282D3
340
282D9
340
282DB
340
282DA
340
282D2
340
282D5
340
282D7
340
282D6
340
282D1
340
282D4
340
282D8
  0
GROUP
  5
1B732
102
{ACAD_REACTORS
330
D
102
}
330
D
100
AcDbGroup
300

 70
     1
 71
     1
  0
GROUP
  5
1998A
102
{ACAD_REACTORS
330
D
102
}
330
D
100
AcDbGroup
300

 70
     1
 71
     1
  0
GROUP
  5
26093
102
{ACAD_REACTORS
330
D
102
}
330
D
100
AcDbGroup
300

 70
     1
 71
     1
  0
GROUP
  5
25379
102
{ACAD_REACTORS
330
D
102
}
330
D
100
AcDbGroup
300

 70
     1
 71
     1
  0
GROUP
  5
265CD
102
{ACAD_REACTORS
330
D
102
}
330
D
100
AcDbGroup
300

 70
     1
 71
     1
  0
GROUP
  5
106C7
102
{ACAD_REACTORS
330
D
102
}
330
D
100
AcDbGroup
300

 70
     1
 71
     1
  0
GROUP
  5
1A692
102
{ACAD_REACTORS
330
D
102
}
330
D
100
AcDbGroup
300

 70
     1
 71
     1
  0
GROUP
  5
2629B
102
{ACAD_REACTORS
330
D
102
}
330
D
100
AcDbGroup
300

 70
     1
 71
     1
  0
GROUP
  5
20019
102
{ACAD_REACTORS
330
D
102
}
330
D
100
AcDbGroup
300

 70
     1
 71
     1
  0
GROUP
  5
1D6D4
102
{ACAD_REACTORS
330
D
102
}
330
D
100
AcDbGroup
300

 70
     1
 71
     1
  0
GROUP
  5
27CB4
102
{ACAD_REACTORS
330
D
102
}
330
D
100
AcDbGroup
300

 70
     1
 71
     1
  0
GROUP
  5
20236
102
{ACAD_REACTORS
330
D
102
}
330
D
100
AcDbGroup
300

 70
     1
 71
     1
  0
GROUP
  5
1D6A2
102
{ACAD_REACTORS
330
D
102
}
330
D
100
AcDbGroup
300

 70
     1
 71
     1
  0
GROUP
  5
25391
102
{ACAD_REACTORS
330
D
102
}
330
D
100
AcDbGroup
300

 70
     1
 71
     1
  0
GROUP
  5
25313
102
{ACAD_REACTORS
330
D
102
}
330
D
100
AcDbGroup
300

 70
     1
 71
     1
  0
GROUP
  5
24D3F
102
{ACAD_REACTORS
330
D
102
}
330
D
100
AcDbGroup
300

 70
     1
 71
     1
  0
GROUP
  5
26C07
102
{ACAD_REACTORS
330
D
102
}
330
D
100
AcDbGroup
300

 70
     1
 71
     1
  0
GROUP
  5
ACAB
102
{ACAD_REACTORS
330
D
102
}
330
D
100
AcDbGroup
300

 70
     1
 71
     1
  0
GROUP
  5
1B720
102
{ACAD_REACTORS
330
D
102
}
330
D
100
AcDbGroup
300

 70
     1
 71
     1
  0
GROUP
  5
FCB8
102
{ACAD_REACTORS
330
D
102
}
330
D
100
AcDbGroup
300

 70
     1
 71
     1
  0
GROUP
  5
FB6C
102
{ACAD_REACTORS
330
D
102
}
330
D
100
AcDbGroup
300

 70
     1
 71
     1
  0
GROUP
  5
2786D
102
{ACAD_REACTORS
330
D
102
}
330
D
100
AcDbGroup
300

 70
     1
 71
     1
  0
GROUP
  5
252E3
102
{ACAD_REACTORS
330
D
102
}
330
D
100
AcDbGroup
300

 70
     1
 71
     1
  0
GROUP
  5
1B74D
102
{ACAD_REACTORS
330
D
102
}
330
D
100
AcDbGroup
300

 70
     1
 71
     1
  0
GROUP
  5
2534F
102
{ACAD_REACTORS
330
D
102
}
330
D
100
AcDbGroup
300

 70
     1
 71
     1
  0
GROUP
  5
26E22
102
{ACAD_REACTORS
330
D
102
}
330
D
100
AcDbGroup
300

 70
     1
 71
     1
  0
GROUP
  5
1B729
102
{ACAD_REACTORS
330
D
102
}
330
D
100
AcDbGroup
300

 70
     1
 71
     1
  0
GROUP
  5
18FA6
102
{ACAD_REACTORS
330
D
102
}
330
D
100
AcDbGroup
300

 70
     1
 71
     1
  0
GROUP
  5
18F1F
102
{ACAD_REACTORS
330
D
102
}
330
D
100
AcDbGroup
300

 70
     1
 71
     1
  0
GROUP
  5
26091
102
{ACAD_REACTORS
330
D
102
}
330
D
100
AcDbGroup
300

 70
     1
 71
     1
  0
GROUP
  5
26092
102
{ACAD_REACTORS
330
D
102
}
330
D
100
AcDbGroup
300

 70
     1
 71
     1
  0
GROUP
  5
19786
102
{ACAD_REACTORS
330
D
102
}
330
D
100
AcDbGroup
300

 70
     1
 71
     1
  0
GROUP
  5
25E13
102
{ACAD_REACTORS
330
D
102
}
330
D
100
AcDbGroup
300

 70
     1
 71
     1
  0
GROUP
  5
1D684
102
{ACAD_REACTORS
330
D
102
}
330
D
100
AcDbGroup
300

 70
     1
 71
     1
  0
GROUP
  5
17BFF
102
{ACAD_REACTORS
330
D
102
}
330
D
100
AcDbGroup
300

 70
     1
 71
     1
  0
GROUP
  5
20028
102
{ACAD_REACTORS
330
D
102
}
330
D
100
AcDbGroup
300

 70
     1
 71
     1
  0
GROUP
  5
265C9
102
{ACAD_REACTORS
330
D
102
}
330
D
100
AcDbGroup
300

 70
     1
 71
     1
  0
GROUP
  5
27CB3
102
{ACAD_REACTORS
330
D
102
}
330
D
100
AcDbGroup
300

 70
     1
 71
     1
  0
GROUP
  5
19F55
102
{ACAD_REACTORS
330
D
102
}
330
D
100
AcDbGroup
300

 70
     1
 71
     1
  0
GROUP
  5
2786E
102
{ACAD_REACTORS
330
D
102
}
330
D
100
AcDbGroup
300

 70
     1
 71
     1
  0
GROUP
  5
26B62
102
{ACAD_REACTORS
330
D
102
}
330
D
100
AcDbGroup
300

 70
     1
 71
     1
  0
GROUP
  5
2786C
102
{ACAD_REACTORS
330
D
102
}
330
D
100
AcDbGroup
300

 70
     1
 71
     1
  0
GROUP
  5
1F8FA
102
{ACAD_REACTORS
330
D
102
}
330
D
100
AcDbGroup
300

 70
     1
 71
     1
  0
GROUP
  5
19259
102
{ACAD_REACTORS
330
D
102
}
330
D
100
AcDbGroup
300

 70
     1
 71
     1
  0
GROUP
  5
1738B
102
{ACAD_REACTORS
330
D
102
}
330
D
100
AcDbGroup
300

 70
     1
 71
     1
  0
GROUP
  5
1D6B6
102
{ACAD_REACTORS
330
D
102
}
330
D
100
AcDbGroup
300

 70
     1
 71
     1
  0
GROUP
  5
27804
102
{ACAD_REACTORS
330
D
102
}
330
D
100
AcDbGroup
300

 70
     1
 71
     1
  0
GROUP
  5
19F99
102
{ACAD_REACTORS
330
D
102
}
330
D
100
AcDbGroup
300

 70
     1
 71
     1
  0
GROUP
  5
19794
102
{ACAD_REACTORS
330
D
102
}
330
D
100
AcDbGroup
300

 70
     1
 71
     1
  0
GROUP
  5
198F1
102
{ACAD_REACTORS
330
D
102
}
330
D
100
AcDbGroup
300

 70
     1
 71
     1
  0
GROUP
  5
215A2
102
{ACAD_REACTORS
330
D
102
}
330
D
100
AcDbGroup
300

 70
     1
 71
     1
  0
GROUP
  5
1F8FF
102
{ACAD_REACTORS
330
D
102
}
330
D
100
AcDbGroup
300

 70
     1
 71
     1
  0
GROUP
  5
25361
102
{ACAD_REACTORS
330
D
102
}
330
D
100
AcDbGroup
300

 70
     1
 71
     1
  0
GROUP
  5
ACA2
102
{ACAD_REACTORS
330
D
102
}
330
D
100
AcDbGroup
300

 70
     1
 71
     1
  0
GROUP
  5
253AB
102
{ACAD_REACTORS
330
D
102
}
330
D
100
AcDbGroup
300

 70
     1
 71
     1
  0
GROUP
  5
FC9B
102
{ACAD_REACTORS
330
D
102
}
330
D
100
AcDbGroup
300

 70
     1
 71
     1
  0
GROUP
  5
20231
102
{ACAD_REACTORS
330
D
102
}
330
D
100
AcDbGroup
300

 70
     1
 71
     1
  0
GROUP
  5
1B73B
102
{ACAD_REACTORS
330
D
102
}
330
D
100
AcDbGroup
300

 70
     1
 71
     1
  0
GROUP
  5
FC91
102
{ACAD_REACTORS
330
D
102
}
330
D
100
AcDbGroup
300

 70
     1
 71
     1
  0
GROUP
  5
27805
102
{ACAD_REACTORS
330
D
102
}
330
D
100
AcDbGroup
300

 70
     1
 71
     1
  0
GROUP
  5
17389
102
{ACAD_REACTORS
330
D
102
}
330
D
100
AcDbGroup
300

 70
     1
 71
     1
  0
GROUP
  5
2021D
102
{ACAD_REACTORS
330
D
102
}
330
D
100
AcDbGroup
300

 70
     1
 71
     1
  0
GROUP
  5
FBFF
102
{ACAD_REACTORS
330
D
102
}
330
D
100
AcDbGroup
300

 70
     1
 71
     1
  0
GROUP
  5
ACB4
102
{ACAD_REACTORS
330
D
102
}
330
D
100
AcDbGroup
300

 70
     1
 71
     1
  0
GROUP
  5
1D6F2
102
{ACAD_REACTORS
330
D
102
}
330
D
100
AcDbGroup
300

 70
     1
 71
     1
  0
GROUP
  5
252E9
102
{ACAD_REACTORS
330
D
102
}
330
D
100
AcDbGroup
300

 70
     1
 71
     1
  0
GROUP
  5
FC9A
102
{ACAD_REACTORS
330
D
102
}
330
D
100
AcDbGroup
300

 70
     1
 71
     1
  0
GROUP
  5
1F913
102
{ACAD_REACTORS
330
D
102
}
330
D
100
AcDbGroup
300

 70
     1
 71
     1
  0
GROUP
  5
25E11
102
{ACAD_REACTORS
330
D
102
}
330
D
100
AcDbGroup
300

 70
     1
 71
     1
  0
GROUP
  5
26E5F
102
{ACAD_REACTORS
330
D
102
}
330
D
100
AcDbGroup
300

 70
     1
 71
     1
  0
GROUP
  5
19A51
102
{ACAD_REACTORS
330
D
102
}
330
D
100
AcDbGroup
300

 70
     1
 71
     1
  0
GROUP
  5
19256
102
{ACAD_REACTORS
330
D
102
}
330
D
100
AcDbGroup
300

 70
     1
 71
     1
  0
GROUP
  5
2537F
102
{ACAD_REACTORS
330
D
102
}
330
D
100
AcDbGroup
300

 70
     1
 71
     1
  0
GROUP
  5
27806
102
{ACAD_REACTORS
330
D
102
}
330
D
100
AcDbGroup
300

 70
     1
 71
     1
  0
GROUP
  5
26E23
102
{ACAD_REACTORS
330
D
102
}
330
D
100
AcDbGroup
300

 70
     1
 71
     1
  0
GROUP
  5
106B3
102
{ACAD_REACTORS
330
D
102
}
330
D
100
AcDbGroup
300

 70
     1
 71
     1
  0
GROUP
  5
18F21
102
{ACAD_REACTORS
330
D
102
}
330
D
100
AcDbGroup
300

 70
     1
 71
     1
  0
GROUP
  5
2629E
102
{ACAD_REACTORS
330
D
102
}
330
D
100
AcDbGroup
300

 70
     1
 71
     1
  0
GROUP
  5
1EB80
102
{ACAD_REACTORS
330
D
102
}
330
D
100
AcDbGroup
300

 70
     1
 71
     1
  0
LAYOUT
  5
FB5D
102
{ACAD_REACTORS
330
DB2
102
}
330
DB2
100
AcDbPlotSettings
  1

  2
\\HONAMI\LBP-910
  4
A3
  6

 40
5.873749732971191
 41
5.873747825622558
 42
5.873748779296875
 43
5.873748779296875
 44
296.9259948730469
 45
419.9466552734374
 46
0.0
 47
0.0
 48
-134.0496161171158
 49
-116.2294073187233
140
1105.745250909008
141
633.2284101676227
142
1.0
143
2.866823569012708
 70
 11952
 72
     1
 73
     1
 74
     1
  7
monochrome.ctb
 75
     0
147
0.3488181173089717
148
98.7130430422485
149
74.96499340265336
100
AcDbLayout
  1
Model
 70
     1
 71
     0
 10
0.0
 20
0.0
 11
12.0
 21
9.0
 12
0.0
 22
0.0
 32
0.0
 14
0.0
 24
0.0
 34
0.0
 15
0.0
 25
0.0
 35
0.0
146
0.0
 13
0.0
 23
0.0
 33
0.0
 16
1.0
 26
0.0
 36
0.0
 17
0.0
 27
1.0
 37
0.0
 76
     0
330
18
  0
LAYOUT
  5
FB5E
102
{ACAD_REACTORS
330
DB2
102
}
330
DB2
100
AcDbPlotSettings
  1

  2
HP 750C_aaa3.pc3
  4
User257
  6

 40
4.995333194732666
 41
9.990656852722167
 42
4.995330810546875
 43
9.99066162109375
 44
296.9683227539062
 45
419.9466552734374
 46
-1.28
 47
2.0
 48
0.0
 49
0.0
140
0.0
141
0.0
142
1.0
143
1.0
 70
   688
 72
     1
 73
     1
 74
     1
  7
monochrome.ctb
 75
    16
147
1.0
148
0.0118438918668744
149
1.507149668039232
100
AcDbLayout
  1
外形図
 70
     0
 71
     1
 10
-12.00250551296062
 20
-5.222482862771898
 11
407.9441497604769
 21
291.7458398911343
 12
0.0
 22
0.0
 32
0.0
 14
-0.0005500942349954
 24
-0.0204613748547899
 34
-0.0000000000112498
 15
401.9015223144154
 25
288.0165173112205
 35
0.0000000000002956
146
0.0
 13
0.0
 23
0.0
 33
0.0
 16
1.0
 26
0.0
 36
0.0
 17
0.0
 27
1.0
 37
0.0
 76
     0
330
15
331
23
  0
MLINESTYLE
  5
1C
102
{ACAD_REACTORS
330
1B
102
}
330
1B
100
AcDbMlineStyle
  2
STANDARD
 70
     0
  3

 62
   256
 51
90.0
 52
90.0
 71
     2
 49
0.5
 62
   256
  6
BYLAYER
 49
-0.5
 62
   256
  6
BYLAYER
  0
ACDBPLACEHOLDER
  5
FB5C
102
{ACAD_REACTORS
330
FB5B
102
}
330
FB5B
  0
DICTIONARYVAR
  5
106A7
102
{ACAD_REACTORS
330
106A6
102
}
330
106A6
100
DictionaryVariables
280
     0
  1
96
  0
XRECORD
  5
1A9A1
102
{ACAD_REACTORS
330
1A99F
102
}
330
1A99F
100
AcDbXrecord
280
     1
330
187D7
330
0
330
0
330
0
330
0
330
0
330
0
330
0
330
0
330
0
330
79
330
115F
330
0
330
0
330
0
330
0
330
0
330
0
330
0
330
0
330
0
330
0
330
0
330
0
330
0
330
0
330
0
330
0
330
0
330
0
330
0
330
0
330
0
330
0
330
0
330
0
330
0
330
0
330
0
330
0
330
0
330
0
330
0
330
0
  0
XRECORD
  5
283CE
102
{ACAD_REACTORS
330
283CD
102
}
330
283CD
100
AcDbXrecord
280
     1
  1
0
  1
*0
  1
*
  1
*
 70
     0
  1
*
  1
*
  0
XRECORD
  5
283CF
102
{ACAD_REACTORS
330
283CD
102
}
330
283CD
100
AcDbXrecord
280
     1
  1
11
  1
*11
  1
*
  1
*
 70
     0
  1
*
  1
*
  0
XRECORD
  5
283D0
102
{ACAD_REACTORS
330
283CD
102
}
330
283CD
100
AcDbXrecord
280
     1
  1
150_
  1
150_*
  1
*
  1
*
 70
     0
  1
*
  1
*
  0
XRECORD
  5
283D1
102
{ACAD_REACTORS
330
283CD
102
}
330
283CD
100
AcDbXrecord
280
     1
  1
160_
  1
160_*
  1
*
  1
*
 70
     0
  1
*
  1
*
  0
XRECORD
  5
283D2
102
{ACAD_REACTORS
330
283CD
102
}
330
283CD
100
AcDbXrecord
280
     1
  1
170_
  1
170_*
  1
*
  1
*
 70
     0
  1
*
  1
*
  0
XRECORD
  5
283D3
102
{ACAD_REACTORS
330
283CD
102
}
330
283CD
100
AcDbXrecord
280
     1
  1
171_
  1
171_*
  1
*
  1
*
 70
     0
  1
*
  1
*
  0
XRECORD
  5
283D4
102
{ACAD_REACTORS
330
283CD
102
}
330
283CD
100
AcDbXrecord
280
     1
  1
350_
  1
350_*
  1
*
  1
*
 70
     0
  1
*
  1
*
  0
XRECORD
  5
283D5
102
{ACAD_REACTORS
330
283CD
102
}
330
283CD
100
AcDbXrecord
280
     1
  1
4
  1
*4
  1
*
  1
*
 70
     0
  1
*
  1
*
  0
XRECORD
  5
283D6
102
{ACAD_REACTORS
330
283CD
102
}
330
283CD
100
AcDbXrecord
280
     1
  1
5
  1
*5
  1
*
  1
*
 70
     0
  1
*
  1
*
  0
XRECORD
  5
283D7
102
{ACAD_REACTORS
330
283CD
102
}
330
283CD
100
AcDbXrecord
280
     1
  1
7
  1
*7
  1
*
  1
*
 70
     0
  1
*
  1
*
  0
XRECORD
  5
283D8
102
{ACAD_REACTORS
330
283CD
102
}
330
283CD
100
AcDbXrecord
280
     1
  1
kiseki
  1
kiseki*
  1
*
  1
*
 70
     0
  1
*
  1
*
  0
ENDSEC
  0
EOF
