  0
SECTION
  2
HEADER
  9
$ACADVER
  1
AC1015
  9
$ACADMAINTVER
 70
    10
  9
$DWGCODEPAGE
  3
ANSI_932
  9
$INSBASE
 10
0.0
 20
0.0
 30
0.0
  9
$EXTMIN
 10
167.1825875009164
 20
-2700.735877685328
 30
0.0
  9
$EXTMAX
 10
1505.926601464171
 20
2218.451241203808
 30
137.5
  9
$LIMMIN
 10
0.0
 20
0.0
  9
$LIMMAX
 10
420.0
 20
297.0
  9
$ORTHOMODE
 70
     1
  9
$REGENMODE
 70
     1
  9
$FILLMODE
 70
     1
  9
$QTEXTMODE
 70
     0
  9
$MIRRTEXT
 70
     0
  9
$LTSCALE
 40
20.0
  9
$ATTMODE
 70
     2
  9
$TEXTSIZE
 40
2.5
  9
$TRACEWID
 40
1.0
  9
$TEXTSTYLE
  7
まこ
  9
$CLAYER
  8
dimension
  9
$CELTYPE
  6
BYLAYER
  9
$CECOLOR
 62
   256
  9
$CELTSCALE
 40
1.0
  9
$DISPSILH
 70
     0
  9
$DIMSCALE
 40
2.5
  9
$DIMASZ
 40
2.5
  9
$DIMEXO
 40
0.8
  9
$DIMDLI
 40
0.38
  9
$DIMRND
 40
0.0
  9
$DIMDLE
 40
0.0
  9
$DIMEXE
 40
0.18
  9
$DIMTP
 40
0.0
  9
$DIMTM
 40
0.0
  9
$DIMTXT
 40
3.0
  9
$DIMCEN
 40
0.0
  9
$DIMTSZ
 40
0.0
  9
$DIMTOL
 70
     0
  9
$DIMLIM
 70
     0
  9
$DIMTIH
 70
     0
  9
$DIMTOH
 70
     0
  9
$DIMSE1
 70
     0
  9
$DIMSE2
 70
     0
  9
$DIMTAD
 70
     3
  9
$DIMZIN
 70
     8
  9
$DIMBLK
  1
Open30
  9
$DIMASO
 70
     1
  9
$DIMSHO
 70
     1
  9
$DIMPOST
  1

  9
$DIMAPOST
  1

  9
$DIMALT
 70
     0
  9
$DIMALTD
 70
     2
  9
$DIMALTF
 40
25.4
  9
$DIMLFAC
 40
1.0
  9
$DIMTOFL
 70
     0
  9
$DIMTVP
 40
0.0
  9
$DIMTIX
 70
     0
  9
$DIMSOXD
 70
     0
  9
$DIMSAH
 70
     0
  9
$DIMBLK1
  1

  9
$DIMBLK2
  1

  9
$DIMSTYLE
  2
まこ
  9
$DIMCLRD
 70
     4
  9
$DIMCLRE
 70
     4
  9
$DIMCLRT
 70
   256
  9
$DIMTFAC
 40
1.0
  9
$DIMGAP
 40
0.5
  9
$DIMJUST
 70
     0
  9
$DIMSD1
 70
     0
  9
$DIMSD2
 70
     0
  9
$DIMTOLJ
 70
     1
  9
$DIMTZIN
 70
     0
  9
$DIMALTZ
 70
     0
  9
$DIMALTTZ
 70
     0
  9
$DIMUPT
 70
     0
  9
$DIMDEC
 70
     8
  9
$DIMTDEC
 70
     8
  9
$DIMALTU
 70
     2
  9
$DIMALTTD
 70
     2
  9
$DIMTXSTY
  7
まこ
  9
$DIMAUNIT
 70
     0
  9
$DIMADEC
 70
     0
  9
$DIMALTRND
 40
0.0
  9
$DIMAZIN
 70
     0
  9
$DIMDSEP
 70
    46
  9
$DIMATFIT
 70
     1
  9
$DIMFRAC
 70
     0
  9
$DIMLDRBLK
  1
Open30
  9
$DIMLUNIT
 70
     2
  9
$DIMLWD
 70
    13
  9
$DIMLWE
 70
    13
  9
$DIMTMOVE
 70
     0
  9
$LUNITS
 70
     2
  9
$LUPREC
 70
     4
  9
$SKETCHINC
 40
1.0
  9
$FILLETRAD
 40
2.0
  9
$AUNITS
 70
     0
  9
$AUPREC
 70
     0
  9
$MENU
  1
.
  9
$ELEVATION
 40
0.0
  9
$PELEVATION
 40
0.0
  9
$THICKNESS
 40
0.0
  9
$LIMCHECK
 70
     0
  9
$CHAMFERA
 40
0.5
  9
$CHAMFERB
 40
0.5
  9
$CHAMFERC
 40
20.0
  9
$CHAMFERD
 40
0.0
  9
$SKPOLY
 70
     0
  9
$TDCREATE
 40
2451224.660162384
  9
$TDUCREATE
 40
2451224.285162384
  9
$TDUPDATE
 40
2456589.401461585
  9
$TDUUPDATE
 40
2456589.026461585
  9
$TDINDWG
 40
16.5431199884
  9
$TDUSRTIMER
 40
16.5431199884
  9
$USRTIMER
 70
     1
  9
$ANGBASE
 50
0.0
  9
$ANGDIR
 70
     0
  9
$PDMODE
 70
     0
  9
$PDSIZE
 40
0.0
  9
$PLINEWID
 40
0.0
  9
$SPLFRAME
 70
     0
  9
$SPLINETYPE
 70
     6
  9
$SPLINESEGS
 70
     8
  9
$HANDSEED
  5
25631
  9
$SURFTAB1
 70
     6
  9
$SURFTAB2
 70
     6
  9
$SURFTYPE
 70
     6
  9
$SURFU
 70
     6
  9
$SURFV
 70
     6
  9
$UCSBASE
  2

  9
$UCSNAME
  2

  9
$UCSORG
 10
0.0
 20
0.0
 30
0.0
  9
$UCSXDIR
 10
1.0
 20
0.0
 30
0.0
  9
$UCSYDIR
 10
0.0
 20
1.0
 30
0.0
  9
$UCSORTHOREF
  2

  9
$UCSORTHOVIEW
 70
     0
  9
$UCSORGTOP
 10
0.0
 20
0.0
 30
0.0
  9
$UCSORGBOTTOM
 10
0.0
 20
0.0
 30
0.0
  9
$UCSORGLEFT
 10
0.0
 20
0.0
 30
0.0
  9
$UCSORGRIGHT
 10
0.0
 20
0.0
 30
0.0
  9
$UCSORGFRONT
 10
0.0
 20
0.0
 30
0.0
  9
$UCSORGBACK
 10
0.0
 20
0.0
 30
0.0
  9
$PUCSBASE
  2

  9
$PUCSNAME
  2

  9
$PUCSORG
 10
0.0
 20
0.0
 30
0.0
  9
$PUCSXDIR
 10
1.0
 20
0.0
 30
0.0
  9
$PUCSYDIR
 10
0.0
 20
1.0
 30
0.0
  9
$PUCSORTHOREF
  2

  9
$PUCSORTHOVIEW
 70
     0
  9
$PUCSORGTOP
 10
0.0
 20
0.0
 30
0.0
  9
$PUCSORGBOTTOM
 10
0.0
 20
0.0
 30
0.0
  9
$PUCSORGLEFT
 10
0.0
 20
0.0
 30
0.0
  9
$PUCSORGRIGHT
 10
0.0
 20
0.0
 30
0.0
  9
$PUCSORGFRONT
 10
0.0
 20
0.0
 30
0.0
  9
$PUCSORGBACK
 10
0.0
 20
0.0
 30
0.0
  9
$USERI1
 70
     0
  9
$USERI2
 70
     0
  9
$USERI3
 70
     0
  9
$USERI4
 70
     0
  9
$USERI5
 70
     0
  9
$USERR1
 40
245.9999999999999
  9
$USERR2
 40
0.0
  9
$USERR3
 40
0.0
  9
$USERR4
 40
0.0
  9
$USERR5
 40
0.0
  9
$WORLDVIEW
 70
     1
  9
$SHADEDGE
 70
     3
  9
$SHADEDIF
 70
    70
  9
$TILEMODE
 70
     0
  9
$MAXACTVP
 70
    48
  9
$PINSBASE
 10
0.0
 20
0.0
 30
0.0
  9
$PLIMCHECK
 70
     0
  9
$PEXTMIN
 10
-0.0276607253074417
 20
-0.0054154686091579
 30
-0.0000000000112498
  9
$PEXTMAX
 10
400.0161272263867
 20
288.0089063324641
 30
0.0000000000002956
  9
$PLIMMIN
 10
-11.99757675684418
 20
-5.230093841528383
  9
$PLIMMAX
 10
407.9490785165932
 20
291.7382289123778
  9
$UNITMODE
 70
     0
  9
$VISRETAIN
 70
     1
  9
$PLINEGEN
 70
     0
  9
$PSLTSCALE
 70
     0
  9
$TREEDEPTH
 70
  3020
  9
$CMLSTYLE
  2
STANDARD
  9
$CMLJUST
 70
     0
  9
$CMLSCALE
 40
20.0
  9
$PROXYGRAPHICS
 70
     1
  9
$MEASUREMENT
 70
     0
  9
$CELWEIGHT
370
    -1
  9
$ENDCAPS
280
     0
  9
$JOINSTYLE
280
     0
  9
$LWDISPLAY
290
     0
  9
$INSUNITS
 70
     0
  9
$HYPERLINKBASE
  1

  9
$STYLESHEET
  1
monochrome.ctb
  9
$XEDIT
290
     1
  9
$CEPSNTYPE
380
     0
  9
$PSTYLEMODE
290
     1
  9
$FINGERPRINTGUID
  2
{D14EE3FF-941A-415A-9907-344E0A80D794}
  9
$VERSIONGUID
  2
{7E3BEA62-714A-452F-91DE-1DD75F6EBC94}
  9
$EXTNAMES
290
     1
  9
$PSVPSCALE
 40
0.0
  9
$OLESTARTUP
290
     0
  0
ENDSEC
  0
SECTION
  2
CLASSES
  0
CLASS
  1
HATCH
  2
AcDbHatch
  3
AutoCAD 2000
 90
    32768
280
     0
281
     1
  0
CLASS
  1
LWPOLYLINE
  2
AcDbPolyline
  3
AutoCAD 2000
 90
    32768
280
     0
281
     1
  0
CLASS
  1
ACDBDICTIONARYWDFLT
  2
AcDbDictionaryWithDefault
  3
AutoCAD 2000
 90
        0
280
     0
281
     0
  0
CLASS
  1
ACDBPLACEHOLDER
  2
AcDbPlaceHolder
  3
AutoCAD 2000
 90
        0
280
     0
281
     0
  0
CLASS
  1
LAYOUT
  2
AcDbLayout
  3
AutoCAD 2000
 90
        0
280
     0
281
     0
  0
CLASS
  1
LONG_TRANSACTION
  2
AcDbLongTransaction
  3
AutoCAD 2000
 90
    32768
280
     0
281
     0
  0
CLASS
  1
LWPOLYLINE
  2
AcDbPolyline
  3
AutoCAD 2000
 90
    32768
280
     0
281
     1
  0
CLASS
  1
HATCH
  2
AcDbHatch
  3
AutoCAD 2000
 90
    32768
280
     0
281
     1
  0
CLASS
  1
XRECORD
  2
AcDbXrecord
  3
AutoCAD 2000
 90
    32768
280
     0
281
     0
  0
CLASS
  1
DICTIONARYVAR
  2
AcDbDictionaryVar
  3
AutoCAD 2000
 90
        0
280
     0
281
     0
  0
ENDSEC
  0
SECTION
  2
TABLES
  0
TABLE
  2
VPORT
  5
8
330
0
100
AcDbSymbolTable
 70
     2
  0
VPORT
  5
2562A
330
8
100
AcDbSymbolTableRecord
100
AcDbViewportTableRecord
  2
*Active
 70
     0
 10
0.0
 20
0.0
 11
1.0
 21
1.0
 12
1012.725497416088
 22
-2558.684652068061
 13
0.0
 23
0.0
 14
10.0
 24
10.0
 15
10.0
 25
10.0
 16
0.0
 26
0.0
 36
1.0
 17
0.0
 27
0.0
 37
0.0
 40
490.0065461780368
 41
1.992047713717693
 42
50.0
 43
0.0
 44
0.0
 50
0.0
 51
0.0
 71
     0
 72
   100
 73
     1
 74
     0
 75
     0
 76
     0
 77
     0
 78
     0
281
     0
 65
     1
110
0.0
120
0.0
130
0.0
111
1.0
121
0.0
131
0.0
112
0.0
122
1.0
132
0.0
 79
     0
146
0.0
  0
ENDTAB
  0
TABLE
  2
LTYPE
  5
5
330
0
100
AcDbSymbolTable
 70
    10
  0
LTYPE
  5
12
330
5
100
AcDbSymbolTableRecord
100
AcDbLinetypeTableRecord
  2
BYBLOCK
 70
     0
  3

 72
    65
 73
     0
 40
0.0
  0
LTYPE
  5
13
330
5
100
AcDbSymbolTableRecord
100
AcDbLinetypeTableRecord
  2
BYLAYER
 70
     0
  3

 72
    65
 73
     0
 40
0.0
  0
LTYPE
  5
14
330
5
100
AcDbSymbolTableRecord
100
AcDbLinetypeTableRecord
  2
CONTINUOUS
 70
     0
  3
Solid line
 72
    65
 73
     0
 40
0.0
  0
LTYPE
  5
126C
330
5
100
AcDbSymbolTableRecord
100
AcDbLinetypeTableRecord
  2
CENTER
 70
     0
  3
____ _ ____ _ ____ _ ____ _ ____ _ ____ _ ____
 72
    65
 73
     4
 40
2.0
 49
1.25
 74
     0
 49
-0.25
 74
     0
 49
0.25
 74
     0
 49
-0.25
 74
     0
  0
LTYPE
  5
126E
330
5
100
AcDbSymbolTableRecord
100
AcDbLinetypeTableRecord
  2
DASHDOT
 70
     0
  3
__ . __ . __ . __ . __ . __ . __ . __ . __ . __
 72
    65
 73
     4
 40
1.0
 49
0.5
 74
     0
 49
-0.25
 74
     0
 49
0.0
 74
     0
 49
-0.25
 74
     0
  0
LTYPE
  5
1541F
330
5
100
AcDbSymbolTableRecord
100
AcDbLinetypeTableRecord
  2
HIDDEN
 70
     0
  3
_ _ _ _ _ _ _ _ _ _ _ _ _ _ _ _ _ _ _ _ _ _ _
 72
    65
 73
     2
 40
0.375
 49
0.25
 74
     0
 49
-0.125
 74
     0
  0
LTYPE
  5
1615D
330
5
100
AcDbSymbolTableRecord
100
AcDbLinetypeTableRecord
  2
PHANTOM
 70
     0
  3
Phantom ______  __  __  ______  __  __  ______
 72
    65
 73
     6
 40
2.5
 49
1.25
 74
     0
 49
-0.25
 74
     0
 49
0.25
 74
     0
 49
-0.25
 74
     0
 49
0.25
 74
     0
 49
-0.25
 74
     0
  0
ENDTAB
  0
TABLE
  2
LAYER
  5
2
102
{ACAD_XDICTIONARY
360
25419
102
}
330
0
100
AcDbSymbolTable
 70
    44
  0
LAYER
  5
E
330
2
100
AcDbSymbolTableRecord
100
AcDbLayerTableRecord
  2
0
 70
     2
 62
     7
  6
CONTINUOUS
370
    35
390
FB5C
  0
LAYER
  5
2C
330
2
100
AcDbSymbolTableRecord
100
AcDbLayerTableRecord
  2
M_VIEW
 70
     4
 62
    -1
  6
CONTINUOUS
370
    -3
390
FB5C
  0
LAYER
  5
30
330
2
100
AcDbSymbolTableRecord
100
AcDbLayerTableRecord
  2
FRAME025
 70
     0
 62
     7
  6
CONTINUOUS
370
    -3
390
FB5C
  0
LAYER
  5
12B
330
2
100
AcDbSymbolTableRecord
100
AcDbLayerTableRecord
  2
DEFPOINTS
 70
     4
 62
    -7
  6
CONTINUOUS
290
     0
370
    -3
390
FB5C
  0
LAYER
  5
651
330
2
100
AcDbSymbolTableRecord
100
AcDbLayerTableRecord
  2
FRAME020
 70
     0
 62
     7
  6
CONTINUOUS
370
    -3
390
FB5C
  0
LAYER
  5
1271
330
2
100
AcDbSymbolTableRecord
100
AcDbLayerTableRecord
  2
A
 70
     0
 62
     7
  6
CONTINUOUS
370
    -3
390
FB5C
  0
LAYER
  5
A9BB
330
2
100
AcDbSymbolTableRecord
100
AcDbLayerTableRecord
  2
文字
 70
     0
 62
     2
  6
CONTINUOUS
370
    13
390
FB5C
  0
LAYER
  5
122DE
330
2
100
AcDbSymbolTableRecord
100
AcDbLayerTableRecord
  2
dimension
 70
     0
 62
     4
  6
CONTINUOUS
370
    13
390
FB5C
  0
LAYER
  5
15422
330
2
100
AcDbSymbolTableRecord
100
AcDbLayerTableRecord
  2
細線
 70
     0
 62
     4
  6
CONTINUOUS
370
    13
390
FB5C
  0
LAYER
  5
1A846
330
2
100
AcDbSymbolTableRecord
100
AcDbLayerTableRecord
  2
実線
 70
     0
 62
     3
  6
CONTINUOUS
370
    40
390
FB5C
  0
LAYER
  5
1BB4F
330
2
100
AcDbSymbolTableRecord
100
AcDbLayerTableRecord
  2
隠れ線
 70
     0
 62
   252
  6
HIDDEN
370
     9
390
FB5C
  0
LAYER
  5
1BB52
330
2
100
AcDbSymbolTableRecord
100
AcDbLayerTableRecord
  2
基板
 70
     0
 62
   141
  6
CONTINUOUS
370
    40
390
FB5C
  0
LAYER
  5
1F118
330
2
100
AcDbSymbolTableRecord
100
AcDbLayerTableRecord
  2
wakumoji
 70
     0
 62
     7
  6
CONTINUOUS
370
    -3
390
FB5C
  0
ENDTAB
  0
TABLE
  2
STYLE
  5
3
330
0
100
AcDbSymbolTable
 70
    15
  0
STYLE
  5
F
330
3
100
AcDbSymbolTableRecord
100
AcDbTextStyleTableRecord
  2
STANDARD
 70
     0
 40
0.0
 41
1.0
 50
0.0
 71
     0
 42
2.5
  3
MS Gothic.ttf
  4

1001
ACAD
1000
MS Gothic
1071
    32817
  0
STYLE
  5
34
330
3
100
AcDbSymbolTableRecord
100
AcDbTextStyleTableRecord
  2
TIMESNR
 70
     0
 40
0.0
 41
1.0
 50
0.0
 71
     0
 42
2.0
  3
MS Gothic.ttf
  4

1001
ACAD
1000
MS Gothic
1071
    32817
  0
STYLE
  5
35
330
3
100
AcDbSymbolTableRecord
100
AcDbTextStyleTableRecord
  2
MSｺﾞｼｯｸ
 70
     0
 40
0.0
 41
1.0
 50
0.0
 71
     0
 42
5.0
  3
MS Gothic.ttf
  4

1001
ACAD
1000
MS Gothic
1071
    32817
  0
STYLE
  5
1275
330
3
100
AcDbSymbolTableRecord
100
AcDbTextStyleTableRecord
  2
BIGFONT
 70
     0
 40
2.0
 41
1.0
 50
0.0
 71
     0
 42
2.0
  3
MS Gothic.ttf
  4

1001
ACAD
1000
MS Gothic
1071
    32817
  0
STYLE
  5
1A849
330
3
100
AcDbSymbolTableRecord
100
AcDbTextStyleTableRecord
  2
まこ
 70
     0
 40
0.0
 41
1.0
 50
0.0
 71
     0
 42
2.5
  3
MS Gothic.ttf
  4

1001
ACAD
1000
MS Gothic
1071
    32817
  0
STYLE
  5
1A84A
330
3
100
AcDbSymbolTableRecord
100
AcDbTextStyleTableRecord
  2
ｽﾀｲﾙ3
 70
     0
 40
10.0
 41
1.0
 50
0.0
 71
     0
 42
10.0
  3
MS Gothic.ttf
  4

1001
ACAD
1000
MS Gothic
1071
    32817
  0
STYLE
  5
1F8B3
330
3
100
AcDbSymbolTableRecord
100
AcDbTextStyleTableRecord
  2
MSｺﾞｼｯｸN
 70
     0
 40
0.0
 41
1.0
 50
0.0
 71
     0
 42
5.0
  3
MS Gothic.ttf
  4

1001
ACAD
1000
MS Gothic
1071
    32817
  0
STYLE
  5
1FA56
330
3
100
AcDbSymbolTableRecord
100
AcDbTextStyleTableRecord
  2
MSゴシックN
 70
     0
 40
0.0
 41
1.0
 50
0.0
 71
     0
 42
5.0
  3
MS Gothic.ttf
  4

1001
ACAD
1000
MS Gothic
1071
    32817
  0
ENDTAB
  0
TABLE
  2
VIEW
  5
6
330
0
100
AcDbSymbolTable
 70
     0
  0
ENDTAB
  0
TABLE
  2
UCS
  5
7
330
0
100
AcDbSymbolTable
 70
     0
  0
ENDTAB
  0
TABLE
  2
APPID
  5
9
330
0
100
AcDbSymbolTable
 70
     4
  0
APPID
  5
10
330
9
100
AcDbSymbolTableRecord
100
AcDbRegAppTableRecord
  2
ACAD
 70
     0
  0
APPID
  5
F013
330
9
100
AcDbSymbolTableRecord
100
AcDbRegAppTableRecord
  2
CONTENTBLOCKDESCRIPTION
 70
     0
  0
APPID
  5
F014
330
9
100
AcDbSymbolTableRecord
100
AcDbRegAppTableRecord
  2
CONTENTBLOCKICON
 70
     0
  0
APPID
  5
1A9A0
330
9
100
AcDbSymbolTableRecord
100
AcDbRegAppTableRecord
  2
DCO15
 70
     0
  0
ENDTAB
  0
TABLE
  2
DIMSTYLE
  5
A
330
0
100
AcDbSymbolTable
 70
    13
100
AcDbDimStyleTable
 71
     2
340
1A84D
340
1D
  0
DIMSTYLE
105
1D
330
A
100
AcDbSymbolTableRecord
100
AcDbDimStyleTableRecord
  2
STANDARD
 70
     0
340
F
  0
DIMSTYLE
105
1A84D
102
{ACAD_REACTORS
330
2439B
330
244A2
330
243A6
330
2439C
330
2439D
330
24520
330
244CE
330
24436
330
243A0
330
24521
330
2454C
330
244FC
330
244FD
330
24561
330
2451F
330
2442B
330
24E0A
330
24E21
330
24E2E
330
243AA
330
2440F
330
244F8
330
24562
330
24840
330
24E48
330
24560
330
25351
102
}
330
A
100
AcDbSymbolTableRecord
100
AcDbDimStyleTableRecord
  2
まこ
 70
     0
 40
2.5
 41
2.5
 42
0.8
 73
     0
 74
     0
 77
     3
 78
     8
140
3.0
141
0.0
147
0.5
176
     4
177
     4
178
   256
271
     8
272
     8
289
     1
340
1A849
341
1215D
342
1215D
371
    13
372
    13
  0
ENDTAB
  0
TABLE
  2
BLOCK_RECORD
  5
1
330
0
100
AcDbSymbolTable
 70
    45
  0
BLOCK_RECORD
  5
18
102
{ACAD_XDICTIONARY
360
EFC6
102
}
330
1
100
AcDbSymbolTableRecord
100
AcDbBlockTableRecord
  2
*MODEL_SPACE
340
FB5D
  0
BLOCK_RECORD
  5
15
102
{ACAD_XDICTIONARY
360
EFC4
102
}
330
1
100
AcDbSymbolTableRecord
100
AcDbBlockTableRecord
  2
*PAPER_SPACE
340
FB5E
  0
BLOCK_RECORD
  5
115C
330
1
100
AcDbSymbolTableRecord
100
AcDbBlockTableRecord
  2
機械A4横_LBP
340
0
102
{BLKREFS
331
115F
331
187D7
102
}
  0
BLOCK_RECORD
  5
1215D
330
1
100
AcDbSymbolTableRecord
100
AcDbBlockTableRecord
  2
_Open30
340
0
102
{BLKREFS
331
24FD0
331
24FD1
331
24FEF
331
24FF0
331
250A3
331
250A4
331
250C0
331
250C1
331
250D2
331
250D3
331
250DB
331
250DC
331
250E5
331
250E6
331
250EE
331
250EF
331
250F7
331
250F8
331
25109
331
2510A
331
2511B
331
2511C
331
25226
331
25227
331
2522F
331
25230
331
25238
331
25239
331
252C6
331
252C7
331
252DB
331
252DC
331
252F0
331
252F1
331
253AB
331
253DF
331
25478
331
25479
331
25598
331
25599
102
}
  0
BLOCK_RECORD
  5
153E2
330
1
100
AcDbSymbolTableRecord
100
AcDbBlockTableRecord
  2
_DotSmall
340
0
102
{BLKREFS
331
253AC
331
253E0
102
}
  0
BLOCK_RECORD
  5
2457A
330
1
100
AcDbSymbolTableRecord
100
AcDbBlockTableRecord
  2
*D22
340
0
  0
BLOCK_RECORD
  5
24586
330
1
100
AcDbSymbolTableRecord
100
AcDbBlockTableRecord
  2
*D23
340
0
  0
BLOCK_RECORD
  5
24592
330
1
100
AcDbSymbolTableRecord
100
AcDbBlockTableRecord
  2
*D24
340
0
  0
BLOCK_RECORD
  5
2459E
330
1
100
AcDbSymbolTableRecord
100
AcDbBlockTableRecord
  2
*D25
340
0
  0
BLOCK_RECORD
  5
245B7
330
1
100
AcDbSymbolTableRecord
100
AcDbBlockTableRecord
  2
*D26
340
0
  0
BLOCK_RECORD
  5
245C3
330
1
100
AcDbSymbolTableRecord
100
AcDbBlockTableRecord
  2
*D27
340
0
  0
BLOCK_RECORD
  5
245CF
330
1
100
AcDbSymbolTableRecord
100
AcDbBlockTableRecord
  2
*D28
340
0
  0
BLOCK_RECORD
  5
245DB
330
1
100
AcDbSymbolTableRecord
100
AcDbBlockTableRecord
  2
*D29
340
0
  0
BLOCK_RECORD
  5
245E7
330
1
100
AcDbSymbolTableRecord
100
AcDbBlockTableRecord
  2
*D30
340
0
  0
BLOCK_RECORD
  5
245F4
330
1
100
AcDbSymbolTableRecord
100
AcDbBlockTableRecord
  2
*D31
340
0
  0
BLOCK_RECORD
  5
24600
330
1
100
AcDbSymbolTableRecord
100
AcDbBlockTableRecord
  2
*D32
340
0
  0
BLOCK_RECORD
  5
2460D
330
1
100
AcDbSymbolTableRecord
100
AcDbBlockTableRecord
  2
*D33
340
0
  0
BLOCK_RECORD
  5
24619
330
1
100
AcDbSymbolTableRecord
100
AcDbBlockTableRecord
  2
*D34
340
0
  0
BLOCK_RECORD
  5
24631
330
1
100
AcDbSymbolTableRecord
100
AcDbBlockTableRecord
  2
*D35
340
0
  0
BLOCK_RECORD
  5
24641
330
1
100
AcDbSymbolTableRecord
100
AcDbBlockTableRecord
  2
*D36
340
0
  0
BLOCK_RECORD
  5
2464D
330
1
100
AcDbSymbolTableRecord
100
AcDbBlockTableRecord
  2
*D37
340
0
  0
BLOCK_RECORD
  5
24659
330
1
100
AcDbSymbolTableRecord
100
AcDbBlockTableRecord
  2
*D38
340
0
  0
BLOCK_RECORD
  5
24E0B
330
1
100
AcDbSymbolTableRecord
100
AcDbBlockTableRecord
  2
*D39
340
0
  0
BLOCK_RECORD
  5
24E22
330
1
100
AcDbSymbolTableRecord
100
AcDbBlockTableRecord
  2
*D40
340
0
  0
BLOCK_RECORD
  5
24E2F
330
1
100
AcDbSymbolTableRecord
100
AcDbBlockTableRecord
  2
*D41
340
0
  0
BLOCK_RECORD
  5
25352
330
1
100
AcDbSymbolTableRecord
100
AcDbBlockTableRecord
  2
*D42
340
0
  0
ENDTAB
  0
ENDSEC
  0
SECTION
  2
BLOCKS
  0
BLOCK
  5
19
330
18
100
AcDbEntity
  8
0
100
AcDbBlockBegin
  2
*MODEL_SPACE
 70
     0
 10
0.0
 20
0.0
 30
0.0
  3
*MODEL_SPACE
  1

  0
ENDBLK
  5
1A
330
18
100
AcDbEntity
  8
0
100
AcDbBlockEnd
  0
BLOCK
  5
16
330
15
100
AcDbEntity
 67
     1
  8
0
100
AcDbBlockBegin
  2
*PAPER_SPACE
 70
     0
 10
0.0
 20
0.0
 30
0.0
  3
*PAPER_SPACE
  1

  0
ENDBLK
  5
17
330
15
100
AcDbEntity
 67
     1
  8
0
100
AcDbBlockEnd
  0
BLOCK
  5
115D
330
115C
100
AcDbEntity
  8
0
100
AcDbBlockBegin
  2
機械A4横_LBP
 70
     0
 10
0.0
 20
0.0
 30
0.0
  3
機械A4横_LBP
  1

  0
ENDBLK
  5
115E
330
115C
100
AcDbEntity
  8
0
100
AcDbBlockEnd
  0
BLOCK
  5
12161
330
1215D
100
AcDbEntity
  8
0
100
AcDbBlockBegin
  2
_Open30
 70
     0
 10
0.0
 20
0.0
 30
0.0
  3
_Open30
  1

  0
LINE
  5
1215E
330
1215D
100
AcDbEntity
  8
0
  6
ByBlock
 62
     0
370
    -2
100
AcDbLine
 10
-1.0
 20
0.26794919
 30
0.0
 11
0.0
 21
0.0
 31
0.0
  0
LINE
  5
1215F
330
1215D
100
AcDbEntity
  8
0
  6
ByBlock
 62
     0
370
    -2
100
AcDbLine
 10
0.0
 20
0.0
 30
0.0
 11
-1.0
 21
-0.26794919
 31
0.0
  0
LINE
  5
12160
330
1215D
100
AcDbEntity
  8
0
  6
ByBlock
 62
     0
370
    -2
100
AcDbLine
 10
0.0
 20
0.0
 30
0.0
 11
-1.0
 21
0.0
 31
0.0
  0
ENDBLK
  5
12162
330
1215D
100
AcDbEntity
  8
0
100
AcDbBlockEnd
  0
BLOCK
  5
153E4
330
153E2
100
AcDbEntity
  8
0
100
AcDbBlockBegin
  2
_DotSmall
 70
     0
 10
0.0
 20
0.0
 30
0.0
  3
_DotSmall
  1

  0
LWPOLYLINE
  5
153E3
330
153E2
100
AcDbEntity
  8
0
  6
ByBlock
 62
     0
100
AcDbPolyline
 90
        2
 70
     1
 43
0.5
 10
-0.0625
 20
0.0
 42
1.0
 10
0.0625
 20
0.0
 42
1.0
  0
ENDBLK
  5
153E5
330
153E2
100
AcDbEntity
  8
0
100
AcDbBlockEnd
  0
BLOCK
  5
24584
330
2457A
100
AcDbEntity
  8
0
370
    13
100
AcDbBlockBegin
  2
*D22
 70
     1
 10
0.0
 20
0.0
 30
0.0
  3
*D22
  1

  0
LINE
  5
2522C
330
2457A
100
AcDbEntity
  8
文字
 62
     4
370
    13
100
AcDbLine
 10
694.6595275678443
 20
-2515.526749340431
 30
0.0
 11
646.1001991536529
 21
-2515.526749340431
 31
0.0
  0
LINE
  5
2522D
330
2457A
100
AcDbEntity
  8
文字
 62
     4
370
    13
100
AcDbLine
 10
694.6595275678443
 20
-2580.526749340432
 30
0.0
 11
646.1001991536529
 21
-2580.526749340432
 31
0.0
  0
LINE
  5
2522E
330
2457A
100
AcDbEntity
  8
文字
 62
     4
370
    13
100
AcDbLine
 10
646.5501991536529
 20
-2521.776749340431
 30
0.0
 11
646.5501991536529
 21
-2574.276749340432
 31
0.0
  0
INSERT
  5
2522F
330
2457A
100
AcDbEntity
  8
文字
 62
     4
370
    13
100
AcDbBlockReference
  2
_Open30
 10
646.5501991536529
 20
-2515.526749340431
 30
0.0
 41
6.25
 42
6.25
 43
6.25
 50
90.0
  0
INSERT
  5
25230
330
2457A
100
AcDbEntity
  8
文字
 62
     4
370
    13
100
AcDbBlockReference
  2
_Open30
 10
646.5501991536529
 20
-2580.526749340432
 30
0.0
 41
6.25
 42
6.25
 43
6.25
 50
270.0
  0
MTEXT
  5
25231
330
2457A
100
AcDbEntity
  8
文字
370
    13
100
AcDbMText
 10
641.5501991536534
 20
-2548.026749340431
 30
0.0
 40
7.5
 41
0.0
 71
     5
 72
     1
  1
\A1;65
  7
まこ
 11
0.0000000000000001
 21
1.0
 31
0.0
 73
     1
 44
1.0
  0
POINT
  5
25232
330
2457A
100
AcDbEntity
  8
DEFPOINTS
 62
     0
370
    13
100
AcDbPoint
 10
696.6595275678444
 20
-2515.526749340431
 30
0.0
  0
POINT
  5
25233
330
2457A
100
AcDbEntity
  8
DEFPOINTS
 62
     0
370
    13
100
AcDbPoint
 10
696.6595275678444
 20
-2580.526749340432
 30
0.0
  0
POINT
  5
25234
330
2457A
100
AcDbEntity
  8
DEFPOINTS
 62
     0
370
    13
100
AcDbPoint
 10
646.5501991536529
 20
-2580.526749340432
 30
0.0
  0
ENDBLK
  5
24585
330
2457A
100
AcDbEntity
  8
0
370
    13
100
AcDbBlockEnd
  0
BLOCK
  5
24590
330
24586
100
AcDbEntity
  8
0
370
    13
100
AcDbBlockBegin
  2
*D23
 70
     1
 10
0.0
 20
0.0
 30
0.0
  3
*D23
  1

  0
LINE
  5
250F4
330
24586
100
AcDbEntity
  8
文字
 62
     4
370
    13
100
AcDbLine
 10
700.9078331117836
 20
-2586.19285428557
 30
0.0
 11
700.9078331117836
 21
-2619.043522282292
 31
0.0
  0
LINE
  5
250F5
330
24586
100
AcDbEntity
  8
文字
 62
     4
370
    13
100
AcDbLine
 10
1148.907833111783
 20
-2586.124590644009
 30
0.0
 11
1148.907833111783
 21
-2619.043522282292
 31
0.0
  0
LINE
  5
250F6
330
24586
100
AcDbEntity
  8
文字
 62
     4
370
    13
100
AcDbLine
 10
707.1578331117836
 20
-2618.593522282292
 30
0.0
 11
1142.657833111783
 21
-2618.593522282292
 31
0.0
  0
INSERT
  5
250F7
330
24586
100
AcDbEntity
  8
文字
 62
     4
370
    13
100
AcDbBlockReference
  2
_Open30
 10
700.9078331117836
 20
-2618.593522282292
 30
0.0
 41
6.25
 42
6.25
 43
6.25
 50
180.0
  0
INSERT
  5
250F8
330
24586
100
AcDbEntity
  8
文字
 62
     4
370
    13
100
AcDbBlockReference
  2
_Open30
 10
1148.907833111783
 20
-2618.593522282292
 30
0.0
 41
6.25
 42
6.25
 43
6.25
  0
MTEXT
  5
250F9
330
24586
100
AcDbEntity
  8
文字
370
    13
100
AcDbMText
 10
924.9078331117837
 20
-2613.593522282292
 30
0.0
 40
7.5
 41
0.0
 71
     5
 72
     1
  1
\A1;7xP64=448
  7
まこ
 73
     1
 44
1.0
  0
POINT
  5
250FA
330
24586
100
AcDbEntity
  8
DEFPOINTS
 62
     0
370
    13
100
AcDbPoint
 10
700.9078331117836
 20
-2584.19285428557
 30
0.0
  0
POINT
  5
250FB
330
24586
100
AcDbEntity
  8
DEFPOINTS
 62
     0
370
    13
100
AcDbPoint
 10
1148.907833111783
 20
-2584.124590644009
 30
0.0
  0
POINT
  5
250FC
330
24586
100
AcDbEntity
  8
DEFPOINTS
 62
     0
370
    13
100
AcDbPoint
 10
1148.907833111783
 20
-2618.593522282292
 30
0.0
  0
ENDBLK
  5
24591
330
24586
100
AcDbEntity
  8
0
370
    13
100
AcDbBlockEnd
  0
BLOCK
  5
2459C
330
24592
100
AcDbEntity
  8
0
370
    13
100
AcDbBlockBegin
  2
*D24
 70
     1
 10
0.0
 20
0.0
 30
0.0
  3
*D24
  1

  0
LINE
  5
250EB
330
24592
100
AcDbEntity
  8
文字
 62
     4
370
    13
100
AcDbLine
 10
670.9078331117835
 20
-2590.012766654611
 30
0.0
 11
670.9078331117835
 21
-2629.679284265707
 31
0.0
  0
LINE
  5
250EC
330
24592
100
AcDbEntity
  8
文字
 62
     4
370
    13
100
AcDbLine
 10
1178.907833111783
 20
-2590.012766654612
 30
0.0
 11
1178.907833111783
 21
-2629.679284265707
 31
0.0
  0
LINE
  5
250ED
330
24592
100
AcDbEntity
  8
文字
 62
     4
370
    13
100
AcDbLine
 10
677.1578331117835
 20
-2629.229284265707
 30
0.0
 11
1172.657833111783
 21
-2629.229284265707
 31
0.0
  0
INSERT
  5
250EE
330
24592
100
AcDbEntity
  8
文字
 62
     4
370
    13
100
AcDbBlockReference
  2
_Open30
 10
670.9078331117835
 20
-2629.229284265707
 30
0.0
 41
6.25
 42
6.25
 43
6.25
 50
180.0
  0
INSERT
  5
250EF
330
24592
100
AcDbEntity
  8
文字
 62
     4
370
    13
100
AcDbBlockReference
  2
_Open30
 10
1178.907833111783
 20
-2629.229284265707
 30
0.0
 41
6.25
 42
6.25
 43
6.25
  0
MTEXT
  5
250F0
330
24592
100
AcDbEntity
  8
文字
370
    13
100
AcDbMText
 10
924.9078331117834
 20
-2624.229284265707
 30
0.0
 40
7.5
 41
0.0
 71
     5
 72
     1
  1
\A1;508
  7
まこ
 73
     1
 44
1.0
  0
POINT
  5
250F1
330
24592
100
AcDbEntity
  8
DEFPOINTS
 62
     0
370
    13
100
AcDbPoint
 10
670.9078331117835
 20
-2588.012766654612
 30
0.0
  0
POINT
  5
250F2
330
24592
100
AcDbEntity
  8
DEFPOINTS
 62
     0
370
    13
100
AcDbPoint
 10
1178.907833111783
 20
-2588.012766654612
 30
0.0
  0
POINT
  5
250F3
330
24592
100
AcDbEntity
  8
DEFPOINTS
 62
     0
370
    13
100
AcDbPoint
 10
1178.907833111783
 20
-2629.229284265707
 30
0.0
  0
ENDBLK
  5
2459D
330
24592
100
AcDbEntity
  8
0
370
    13
100
AcDbBlockEnd
  0
BLOCK
  5
245A9
330
2459E
100
AcDbEntity
  8
0
370
    13
100
AcDbBlockBegin
  2
*D25
 70
     1
 10
0.0
 20
0.0
 30
0.0
  3
*D25
  1

  0
LINE
  5
25222
330
2459E
100
AcDbEntity
  8
文字
 62
     4
370
    13
100
AcDbLine
 10
694.6595275678443
 20
-2580.526749340432
 30
0.0
 11
646.1001991536529
 21
-2580.526749340432
 31
0.0
  0
LINE
  5
25223
330
2459E
100
AcDbEntity
  8
文字
 62
     4
370
    13
100
AcDbLine
 10
668.9078331117834
 20
-2588.026749340432
 30
0.0
 11
646.1001991536529
 21
-2588.026749340432
 31
0.0
  0
LINE
  5
25224
330
2459E
100
AcDbEntity
  8
文字
 62
     4
370
    13
100
AcDbLine
 10
646.5501991536529
 20
-2574.276749340432
 30
0.0
 11
646.5501991536529
 21
-2568.026749340432
 31
0.0
  0
LINE
  5
25225
330
2459E
100
AcDbEntity
  8
文字
 62
     4
370
    13
100
AcDbLine
 10
646.5501991536529
 20
-2594.276749340432
 30
0.0
 11
646.5501991536529
 21
-2633.955320769003
 31
0.0
  0
INSERT
  5
25226
330
2459E
100
AcDbEntity
  8
文字
 62
     4
370
    13
100
AcDbBlockReference
  2
_Open30
 10
646.5501991536529
 20
-2580.526749340432
 30
0.0
 41
6.25
 42
6.25
 43
6.25
 50
270.0
  0
INSERT
  5
25227
330
2459E
100
AcDbEntity
  8
文字
 62
     4
370
    13
100
AcDbBlockReference
  2
_Open30
 10
646.5501991536529
 20
-2588.026749340432
 30
0.0
 41
6.25
 42
6.25
 43
6.25
 50
90.0
  0
MTEXT
  5
25228
330
2459E
100
AcDbEntity
  8
文字
370
    13
100
AcDbMText
 10
641.5501991536534
 20
-2617.241035054717
 30
0.0
 40
7.5
 41
0.0
 71
     5
 72
     1
  1
\A1;（7.5）
  7
まこ
 11
0.0000000000000001
 21
1.0
 31
0.0
 73
     1
 44
1.0
  0
POINT
  5
25229
330
2459E
100
AcDbEntity
  8
DEFPOINTS
 62
     0
370
    13
100
AcDbPoint
 10
696.6595275678444
 20
-2580.526749340432
 30
0.0
  0
POINT
  5
2522A
330
2459E
100
AcDbEntity
  8
DEFPOINTS
 62
     0
370
    13
100
AcDbPoint
 10
670.9078331117835
 20
-2588.026749340432
 30
0.0
  0
POINT
  5
2522B
330
2459E
100
AcDbEntity
  8
DEFPOINTS
 62
     0
370
    13
100
AcDbPoint
 10
646.5501991536529
 20
-2588.026749340432
 30
0.0
  0
ENDBLK
  5
245AA
330
2459E
100
AcDbEntity
  8
0
370
    13
100
AcDbBlockEnd
  0
BLOCK
  5
245C1
330
245B7
100
AcDbEntity
  8
0
370
    13
100
AcDbBlockBegin
  2
*D26
 70
     1
 10
0.0
 20
0.0
 30
0.0
  3
*D26
  1

  0
LINE
  5
25118
330
245B7
100
AcDbEntity
  8
文字
 62
     4
370
    13
100
AcDbLine
 10
670.9078331117835
 20
-2590.012766654611
 30
0.0
 11
670.9078331117835
 21
-2619.043522282292
 31
0.0
  0
LINE
  5
25119
330
245B7
100
AcDbEntity
  8
文字
 62
     4
370
    13
100
AcDbLine
 10
700.9078331117836
 20
-2586.19285428557
 30
0.0
 11
700.9078331117836
 21
-2619.043522282292
 31
0.0
  0
LINE
  5
2511A
330
245B7
100
AcDbEntity
  8
文字
 62
     4
370
    13
100
AcDbLine
 10
677.1578331117835
 20
-2618.593522282292
 30
0.0
 11
694.6578331117836
 21
-2618.593522282292
 31
0.0
  0
INSERT
  5
2511B
330
245B7
100
AcDbEntity
  8
文字
 62
     4
370
    13
100
AcDbBlockReference
  2
_Open30
 10
670.9078331117835
 20
-2618.593522282292
 30
0.0
 41
6.25
 42
6.25
 43
6.25
 50
180.0
  0
INSERT
  5
2511C
330
245B7
100
AcDbEntity
  8
文字
 62
     4
370
    13
100
AcDbBlockReference
  2
_Open30
 10
700.9078331117836
 20
-2618.593522282292
 30
0.0
 41
6.25
 42
6.25
 43
6.25
  0
MTEXT
  5
2511D
330
245B7
100
AcDbEntity
  8
文字
370
    13
100
AcDbMText
 10
685.9078331117835
 20
-2613.593522282292
 30
0.0
 40
7.5
 41
0.0
 71
     5
 72
     1
  1
\A1;30
  7
まこ
 73
     1
 44
1.0
  0
POINT
  5
2511E
330
245B7
100
AcDbEntity
  8
DEFPOINTS
 62
     0
370
    13
100
AcDbPoint
 10
670.9078331117835
 20
-2588.012766654611
 30
0.0
  0
POINT
  5
2511F
330
245B7
100
AcDbEntity
  8
DEFPOINTS
 62
     0
370
    13
100
AcDbPoint
 10
700.9078331117836
 20
-2584.19285428557
 30
0.0
  0
POINT
  5
25120
330
245B7
100
AcDbEntity
  8
DEFPOINTS
 62
     0
370
    13
100
AcDbPoint
 10
700.9078331117836
 20
-2618.593522282292
 30
0.0
  0
ENDBLK
  5
245C2
330
245B7
100
AcDbEntity
  8
0
370
    13
100
AcDbBlockEnd
  0
BLOCK
  5
245CD
330
245C3
100
AcDbEntity
  8
0
370
    13
100
AcDbBlockBegin
  2
*D27
 70
     1
 10
0.0
 20
0.0
 30
0.0
  3
*D27
  1

  0
LINE
  5
250A0
330
245C3
100
AcDbEntity
  8
文字
 62
     4
370
    13
100
AcDbLine
 10
1348.827158254757
 20
-2570.026749340431
 30
0.0
 11
1322.33832090487
 21
-2570.026749340431
 31
0.0
  0
LINE
  5
250A1
330
245C3
100
AcDbEntity
  8
文字
 62
     4
370
    13
100
AcDbLine
 10
1348.827167039283
 20
-2588.026749340432
 30
0.0
 11
1322.33832090487
 21
-2588.026749340432
 31
0.0
  0
LINE
  5
250A2
330
245C3
100
AcDbEntity
  8
文字
 62
     4
370
    13
100
AcDbLine
 10
1322.78832090487
 20
-2576.276749340431
 30
0.0
 11
1322.78832090487
 21
-2581.776749340431
 31
0.0
  0
INSERT
  5
250A3
330
245C3
100
AcDbEntity
  8
文字
 62
     4
370
    13
100
AcDbBlockReference
  2
_Open30
 10
1322.78832090487
 20
-2570.026749340431
 30
0.0
 41
6.25
 42
6.25
 43
6.25
 50
90.0
  0
INSERT
  5
250A4
330
245C3
100
AcDbEntity
  8
文字
 62
     4
370
    13
100
AcDbBlockReference
  2
_Open30
 10
1322.78832090487
 20
-2588.026749340432
 30
0.0
 41
6.25
 42
6.25
 43
6.25
 50
270.0
  0
MTEXT
  5
250A5
330
245C3
100
AcDbEntity
  8
文字
370
    13
100
AcDbMText
 10
1317.78832090487
 20
-2579.026749340431
 30
0.0
 40
7.5
 41
0.0
 71
     5
 72
     1
  1
\A1;（18）
  7
まこ
 11
0.0000000000000001
 21
1.0
 31
0.0
 73
     1
 44
1.0
  0
POINT
  5
250A6
330
245C3
100
AcDbEntity
  8
DEFPOINTS
 62
     0
370
    13
100
AcDbPoint
 10
1350.827158254757
 20
-2570.026749340431
 30
0.0
  0
POINT
  5
250A7
330
245C3
100
AcDbEntity
  8
DEFPOINTS
 62
     0
370
    13
100
AcDbPoint
 10
1350.827167039283
 20
-2588.026749340432
 30
0.0
  0
POINT
  5
250A8
330
245C3
100
AcDbEntity
  8
DEFPOINTS
 62
     0
370
    13
100
AcDbPoint
 10
1322.78832090487
 20
-2588.026749340432
 30
0.0
  0
ENDBLK
  5
245CE
330
245C3
100
AcDbEntity
  8
0
370
    13
100
AcDbBlockEnd
  0
BLOCK
  5
245D9
330
245CF
100
AcDbEntity
  8
0
370
    13
100
AcDbBlockBegin
  2
*D28
 70
     1
 10
0.0
 20
0.0
 30
0.0
  3
*D28
  1

  0
LINE
  5
25595
330
245CF
100
AcDbEntity
  8
文字
 62
     4
370
    13
100
AcDbLine
 10
1178.907833111783
 20
-2590.012766654612
 30
0.0
 11
1178.907833111783
 21
-2629.679284265707
 31
0.0
  0
LINE
  5
25596
330
245CF
100
AcDbEntity
  8
文字
 62
     4
370
    13
100
AcDbLine
 10
1263.981372571804
 20
-2596.894880141958
 30
0.0
 11
1263.981372571804
 21
-2629.679284265707
 31
0.0
  0
LINE
  5
25597
330
245CF
100
AcDbEntity
  8
文字
 62
     4
370
    13
100
AcDbLine
 10
1185.157833111783
 20
-2629.229284265707
 30
0.0
 11
1257.731372571804
 21
-2629.229284265707
 31
0.0
  0
INSERT
  5
25598
330
245CF
100
AcDbEntity
  8
文字
 62
     4
370
    13
100
AcDbBlockReference
  2
_Open30
 10
1178.907833111783
 20
-2629.229284265707
 30
0.0
 41
6.25
 42
6.25
 43
6.25
 50
180.0
  0
INSERT
  5
25599
330
245CF
100
AcDbEntity
  8
文字
 62
     4
370
    13
100
AcDbBlockReference
  2
_Open30
 10
1263.981372571804
 20
-2629.229284265707
 30
0.0
 41
6.25
 42
6.25
 43
6.25
  0
MTEXT
  5
2559A
330
245CF
100
AcDbEntity
  8
文字
370
    13
100
AcDbMText
 10
1221.444602841794
 20
-2624.229284265707
 30
0.0
 40
7.5
 41
0.0
 71
     5
 72
     1
  1
\A1;（200）
  7
まこ
 73
     1
 44
1.0
  0
POINT
  5
2559B
330
245CF
100
AcDbEntity
  8
DEFPOINTS
 62
     0
100
AcDbPoint
 10
1178.907833111783
 20
-2588.012766654612
 30
0.0
  0
POINT
  5
2559C
330
245CF
100
AcDbEntity
  8
DEFPOINTS
 62
     0
100
AcDbPoint
 10
1263.981372571804
 20
-2594.894880141958
 30
0.0
  0
POINT
  5
2559D
330
245CF
100
AcDbEntity
  8
DEFPOINTS
 62
     0
100
AcDbPoint
 10
1263.981372571804
 20
-2629.229284265707
 30
0.0
  0
ENDBLK
  5
245DA
330
245CF
100
AcDbEntity
  8
0
370
    13
100
AcDbBlockEnd
  0
BLOCK
  5
245E5
330
245DB
100
AcDbEntity
  8
0
370
    13
100
AcDbBlockBegin
  2
*D29
 70
     1
 10
0.0
 20
0.0
 30
0.0
  3
*D29
  1

  0
LINE
  5
25106
330
245DB
100
AcDbEntity
  8
文字
 62
     4
370
    13
100
AcDbLine
 10
1148.907833111783
 20
-2586.124590644009
 30
0.0
 11
1148.907833111783
 21
-2619.043522282292
 31
0.0
  0
LINE
  5
25107
330
245DB
100
AcDbEntity
  8
文字
 62
     4
370
    13
100
AcDbLine
 10
1178.907833111783
 20
-2590.012766654612
 30
0.0
 11
1178.907833111783
 21
-2619.043522282292
 31
0.0
  0
LINE
  5
25108
330
245DB
100
AcDbEntity
  8
文字
 62
     4
370
    13
100
AcDbLine
 10
1155.157833111783
 20
-2618.593522282292
 30
0.0
 11
1172.657833111783
 21
-2618.593522282292
 31
0.0
  0
INSERT
  5
25109
330
245DB
100
AcDbEntity
  8
文字
 62
     4
370
    13
100
AcDbBlockReference
  2
_Open30
 10
1148.907833111783
 20
-2618.593522282292
 30
0.0
 41
6.25
 42
6.25
 43
6.25
 50
180.0
  0
INSERT
  5
2510A
330
245DB
100
AcDbEntity
  8
文字
 62
     4
370
    13
100
AcDbBlockReference
  2
_Open30
 10
1178.907833111783
 20
-2618.593522282292
 30
0.0
 41
6.25
 42
6.25
 43
6.25
  0
MTEXT
  5
2510B
330
245DB
100
AcDbEntity
  8
文字
370
    13
100
AcDbMText
 10
1163.907833111783
 20
-2613.593522282292
 30
0.0
 40
7.5
 41
0.0
 71
     5
 72
     1
  1
\A1;（30）
  7
まこ
 73
     1
 44
1.0
  0
POINT
  5
2510C
330
245DB
100
AcDbEntity
  8
DEFPOINTS
 62
     0
370
    13
100
AcDbPoint
 10
1148.907833111783
 20
-2584.124590644009
 30
0.0
  0
POINT
  5
2510D
330
245DB
100
AcDbEntity
  8
DEFPOINTS
 62
     0
370
    13
100
AcDbPoint
 10
1178.907833111783
 20
-2588.012766654612
 30
0.0
  0
POINT
  5
2510E
330
245DB
100
AcDbEntity
  8
DEFPOINTS
 62
     0
370
    13
100
AcDbPoint
 10
1178.907833111783
 20
-2618.593522282292
 30
0.0
  0
ENDBLK
  5
245E6
330
245DB
100
AcDbEntity
  8
0
370
    13
100
AcDbBlockEnd
  0
BLOCK
  5
245F2
330
245E7
100
AcDbEntity
  8
0
370
    13
100
AcDbBlockBegin
  2
*D30
 70
     1
 10
0.0
 20
0.0
 30
0.0
  3
*D30
  1

  0
LINE
  5
252D7
330
245E7
100
AcDbEntity
  8
文字
 62
     4
370
    13
100
AcDbLine
 10
694.6595275678443
 20
-2515.526749340431
 30
0.0
 11
646.1001991536529
 21
-2515.526749340431
 31
0.0
  0
LINE
  5
252D8
330
245E7
100
AcDbEntity
  8
文字
 62
     4
370
    13
100
AcDbLine
 10
668.9078331117835
 20
-2508.026749340432
 30
0.0
 11
646.1001991536529
 21
-2508.026749340432
 31
0.0
  0
LINE
  5
252D9
330
245E7
100
AcDbEntity
  8
文字
 62
     4
370
    13
100
AcDbLine
 10
646.5501991536529
 20
-2521.776749340431
 30
0.0
 11
646.5501991536529
 21
-2528.026749340431
 31
0.0
  0
LINE
  5
252DA
330
245E7
100
AcDbEntity
  8
文字
 62
     4
370
    13
100
AcDbLine
 10
646.5501991536529
 20
-2501.776749340431
 30
0.0
 11
646.5501991536529
 21
-2462.09817791186
 31
0.0
  0
INSERT
  5
252DB
330
245E7
100
AcDbEntity
  8
文字
 62
     4
370
    13
100
AcDbBlockReference
  2
_Open30
 10
646.5501991536529
 20
-2515.526749340431
 30
0.0
 41
6.25
 42
6.25
 43
6.25
 50
90.0
  0
INSERT
  5
252DC
330
245E7
100
AcDbEntity
  8
文字
 62
     4
370
    13
100
AcDbBlockReference
  2
_Open30
 10
646.5501991536529
 20
-2508.026749340432
 30
0.0
 41
6.25
 42
6.25
 43
6.25
 50
270.0
  0
MTEXT
  5
252DD
330
245E7
100
AcDbEntity
  8
文字
370
    13
100
AcDbMText
 10
641.5501991536534
 20
-2478.812463626146
 30
0.0
 40
7.5
 41
0.0
 71
     5
 72
     1
  1
\A1;（7.5）
  7
まこ
 11
0.0000000000000001
 21
1.0
 31
0.0
 73
     1
 44
1.0
  0
POINT
  5
252DE
330
245E7
100
AcDbEntity
  8
DEFPOINTS
 62
     0
370
    13
100
AcDbPoint
 10
696.6595275678444
 20
-2515.526749340431
 30
0.0
  0
POINT
  5
252DF
330
245E7
100
AcDbEntity
  8
DEFPOINTS
 62
     0
370
    13
100
AcDbPoint
 10
670.9078331117836
 20
-2508.026749340432
 30
0.0
  0
POINT
  5
252E0
330
245E7
100
AcDbEntity
  8
DEFPOINTS
 62
     0
370
    13
100
AcDbPoint
 10
646.5501991536529
 20
-2508.026749340432
 30
0.0
  0
ENDBLK
  5
245F3
330
245E7
100
AcDbEntity
  8
0
370
    13
100
AcDbBlockEnd
  0
BLOCK
  5
245FE
330
245F4
100
AcDbEntity
  8
0
370
    13
100
AcDbBlockBegin
  2
*D31
 70
     1
 10
0.0
 20
0.0
 30
0.0
  3
*D31
  1

  0
LINE
  5
252C3
330
245F4
100
AcDbEntity
  8
文字
 62
     4
370
    13
100
AcDbLine
 10
1348.827167039283
 20
-2508.026749340432
 30
0.0
 11
1322.33832090487
 21
-2508.026749340432
 31
0.0
  0
LINE
  5
252C4
330
245F4
100
AcDbEntity
  8
文字
 62
     4
370
    13
100
AcDbLine
 10
1348.827158254757
 20
-2526.026749340431
 30
0.0
 11
1322.33832090487
 21
-2526.026749340431
 31
0.0
  0
LINE
  5
252C5
330
245F4
100
AcDbEntity
  8
文字
 62
     4
370
    13
100
AcDbLine
 10
1322.78832090487
 20
-2514.276749340432
 30
0.0
 11
1322.78832090487
 21
-2519.776749340431
 31
0.0
  0
INSERT
  5
252C6
330
245F4
100
AcDbEntity
  8
文字
 62
     4
370
    13
100
AcDbBlockReference
  2
_Open30
 10
1322.78832090487
 20
-2508.026749340432
 30
0.0
 41
6.25
 42
6.25
 43
6.25
 50
90.0
  0
INSERT
  5
252C7
330
245F4
100
AcDbEntity
  8
文字
 62
     4
370
    13
100
AcDbBlockReference
  2
_Open30
 10
1322.78832090487
 20
-2526.026749340431
 30
0.0
 41
6.25
 42
6.25
 43
6.25
 50
270.0
  0
MTEXT
  5
252C8
330
245F4
100
AcDbEntity
  8
文字
370
    13
100
AcDbMText
 10
1317.78832090487
 20
-2517.026749340431
 30
0.0
 40
7.5
 41
0.0
 71
     5
 72
     1
  1
\A1;（18）
  7
まこ
 11
0.0000000000000001
 21
1.0
 31
0.0
 73
     1
 44
1.0
  0
POINT
  5
252C9
330
245F4
100
AcDbEntity
  8
DEFPOINTS
 62
     0
370
    13
100
AcDbPoint
 10
1350.827167039283
 20
-2508.026749340432
 30
0.0
  0
POINT
  5
252CA
330
245F4
100
AcDbEntity
  8
DEFPOINTS
 62
     0
370
    13
100
AcDbPoint
 10
1350.827158254757
 20
-2526.026749340431
 30
0.0
  0
POINT
  5
252CB
330
245F4
100
AcDbEntity
  8
DEFPOINTS
 62
     0
370
    13
100
AcDbPoint
 10
1322.78832090487
 20
-2526.026749340431
 30
0.0
  0
ENDBLK
  5
245FF
330
245F4
100
AcDbEntity
  8
0
370
    13
100
AcDbBlockEnd
  0
BLOCK
  5
2460B
330
24600
100
AcDbEntity
  8
0
370
    13
100
AcDbBlockBegin
  2
*D32
 70
     1
 10
0.0
 20
0.0
 30
0.0
  3
*D32
  1

  0
LINE
  5
24FEB
330
24600
100
AcDbEntity
  8
文字
 62
     4
370
    13
100
AcDbLine
 10
1350.827167039283
 20
-2506.026793204686
 30
0.0
 11
1350.827167039283
 21
-2482.266217679255
 31
0.0
  0
LINE
  5
24FEC
330
24600
100
AcDbEntity
  8
文字
 62
     4
370
    13
100
AcDbLine
 10
1351.327167039283
 20
-2524.037994482739
 30
0.0
 11
1351.327167039283
 21
-2482.266217679255
 31
0.0
  0
LINE
  5
24FED
330
24600
100
AcDbEntity
  8
文字
 62
     4
370
    13
100
AcDbLine
 10
1357.577167039283
 20
-2482.716217679254
 30
0.0
 11
1363.827167039283
 21
-2482.716217679254
 31
0.0
  0
LINE
  5
24FEE
330
24600
100
AcDbEntity
  8
文字
 62
     4
370
    13
100
AcDbLine
 10
1344.577167039283
 20
-2482.716217679254
 30
0.0
 11
1320.112881324997
 21
-2482.716217679254
 31
0.0
  0
INSERT
  5
24FEF
330
24600
100
AcDbEntity
  8
文字
 62
     4
370
    13
100
AcDbBlockReference
  2
_Open30
 10
1351.327167039283
 20
-2482.716217679254
 30
0.0
 41
6.25
 42
6.25
 43
6.25
 50
180.0
  0
INSERT
  5
24FF0
330
24600
100
AcDbEntity
  8
文字
 62
     4
370
    13
100
AcDbBlockReference
  2
_Open30
 10
1350.827167039283
 20
-2482.716217679254
 30
0.0
 41
6.25
 42
6.25
 43
6.25
  0
MTEXT
  5
24FF1
330
24600
100
AcDbEntity
  8
文字
370
    13
100
AcDbMText
 10
1329.22002418214
 20
-2477.716217679254
 30
0.0
 40
7.5
 41
0.0
 71
     5
 72
     1
  1
\A1;0.5
  7
まこ
 73
     1
 44
1.0
  0
POINT
  5
24FF2
330
24600
100
AcDbEntity
  8
DEFPOINTS
 62
     0
370
    13
100
AcDbPoint
 10
1350.827167039283
 20
-2508.026793204686
 30
0.0
  0
POINT
  5
24FF3
330
24600
100
AcDbEntity
  8
DEFPOINTS
 62
     0
370
    13
100
AcDbPoint
 10
1351.327167039283
 20
-2526.037994482738
 30
0.0
  0
POINT
  5
24FF4
330
24600
100
AcDbEntity
  8
DEFPOINTS
 62
     0
370
    13
100
AcDbPoint
 10
1351.327167039283
 20
-2482.716217679254
 30
0.0
  0
ENDBLK
  5
2460C
330
24600
100
AcDbEntity
  8
0
370
    13
100
AcDbBlockEnd
  0
BLOCK
  5
24617
330
2460D
100
AcDbEntity
  8
0
370
    13
100
AcDbBlockBegin
  2
*D33
 70
     1
 10
0.0
 20
0.0
 30
0.0
  3
*D33
  1

  0
LINE
  5
24FCD
330
2460D
100
AcDbEntity
  8
文字
 62
     4
370
    13
100
AcDbLine
 10
1350.827167039283
 20
-2506.026793204686
 30
0.0
 11
1350.827167039283
 21
-2470.974427658803
 31
0.0
  0
LINE
  5
24FCE
330
2460D
100
AcDbEntity
  8
文字
 62
     4
370
    13
100
AcDbLine
 10
1390.827167039283
 20
-2506.026793204686
 30
0.0
 11
1390.827167039283
 21
-2470.974427658803
 31
0.0
  0
LINE
  5
24FCF
330
2460D
100
AcDbEntity
  8
文字
 62
     4
370
    13
100
AcDbLine
 10
1357.077167039283
 20
-2471.424427658803
 30
0.0
 11
1384.577167039283
 21
-2471.424427658803
 31
0.0
  0
INSERT
  5
24FD0
330
2460D
100
AcDbEntity
  8
文字
 62
     4
370
    13
100
AcDbBlockReference
  2
_Open30
 10
1350.827167039283
 20
-2471.424427658803
 30
0.0
 41
6.25
 42
6.25
 43
6.25
 50
180.0
  0
INSERT
  5
24FD1
330
2460D
100
AcDbEntity
  8
文字
 62
     4
370
    13
100
AcDbBlockReference
  2
_Open30
 10
1390.827167039283
 20
-2471.424427658803
 30
0.0
 41
6.25
 42
6.25
 43
6.25
  0
MTEXT
  5
24FD2
330
2460D
100
AcDbEntity
  8
文字
370
    13
100
AcDbMText
 10
1370.827167039283
 20
-2466.424427658803
 30
0.0
 40
7.5
 41
0.0
 71
     5
 72
     1
  1
\A1;40
  7
まこ
 73
     1
 44
1.0
  0
POINT
  5
24FD3
330
2460D
100
AcDbEntity
  8
DEFPOINTS
 62
     0
370
    13
100
AcDbPoint
 10
1350.827167039283
 20
-2508.026793204686
 30
0.0
  0
POINT
  5
24FD4
330
2460D
100
AcDbEntity
  8
DEFPOINTS
 62
     0
370
    13
100
AcDbPoint
 10
1390.827167039283
 20
-2508.026793204686
 30
0.0
  0
POINT
  5
24FD5
330
2460D
100
AcDbEntity
  8
DEFPOINTS
 62
     0
370
    13
100
AcDbPoint
 10
1390.827167039283
 20
-2471.424427658803
 30
0.0
  0
ENDBLK
  5
24618
330
2460D
100
AcDbEntity
  8
0
370
    13
100
AcDbBlockEnd
  0
BLOCK
  5
24623
330
24619
100
AcDbEntity
  8
0
370
    13
100
AcDbBlockBegin
  2
*D34
 70
     1
 10
0.0
 20
0.0
 30
0.0
  3
*D34
  1

  0
LINE
  5
25475
330
24619
100
AcDbEntity
  8
文字
 62
     4
370
    13
100
AcDbLine
 10
1350.827167039283
 20
-2506.026793204686
 30
0.0
 11
1350.827167039283
 21
-2425.041339233658
 31
0.0
  0
LINE
  5
25476
330
24619
100
AcDbEntity
  8
文字
 62
     4
370
    13
100
AcDbLine
 10
1404.827167039283
 20
-2506.026793204686
 30
0.0
 11
1404.827167039283
 21
-2425.041339233658
 31
0.0
  0
LINE
  5
25477
330
24619
100
AcDbEntity
  8
文字
 62
     4
370
    13
100
AcDbLine
 10
1357.077167039283
 20
-2425.491339233658
 30
0.0
 11
1398.577167039283
 21
-2425.491339233658
 31
0.0
  0
INSERT
  5
25478
330
24619
100
AcDbEntity
  8
文字
 62
     4
370
    13
100
AcDbBlockReference
  2
_Open30
 10
1350.827167039283
 20
-2425.491339233658
 30
0.0
 41
6.25
 42
6.25
 43
6.25
 50
180.0
  0
INSERT
  5
25479
330
24619
100
AcDbEntity
  8
文字
 62
     4
370
    13
100
AcDbBlockReference
  2
_Open30
 10
1404.827167039283
 20
-2425.491339233658
 30
0.0
 41
6.25
 42
6.25
 43
6.25
  0
MTEXT
  5
2547A
330
24619
100
AcDbEntity
  8
文字
370
    13
100
AcDbMText
 10
1377.827167039283
 20
-2420.491339233658
 30
0.0
 40
7.5
 41
0.0
 71
     5
 72
     1
  1
\A1;54（取付寸法）
  7
まこ
 73
     1
 44
1.0
  0
POINT
  5
2547B
330
24619
100
AcDbEntity
  8
DEFPOINTS
 62
     0
370
    13
100
AcDbPoint
 10
1350.827167039283
 20
-2508.026793204686
 30
0.0
  0
POINT
  5
2547C
330
24619
100
AcDbEntity
  8
DEFPOINTS
 62
     0
370
    13
100
AcDbPoint
 10
1404.827167039283
 20
-2508.026793204686
 30
0.0
  0
POINT
  5
2547D
330
24619
100
AcDbEntity
  8
DEFPOINTS
 62
     0
370
    13
100
AcDbPoint
 10
1404.827167039283
 20
-2425.491339233658
 30
0.0
  0
ENDBLK
  5
24624
330
24619
100
AcDbEntity
  8
0
370
    13
100
AcDbBlockEnd
  0
BLOCK
  5
2463F
330
24631
100
AcDbEntity
  8
0
370
    13
100
AcDbBlockBegin
  2
*D35
 70
     1
 10
0.0
 20
0.0
 30
0.0
  3
*D35
  1

  0
LINE
  5
253A6
330
24631
100
AcDbEntity
  8
文字
 62
     4
370
    13
100
AcDbLine
 10
1390.827167039283
 20
-2506.026793204686
 30
0.0
 11
1390.827167039283
 21
-2470.974427658803
 31
0.0
  0
LINE
  5
253A7
330
24631
100
AcDbEntity
  8
文字
 62
     4
370
    13
100
AcDbLine
 10
1392.027167039283
 20
-2521.051838382336
 30
0.0
 11
1392.027167039283
 21
-2470.974427658803
 31
0.0
  0
LINE
  5
253A8
330
24631
100
AcDbEntity
  8
文字
 62
     4
370
    13
100
AcDbLine
 10
1384.577167039283
 20
-2471.424427658803
 30
0.0
 11
1378.327167039283
 21
-2471.424427658803
 31
0.0
  0
LINE
  5
253A9
330
24631
100
AcDbEntity
  8
文字
 62
     4
370
    13
100
AcDbLine
 10
1392.027167039283
 20
-2471.424427658803
 30
0.0
 11
1398.277167039283
 21
-2471.424427658803
 31
0.0
  0
MTEXT
  5
253AA
330
24631
100
AcDbEntity
  8
文字
370
    13
100
AcDbMText
 10
1361.493033907027
 20
-2451.081034142857
 30
0.0
 40
7.5
 41
0.0
 71
     5
 72
     1
  1
\A1;1.2
  7
まこ
 73
     1
 44
1.0
  0
INSERT
  5
253AB
330
24631
100
AcDbEntity
  8
文字
 62
     4
370
    13
100
AcDbBlockReference
  2
_Open30
 10
1390.827167039283
 20
-2471.424427658803
 30
0.0
 41
6.25
 42
6.25
 43
6.25
  0
INSERT
  5
253AC
330
24631
100
AcDbEntity
  8
文字
 62
     4
370
    13
100
AcDbBlockReference
  2
_DotSmall
 10
1392.027167039283
 20
-2471.424427658803
 30
0.0
 41
6.25
 42
6.25
 43
6.25
 50
180.0
  0
POINT
  5
253AD
330
24631
100
AcDbEntity
  8
DEFPOINTS
 62
     0
370
    13
100
AcDbPoint
 10
1390.827167039283
 20
-2508.026793204686
 30
0.0
  0
POINT
  5
253AE
330
24631
100
AcDbEntity
  8
DEFPOINTS
 62
     0
370
    13
100
AcDbPoint
 10
1392.027167039283
 20
-2523.051838382336
 30
0.0
  0
POINT
  5
253AF
330
24631
100
AcDbEntity
  8
DEFPOINTS
 62
     0
370
    13
100
AcDbPoint
 10
1392.027167039283
 20
-2471.424427658803
 30
0.0
  0
ENDBLK
  5
24640
330
24631
100
AcDbEntity
  8
0
370
    13
100
AcDbBlockEnd
  0
BLOCK
  5
2464B
330
24641
100
AcDbEntity
  8
0
370
    13
100
AcDbBlockBegin
  2
*D36
 70
     1
 10
0.0
 20
0.0
 30
0.0
  3
*D36
  1

  0
LINE
  5
252EC
330
24641
100
AcDbEntity
  8
文字
 62
     4
370
    13
100
AcDbLine
 10
1397.027167039283
 20
-2506.026793204686
 30
0.0
 11
1397.027167039283
 21
-2482.266217679255
 31
0.0
  0
LINE
  5
252ED
330
24641
100
AcDbEntity
  8
文字
 62
     4
370
    13
100
AcDbLine
 10
1404.827167039283
 20
-2506.026793204686
 30
0.0
 11
1404.827167039283
 21
-2482.266217679255
 31
0.0
  0
LINE
  5
252EE
330
24641
100
AcDbEntity
  8
文字
 62
     4
370
    13
100
AcDbLine
 10
1390.777167039283
 20
-2482.716217679254
 30
0.0
 11
1384.527167039283
 21
-2482.716217679254
 31
0.0
  0
LINE
  5
252EF
330
24641
100
AcDbEntity
  8
文字
 62
     4
370
    13
100
AcDbLine
 10
1411.077167039283
 20
-2482.716217679254
 30
0.0
 11
1435.541452753569
 21
-2482.716217679254
 31
0.0
  0
INSERT
  5
252F0
330
24641
100
AcDbEntity
  8
文字
 62
     4
370
    13
100
AcDbBlockReference
  2
_Open30
 10
1397.027167039283
 20
-2482.716217679254
 30
0.0
 41
6.25
 42
6.25
 43
6.25
  0
INSERT
  5
252F1
330
24641
100
AcDbEntity
  8
文字
 62
     4
370
    13
100
AcDbBlockReference
  2
_Open30
 10
1404.827167039283
 20
-2482.716217679254
 30
0.0
 41
6.25
 42
6.25
 43
6.25
 50
180.0
  0
MTEXT
  5
252F2
330
24641
100
AcDbEntity
  8
文字
370
    13
100
AcDbMText
 10
1426.434309896426
 20
-2477.716217679254
 30
0.0
 40
7.5
 41
0.0
 71
     5
 72
     1
  1
\A1;7.8
  7
まこ
 73
     1
 44
1.0
  0
POINT
  5
252F3
330
24641
100
AcDbEntity
  8
DEFPOINTS
 62
     0
370
    13
100
AcDbPoint
 10
1397.027167039283
 20
-2508.026793204686
 30
0.0
  0
POINT
  5
252F4
330
24641
100
AcDbEntity
  8
DEFPOINTS
 62
     0
370
    13
100
AcDbPoint
 10
1404.827167039283
 20
-2508.026793204686
 30
0.0
  0
POINT
  5
252F5
330
24641
100
AcDbEntity
  8
DEFPOINTS
 62
     0
370
    13
100
AcDbPoint
 10
1404.827167039283
 20
-2482.716217679254
 30
0.0
  0
ENDBLK
  5
2464C
330
24641
100
AcDbEntity
  8
0
370
    13
100
AcDbBlockEnd
  0
BLOCK
  5
24657
330
2464D
100
AcDbEntity
  8
0
370
    13
100
AcDbBlockBegin
  2
*D37
 70
     1
 10
0.0
 20
0.0
 30
0.0
  3
*D37
  1

  0
LINE
  5
250BD
330
2464D
100
AcDbEntity
  8
文字
 62
     4
370
    13
100
AcDbLine
 10
1348.827167039283
 20
-2526.026749340431
 30
0.0
 11
1322.33832090487
 21
-2526.026749340431
 31
0.0
  0
LINE
  5
250BE
330
2464D
100
AcDbEntity
  8
文字
 62
     4
370
    13
100
AcDbLine
 10
1348.827158254757
 20
-2570.026749340431
 30
0.0
 11
1322.33832090487
 21
-2570.026749340431
 31
0.0
  0
LINE
  5
250BF
330
2464D
100
AcDbEntity
  8
文字
 62
     4
370
    13
100
AcDbLine
 10
1322.78832090487
 20
-2532.276749340431
 30
0.0
 11
1322.78832090487
 21
-2563.776749340432
 31
0.0
  0
INSERT
  5
250C0
330
2464D
100
AcDbEntity
  8
文字
 62
     4
370
    13
100
AcDbBlockReference
  2
_Open30
 10
1322.78832090487
 20
-2526.026749340431
 30
0.0
 41
6.25
 42
6.25
 43
6.25
 50
90.0
  0
INSERT
  5
250C1
330
2464D
100
AcDbEntity
  8
文字
 62
     4
370
    13
100
AcDbBlockReference
  2
_Open30
 10
1322.78832090487
 20
-2570.026749340431
 30
0.0
 41
6.25
 42
6.25
 43
6.25
 50
270.0
  0
MTEXT
  5
250C2
330
2464D
100
AcDbEntity
  8
文字
370
    13
100
AcDbMText
 10
1317.78832090487
 20
-2548.026749340431
 30
0.0
 40
7.5
 41
0.0
 71
     5
 72
     1
  1
\A1;44
  7
まこ
 11
0.0000000000000001
 21
1.0
 31
0.0
 73
     1
 44
1.0
  0
POINT
  5
250C3
330
2464D
100
AcDbEntity
  8
DEFPOINTS
 62
     0
370
    13
100
AcDbPoint
 10
1350.827167039283
 20
-2526.026749340431
 30
0.0
  0
POINT
  5
250C4
330
2464D
100
AcDbEntity
  8
DEFPOINTS
 62
     0
370
    13
100
AcDbPoint
 10
1350.827158254757
 20
-2570.026749340431
 30
0.0
  0
POINT
  5
250C5
330
2464D
100
AcDbEntity
  8
DEFPOINTS
 62
     0
370
    13
100
AcDbPoint
 10
1322.78832090487
 20
-2570.026749340431
 30
0.0
  0
ENDBLK
  5
24658
330
2464D
100
AcDbEntity
  8
0
370
    13
100
AcDbBlockEnd
  0
BLOCK
  5
24663
330
24659
100
AcDbEntity
  8
0
370
    13
100
AcDbBlockBegin
  2
*D38
 70
     1
 10
0.0
 20
0.0
 30
0.0
  3
*D38
  1

  0
LINE
  5
25235
330
24659
100
AcDbEntity
  8
文字
 62
     4
370
    13
100
AcDbLine
 10
668.9078331117835
 20
-2508.02674934043
 30
0.0
 11
635.833902581476
 21
-2508.02674934043
 31
0.0
  0
LINE
  5
25236
330
24659
100
AcDbEntity
  8
文字
 62
     4
370
    13
100
AcDbLine
 10
668.9078331117834
 20
-2588.026749340432
 30
0.0
 11
635.833902581476
 21
-2588.026749340432
 31
0.0
  0
LINE
  5
25237
330
24659
100
AcDbEntity
  8
文字
 62
     4
370
    13
100
AcDbLine
 10
636.283902581476
 20
-2514.27674934043
 30
0.0
 11
636.283902581476
 21
-2581.776749340431
 31
0.0
  0
INSERT
  5
25238
330
24659
100
AcDbEntity
  8
文字
 62
     4
370
    13
100
AcDbBlockReference
  2
_Open30
 10
636.283902581476
 20
-2508.02674934043
 30
0.0
 41
6.25
 42
6.25
 43
6.25
 50
90.0
  0
INSERT
  5
25239
330
24659
100
AcDbEntity
  8
文字
 62
     4
370
    13
100
AcDbBlockReference
  2
_Open30
 10
636.283902581476
 20
-2588.026749340432
 30
0.0
 41
6.25
 42
6.25
 43
6.25
 50
270.0
  0
MTEXT
  5
2523A
330
24659
100
AcDbEntity
  8
文字
370
    13
100
AcDbMText
 10
631.2839025814764
 20
-2548.026749340431
 30
0.0
 40
7.5
 41
0.0
 71
     5
 72
     1
  1
\A1;80
  7
まこ
 11
0.0000000000000001
 21
1.0
 31
0.0
 73
     1
 44
1.0
  0
POINT
  5
2523B
330
24659
100
AcDbEntity
  8
DEFPOINTS
 62
     0
370
    13
100
AcDbPoint
 10
670.9078331117836
 20
-2508.02674934043
 30
0.0
  0
POINT
  5
2523C
330
24659
100
AcDbEntity
  8
DEFPOINTS
 62
     0
370
    13
100
AcDbPoint
 10
670.9078331117835
 20
-2588.026749340432
 30
0.0
  0
POINT
  5
2523D
330
24659
100
AcDbEntity
  8
DEFPOINTS
 62
     0
370
    13
100
AcDbPoint
 10
636.283902581476
 20
-2588.026749340432
 30
0.0
  0
ENDBLK
  5
24664
330
24659
100
AcDbEntity
  8
0
370
    13
100
AcDbBlockEnd
  0
BLOCK
  5
24E16
330
24E0B
100
AcDbEntity
  8
0
 62
     2
370
    13
100
AcDbBlockBegin
  2
*D39
 70
     1
 10
0.0
 20
0.0
 30
0.0
  3
*D39
  1

  0
LINE
  5
250CF
330
24E0B
100
AcDbEntity
  8
0
 62
     4
370
    13
100
AcDbLine
 10
1348.827167039283
 20
-2588.026749340432
 30
0.0
 11
1334.705788342641
 21
-2588.026749340432
 31
0.0
  0
LINE
  5
250D0
330
24E0B
100
AcDbEntity
  8
0
 62
     4
370
    13
100
AcDbLine
 10
1350.827158254757
 20
-2571.026749340431
 30
0.0
 11
1334.705788342641
 21
-2571.026749340431
 31
0.0
  0
LINE
  5
250D1
330
24E0B
100
AcDbEntity
  8
0
 62
     4
370
    13
100
AcDbLine
 10
1335.155788342641
 20
-2581.776749340431
 30
0.0
 11
1335.155788342641
 21
-2577.276749340431
 31
0.0
  0
INSERT
  5
250D2
330
24E0B
100
AcDbEntity
  8
0
 62
     4
370
    13
100
AcDbBlockReference
  2
_Open30
 10
1335.155788342641
 20
-2588.026749340432
 30
0.0
 41
6.25
 42
6.25
 43
6.25
 50
270.0
  0
INSERT
  5
250D3
330
24E0B
100
AcDbEntity
  8
0
 62
     4
370
    13
100
AcDbBlockReference
  2
_Open30
 10
1335.155788342641
 20
-2571.026749340431
 30
0.0
 41
6.25
 42
6.25
 43
6.25
 50
90.0
  0
MTEXT
  5
250D4
330
24E0B
100
AcDbEntity
  8
0
370
    13
100
AcDbMText
 10
1330.155788342641
 20
-2579.526749340431
 30
0.0
 40
7.5
 41
0.0
 71
     5
 72
     1
  1
\A1;17
  7
まこ
 11
0.0000000000000001
 21
1.0
 31
0.0
 73
     1
 44
1.0
  0
POINT
  5
250D5
330
24E0B
100
AcDbEntity
  8
DEFPOINTS
 62
     0
370
    13
100
AcDbPoint
 10
1350.827167039283
 20
-2588.026749340432
 30
0.0
  0
POINT
  5
250D6
330
24E0B
100
AcDbEntity
  8
DEFPOINTS
 62
     0
370
    13
100
AcDbPoint
 10
1352.827158254757
 20
-2571.026749340431
 30
0.0
  0
POINT
  5
250D7
330
24E0B
100
AcDbEntity
  8
DEFPOINTS
 62
     0
370
    13
100
AcDbPoint
 10
1335.155788342641
 20
-2571.026749340431
 30
0.0
  0
ENDBLK
  5
24E17
330
24E0B
100
AcDbEntity
  8
0
 62
     2
370
    13
100
AcDbBlockEnd
  0
BLOCK
  5
24E2C
330
24E22
100
AcDbEntity
  8
0
 62
     2
370
    13
100
AcDbBlockBegin
  2
*D40
 70
     1
 10
0.0
 20
0.0
 30
0.0
  3
*D40
  1

  0
LINE
  5
250D8
330
24E22
100
AcDbEntity
  8
0
 62
     4
370
    13
100
AcDbLine
 10
1350.827158254757
 20
-2571.026749340431
 30
0.0
 11
1334.705788342641
 21
-2571.026749340431
 31
0.0
  0
LINE
  5
250D9
330
24E22
100
AcDbEntity
  8
0
 62
     4
370
    13
100
AcDbLine
 10
1350.827158254757
 20
-2547.026749340432
 30
0.0
 11
1334.705788342641
 21
-2547.026749340432
 31
0.0
  0
LINE
  5
250DA
330
24E22
100
AcDbEntity
  8
0
 62
     4
370
    13
100
AcDbLine
 10
1335.155788342641
 20
-2564.776749340431
 30
0.0
 11
1335.155788342641
 21
-2553.276749340431
 31
0.0
  0
INSERT
  5
250DB
330
24E22
100
AcDbEntity
  8
0
 62
     4
370
    13
100
AcDbBlockReference
  2
_Open30
 10
1335.155788342641
 20
-2571.026749340431
 30
0.0
 41
6.25
 42
6.25
 43
6.25
 50
270.0
  0
INSERT
  5
250DC
330
24E22
100
AcDbEntity
  8
0
 62
     4
370
    13
100
AcDbBlockReference
  2
_Open30
 10
1335.155788342641
 20
-2547.026749340432
 30
0.0
 41
6.25
 42
6.25
 43
6.25
 50
90.0
  0
MTEXT
  5
250DD
330
24E22
100
AcDbEntity
  8
0
370
    13
100
AcDbMText
 10
1330.155788342641
 20
-2559.026749340431
 30
0.0
 40
7.5
 41
0.0
 71
     5
 72
     1
  1
\A1;24
  7
まこ
 11
0.0000000000000001
 21
1.0
 31
0.0
 73
     1
 44
1.0
  0
POINT
  5
250DE
330
24E22
100
AcDbEntity
  8
DEFPOINTS
 62
     0
370
    13
100
AcDbPoint
 10
1352.827158254757
 20
-2571.026749340431
 30
0.0
  0
POINT
  5
250DF
330
24E22
100
AcDbEntity
  8
DEFPOINTS
 62
     0
370
    13
100
AcDbPoint
 10
1352.827158254757
 20
-2547.026749340432
 30
0.0
  0
POINT
  5
250E0
330
24E22
100
AcDbEntity
  8
DEFPOINTS
 62
     0
370
    13
100
AcDbPoint
 10
1335.155788342641
 20
-2547.026749340432
 30
0.0
  0
ENDBLK
  5
24E2D
330
24E22
100
AcDbEntity
  8
0
 62
     2
370
    13
100
AcDbBlockEnd
  0
BLOCK
  5
24E3A
330
24E2F
100
AcDbEntity
  8
0
 62
     2
370
    13
100
AcDbBlockBegin
  2
*D41
 70
     1
 10
0.0
 20
0.0
 30
0.0
  3
*D41
  1

  0
LINE
  5
250E1
330
24E2F
100
AcDbEntity
  8
0
 62
     4
370
    13
100
AcDbLine
 10
1350.827167039283
 20
-2590.026749340431
 30
0.0
 11
1350.827167039283
 21
-2624.29522244776
 31
0.0
  0
LINE
  5
250E2
330
24E2F
100
AcDbEntity
  8
0
 62
     4
370
    13
100
AcDbLine
 10
1358.827167039283
 20
-2580.01036962126
 30
0.0
 11
1358.827167039283
 21
-2624.29522244776
 31
0.0
  0
LINE
  5
250E3
330
24E2F
100
AcDbEntity
  8
0
 62
     4
370
    13
100
AcDbLine
 10
1344.577167039283
 20
-2623.84522244776
 30
0.0
 11
1338.327167039283
 21
-2623.84522244776
 31
0.0
  0
LINE
  5
250E4
330
24E2F
100
AcDbEntity
  8
0
 62
     4
370
    13
100
AcDbLine
 10
1365.077167039283
 20
-2623.84522244776
 30
0.0
 11
1371.327167039283
 21
-2623.84522244776
 31
0.0
  0
INSERT
  5
250E5
330
24E2F
100
AcDbEntity
  8
0
 62
     4
370
    13
100
AcDbBlockReference
  2
_Open30
 10
1350.827167039283
 20
-2623.84522244776
 30
0.0
 41
6.25
 42
6.25
 43
6.25
  0
INSERT
  5
250E6
330
24E2F
100
AcDbEntity
  8
0
 62
     4
370
    13
100
AcDbBlockReference
  2
_Open30
 10
1358.827167039283
 20
-2623.84522244776
 30
0.0
 41
6.25
 42
6.25
 43
6.25
 50
180.0
  0
MTEXT
  5
250E7
330
24E2F
100
AcDbEntity
  8
0
370
    13
100
AcDbMText
 10
1354.827167039283
 20
-2618.84522244776
 30
0.0
 40
7.5
 41
0.0
 71
     5
 72
     1
  1
\A1;8
  7
まこ
 73
     1
 44
1.0
  0
POINT
  5
250E8
330
24E2F
100
AcDbEntity
  8
DEFPOINTS
 62
     0
370
    13
100
AcDbPoint
 10
1350.827167039283
 20
-2588.026749340432
 30
0.0
  0
POINT
  5
250E9
330
24E2F
100
AcDbEntity
  8
DEFPOINTS
 62
     0
370
    13
100
AcDbPoint
 10
1358.827167039283
 20
-2578.01036962126
 30
0.0
  0
POINT
  5
250EA
330
24E2F
100
AcDbEntity
  8
DEFPOINTS
 62
     0
370
    13
100
AcDbPoint
 10
1358.827167039283
 20
-2623.84522244776
 30
0.0
  0
ENDBLK
  5
24E3B
330
24E2F
100
AcDbEntity
  8
0
 62
     2
370
    13
100
AcDbBlockEnd
  0
BLOCK
  5
2535D
330
25352
100
AcDbEntity
  8
0
370
    13
100
AcDbBlockBegin
  2
*D42
 70
     1
 10
0.0
 20
0.0
 30
0.0
  3
*D42
  1

  0
LINE
  5
253D8
330
25352
100
AcDbEntity
  8
文字
 62
     4
370
    13
100
AcDbLine
 10
1404.827167039283
 20
-2506.026793204686
 30
0.0
 11
1404.827167039283
 21
-2470.974427658803
 31
0.0
  0
LINE
  5
253D9
330
25352
100
AcDbEntity
  8
文字
 62
     4
370
    13
100
AcDbLine
 10
1392.027167039283
 20
-2521.051838382336
 30
0.0
 11
1392.027167039283
 21
-2470.974427658803
 31
0.0
  0
LINE
  5
253DA
330
25352
100
AcDbEntity
  8
文字
 62
     4
370
    13
100
AcDbLine
 10
1411.077167039283
 20
-2471.424427658803
 30
0.0
 11
1417.327167039283
 21
-2471.424427658803
 31
0.0
  0
LINE
  5
253DB
330
25352
100
AcDbEntity
  8
文字
 62
     4
370
    13
100
AcDbLine
 10
1392.027167039283
 20
-2471.424427658803
 30
0.0
 11
1385.777167039283
 21
-2471.424427658803
 31
0.0
  0
LINE
  5
253DC
330
25352
100
AcDbEntity
  8
文字
 62
     4
370
    13
100
AcDbLine
 10
1441.564354824391
 20
-2471.424427658803
 30
0.0
 11
1404.827167039283
 21
-2471.424427658803
 31
0.0
  0
MTEXT
  5
253DD
330
25352
100
AcDbEntity
  8
文字
370
    13
100
AcDbMText
 10
1429.600069110105
 20
-2466.424427658803
 30
0.0
 40
7.5
 41
0.0
 71
     5
 72
     1
  1
\A1;12.8
  7
まこ
 73
     1
 44
1.0
  0
LINE
  5
253DE
330
25352
100
AcDbEntity
  8
文字
 62
     4
370
    13
100
AcDbLine
 10
1404.827167039283
 20
-2471.424427658803
 30
0.0
 11
1392.027167039283
 21
-2471.424427658803
 31
0.0
  0
INSERT
  5
253DF
330
25352
100
AcDbEntity
  8
文字
 62
     4
370
    13
100
AcDbBlockReference
  2
_Open30
 10
1404.827167039283
 20
-2471.424427658803
 30
0.0
 41
6.25
 42
6.25
 43
6.25
 50
180.0
  0
INSERT
  5
253E0
330
25352
100
AcDbEntity
  8
文字
 62
     4
370
    13
100
AcDbBlockReference
  2
_DotSmall
 10
1392.027167039283
 20
-2471.424427658803
 30
0.0
 41
6.25
 42
6.25
 43
6.25
  0
POINT
  5
253E1
330
25352
100
AcDbEntity
  8
DEFPOINTS
 62
     0
370
    13
100
AcDbPoint
 10
1404.827167039283
 20
-2508.026793204686
 30
0.0
  0
POINT
  5
253E2
330
25352
100
AcDbEntity
  8
DEFPOINTS
 62
     0
370
    13
100
AcDbPoint
 10
1392.027167039283
 20
-2523.051838382336
 30
0.0
  0
POINT
  5
253E3
330
25352
100
AcDbEntity
  8
DEFPOINTS
 62
     0
370
    13
100
AcDbPoint
 10
1392.027167039283
 20
-2471.424427658803
 30
0.0
  0
ENDBLK
  5
2535E
330
25352
100
AcDbEntity
  8
0
370
    13
100
AcDbBlockEnd
  0
ENDSEC
  0
SECTION
  2
ENTITIES
  0
MTEXT
  5
176FC
330
18
100
AcDbEntity
  8
dimension
 62
     2
100
AcDbMText
 10
-100.7823601383244
 20
171.621314412839
 30
0.0
 40
8.0
 41
0.0
 71
     4
 72
     1
  1

 73
     1
 44
1.0
  0
TEXT
  5
187C8
330
18
100
AcDbEntity
  8
A
100
AcDbText
 10
27.08248755054501
 20
1784.547672862096
 30
0.0
 40
2.5
  1

  7
MSｺﾞｼｯｸ
100
AcDbText
  0
TEXT
  5
187C9
330
18
100
AcDbEntity
  8
A
100
AcDbText
 10
19.25748755054502
 20
1784.547672862096
 30
0.0
 40
2.5
  1

 41
0.5
  7
MSｺﾞｼｯｸ
100
AcDbText
  0
TEXT
  5
187CA
330
18
100
AcDbEntity
  8
A
100
AcDbText
 10
167.1825875009164
 20
2214.514692980458
 30
0.0
 40
3.524999999999999
  1
�    
100
AcDbText
  0
MTEXT
  5
187CB
330
18
100
AcDbEntity
  8
0
  6
ByBlock
100
AcDbMText
 10
325.4874764241681
 20
2232.511722574347
 30
0.0
 40
2.0
 41
0.0
 71
     4
 72
     5
  1

 11
-0.0000000000000002
 21
-1.0
 31
0.0
 73
     1
 44
1.0
1001
ACAD
1000
MTEXTBEGIN
1070
    73
1070
     1
1070
    44
1040
1.0
1070
    74
1070
     0
1000
MTEXTEND
  0
MTEXT
  5
187CC
330
18
100
AcDbEntity
  8
0
  6
ByBlock
100
AcDbMText
 10
360.9528647873208
 20
2221.718414215929
 30
0.0
 40
2.0
 41
0.0
 71
     7
 72
     5
  1

 11
0.0000000000000001
 21
1.0
 31
0.0
 73
     1
 44
1.0
1001
ACAD
1000
MTEXTBEGIN
1070
    73
1070
     1
1070
    44
1040
1.0
1070
    74
1070
     0
1000
MTEXTEND
  0
MTEXT
  5
187CD
330
18
100
AcDbEntity
  8
0
100
AcDbMText
 10
325.1733668026532
 20
2146.93890367364
 30
0.0
 40
2.0
 41
10.1453
 71
     1
 72
     5
  1

 11
-0.0000000000000002
 21
-1.0
 31
0.0
 73
     1
 44
1.0
1001
ACAD
1000
MTEXTBEGIN
1070
    73
1070
     1
1070
    44
1040
1.0
1070
    74
1070
     0
1000
MTEXTEND
  0
MTEXT
  5
187CE
330
18
100
AcDbEntity
  8
0
100
AcDbMText
 10
280.7738750495033
 20
2115.30742008065
 30
0.0
 40
2.0
 41
0.0
 71
     1
 72
     5
  1

 73
     1
 44
1.0
1001
ACAD
1000
MTEXTBEGIN
1070
    73
1070
     1
1070
    44
1040
1.0
1070
    74
1070
     0
1000
MTEXTEND
  0
MTEXT
  5
187CF
330
18
100
AcDbEntity
  8
0
  6
CENTER
100
AcDbMText
 10
606.3621522332663
 20
2216.239946825076
 30
0.0
 40
2.0
 41
15.6417
 71
     1
 72
     5
  1

  7
BIGFONT
 73
     1
 44
1.0
1001
ACAD
1000
MTEXTBEGIN
1070
    73
1070
     1
1070
    44
1040
1.0
1070
    74
1070
     0
1000
MTEXTEND
  0
MTEXT
  5
187D0
330
18
100
AcDbEntity
  8
0
  6
DASHDOT
100
AcDbMText
 10
368.6842112890944
 20
2323.029441652852
 30
0.0
 40
1.0
 41
2.0
 71
     1
 72
     5
  1

  7
BIGFONT
 73
     1
 44
1.0
1001
ACAD
1000
MTEXTBEGIN
1070
    73
1070
     1
1070
    44
1040
1.0
1070
    74
1070
     0
1000
MTEXTEND
  0
MTEXT
  5
187D1
330
18
100
AcDbEntity
  8
0
  6
ByBlock
100
AcDbMText
 10
325.4873894192178
 20
2232.511722574347
 30
0.0
 40
2.0
 41
0.0
 71
     4
 72
     5
  1

 11
-0.0000000000000002
 21
-1.0
 31
0.0
 73
     1
 44
1.0
1001
ACAD
1000
MTEXTBEGIN
1070
    73
1070
     1
1070
    44
1040
1.0
1070
    74
1070
     0
1000
MTEXTEND
  0
MTEXT
  5
187D2
330
18
100
AcDbEntity
  8
0
  6
ByBlock
100
AcDbMText
 10
360.9527777823707
 20
2221.718414215929
 30
0.0
 40
2.0
 41
0.0
 71
     7
 72
     5
  1

 11
0.0000000000000001
 21
1.0
 31
0.0
 73
     1
 44
1.0
1001
ACAD
1000
MTEXTBEGIN
1070
    73
1070
     1
1070
    44
1040
1.0
1070
    74
1070
     0
1000
MTEXTEND
  0
MTEXT
  5
187D3
330
18
100
AcDbEntity
  8
0
100
AcDbMText
 10
325.1732797977028
 20
2146.93890367364
 30
0.0
 40
2.0
 41
10.1453
 71
     1
 72
     5
  1

 11
-0.0000000000000002
 21
-1.0
 31
0.0
 73
     1
 44
1.0
1001
ACAD
1000
MTEXTBEGIN
1070
    73
1070
     1
1070
    44
1040
1.0
1070
    74
1070
     0
1000
MTEXTEND
  0
MTEXT
  5
187D4
330
18
100
AcDbEntity
  8
0
100
AcDbMText
 10
280.773788044553
 20
2115.30742008065
 30
0.0
 40
2.0
 41
0.0
 71
     1
 72
     5
  1

 73
     1
 44
1.0
1001
ACAD
1000
MTEXTBEGIN
1070
    73
1070
     1
1070
    44
1040
1.0
1070
    74
1070
     0
1000
MTEXTEND
  0
MTEXT
  5
187D5
330
18
100
AcDbEntity
  8
0
  6
CENTER
100
AcDbMText
 10
606.3620652283159
 20
2216.239946825076
 30
0.0
 40
2.0
 41
15.6417
 71
     1
 72
     5
  1

  7
BIGFONT
 73
     1
 44
1.0
1001
ACAD
1000
MTEXTBEGIN
1070
    73
1070
     1
1070
    44
1040
1.0
1070
    74
1070
     0
1000
MTEXTEND
  0
MTEXT
  5
187D6
330
18
100
AcDbEntity
  8
0
  6
DASHDOT
100
AcDbMText
 10
368.6841242841443
 20
2323.029441652852
 30
0.0
 40
1.0
 41
2.0
 71
     1
 72
     5
  1

  7
BIGFONT
 73
     1
 44
1.0
1001
ACAD
1000
MTEXTBEGIN
1070
    73
1070
     1
1070
    44
1040
1.0
1070
    74
1070
     0
1000
MTEXTEND
  0
INSERT
  5
187D7
330
18
100
AcDbEntity
  8
FRAME025
100
AcDbBlockReference
  2
機械A4横_LBP
 10
271.0019941658661
 20
2006.88884056487
 30
0.0
  0
LINE
  5
216D4
102
{ACAD_REACTORS
330
24914
102
}
330
18
100
AcDbEntity
  8
0
100
AcDbLine
 10
1287.981372571804
 20
-2571.026749340431
 30
0.0
 11
1263.981372571804
 21
-2571.026749340431
 31
0.0
  0
LINE
  5
216D5
102
{ACAD_REACTORS
330
24914
102
}
330
18
100
AcDbEntity
  8
0
100
AcDbLine
 10
1287.981372571804
 20
-2593.026749340431
 30
0.0
 11
1263.981372571804
 21
-2593.026749340431
 31
0.0
  0
LINE
  5
216D7
102
{ACAD_REACTORS
330
24914
102
}
330
18
100
AcDbEntity
  8
0
100
AcDbLine
 10
1242.673264463695
 20
-2584.326749340431
 30
0.0
 11
1263.981372571804
 21
-2587.926749340431
 31
0.0
  0
LINE
  5
216D8
102
{ACAD_REACTORS
330
24914
102
}
330
18
100
AcDbEntity
  8
0
100
AcDbLine
 10
1242.081372571804
 20
-2580.026749340431
 30
0.0
 11
1263.981372571804
 21
-2576.326749340431
 31
0.0
  0
LINE
  5
216D9
102
{ACAD_REACTORS
330
24914
102
}
330
18
100
AcDbEntity
  8
0
100
AcDbLine
 10
1242.081372571804
 20
-2582.426749340431
 30
0.0
 11
1263.981372571804
 21
-2578.726749340432
 31
0.0
  0
LINE
  5
216DA
102
{ACAD_REACTORS
330
24914
102
}
330
18
100
AcDbEntity
  8
0
100
AcDbLine
 10
1242.081372571804
 20
-2582.026749340431
 30
0.0
 11
1263.981372571804
 21
-2578.326749340431
 31
0.0
  0
LINE
  5
216DB
102
{ACAD_REACTORS
330
24914
102
}
330
18
100
AcDbEntity
  8
0
100
AcDbLine
 10
1242.081372571804
 20
-2584.426749340431
 30
0.0
 11
1263.981372571804
 21
-2580.726749340432
 31
0.0
  0
LINE
  5
216DC
102
{ACAD_REACTORS
330
24914
102
}
330
18
100
AcDbEntity
  8
0
100
AcDbLine
 10
1248.695466531536
 20
-2583.309299676002
 30
0.0
 11
1263.981372571804
 21
-2585.926749340431
 31
0.0
  0
LINE
  5
216DD
102
{ACAD_REACTORS
330
24914
102
}
330
18
100
AcDbEntity
  8
0
100
AcDbLine
 10
1255.750500088582
 20
-2582.117353367277
 30
0.0
 11
1263.981372571804
 21
-2583.526749340431
 31
0.0
  0
LINE
  5
216DE
102
{ACAD_REACTORS
330
24914
102
}
330
18
100
AcDbEntity
  8
0
100
AcDbLine
 10
1249.7759671664
 20
-2583.126749340432
 30
0.0
 11
1263.981372571804
 21
-2585.526749340431
 31
0.0
  0
LINE
  5
216DF
102
{ACAD_REACTORS
330
24914
102
}
330
18
100
AcDbEntity
  8
基板
100
AcDbLine
 10
1242.081372571803
 20
-2585.412224250489
 30
0.0
 11
1242.081372571803
 21
-2578.912224250489
 31
0.0
  0
LINE
  5
216E0
102
{ACAD_REACTORS
330
24914
102
}
330
18
100
AcDbEntity
  8
0
100
AcDbLine
 10
1242.081372571804
 20
-2579.776749340432
 30
0.0
 11
1242.816271900662
 21
-2579.902588266606
 31
0.0
  0
LINE
  5
216E1
102
{ACAD_REACTORS
330
24914
102
}
330
18
100
AcDbEntity
  8
0
100
AcDbLine
 10
1242.081372571804
 20
-2582.176749340431
 30
0.0
 11
1242.816271900662
 21
-2582.302588266606
 31
0.0
  0
LINE
  5
216E2
102
{ACAD_REACTORS
330
24914
102
}
330
18
100
AcDbEntity
  8
0
100
AcDbLine
 10
1242.673264463695
 20
-2581.926749340431
 30
0.0
 11
1243.85704824748
 21
-2582.126749340432
 31
0.0
  0
LINE
  5
216E3
102
{ACAD_REACTORS
330
24914
102
}
330
18
100
AcDbEntity
  8
0
100
AcDbLine
 10
1248.695466531536
 20
-2580.909299676003
 30
0.0
 11
1249.87130545771
 21
-2581.110641957881
 31
0.0
  0
LWPOLYLINE
  5
216E4
102
{ACAD_REACTORS
330
24914
102
}
330
18
100
AcDbEntity
  8
0
100
AcDbPolyline
 90
        4
 70
     1
 43
0.0
 10
1268.481372571804
 20
-2585.276749340431
 10
1263.981372571804
 20
-2585.276749340431
 10
1263.981372571804
 20
-2589.776749340432
 10
1268.481372571804
 20
-2589.776749340432
  0
LINE
  5
216E5
102
{ACAD_REACTORS
330
24914
102
}
330
18
100
AcDbEntity
  8
0
100
AcDbLine
 10
1263.981372571804
 20
-2593.026749340431
 30
0.0
 11
1263.981372571804
 21
-2571.026749340431
 31
0.0
  0
LINE
  5
216E6
102
{ACAD_REACTORS
330
24914
102
}
330
18
100
AcDbEntity
  8
0
370
    20
100
AcDbLine
 10
1263.981372571804
 20
-2589.401749340431
 30
0.0
 11
1263.981372571804
 21
-2574.651749340432
 31
0.0
  0
TEXT
  5
216E7
330
18
100
AcDbEntity
  8
FRAME020
  6
Continuous
100
AcDbText
 10
1272.84444499335
 20
-2736.187561819853
 30
0.0
 40
3.0
  1

 50
270.0
100
AcDbText
  0
LWPOLYLINE
  5
216E8
102
{ACAD_REACTORS
330
24914
102
}
330
18
100
AcDbEntity
  8
0
100
AcDbPolyline
 90
        4
 70
     1
 43
0.0
 10
1281.60334694892
 20
-2573.276749340431
 10
1271.60334694892
 20
-2573.276749340431
 10
1271.60334694892
 20
-2590.776749340431
 10
1281.60334694892
 20
-2590.776749340431
  0
TEXT
  5
216E9
102
{ACAD_REACTORS
330
24914
102
}
330
18
100
AcDbEntity
  8
FRAME020
  6
Continuous
100
AcDbText
 10
1275.859890352732
 20
-2575.593094992309
 30
0.0
 40
4.0
  1
ＡＭＰ
 50
270.0
100
AcDbText
  0
LWPOLYLINE
  5
216EA
102
{ACAD_REACTORS
330
24914
102
}
330
18
100
AcDbEntity
  8
0
100
AcDbPolyline
 90
        4
 70
     1
 43
0.0
 10
1268.481372571804
 20
-2574.276749340432
 10
1263.981372571804
 20
-2574.276749340432
 10
1263.981372571804
 20
-2578.776749340431
 10
1268.481372571804
 20
-2578.776749340431
  0
TEXT
  5
216EC
102
{ACAD_REACTORS
330
24914
102
}
330
18
100
AcDbEntity
  8
FRAME020
  6
Continuous
100
AcDbText
 10
1272.287426204793
 20
-2576.401585169116
 30
0.0
 40
2.799999999999999
  1
0-5200
 50
270.0
100
AcDbText
  0
LWPOLYLINE
  5
216F3
102
{ACAD_REACTORS
330
24914
102
}
330
18
100
AcDbEntity
  8
0
100
AcDbPolyline
 90
        4
 70
     1
 43
0.0
 10
1310.981372571804
 20
-2596.776749340431
 10
1305.981372571804
 20
-2596.776749340431
 10
1305.981372571804
 20
-2567.276749340432
 10
1310.981372571804
 20
-2567.276749340432
  0
LINE
  5
216F4
102
{ACAD_REACTORS
330
24914
102
}
330
18
100
AcDbEntity
  8
0
100
AcDbLine
 10
1288.981372571804
 20
-2589.526749340432
 30
0.0
 11
1288.981372571804
 21
-2586.526749340432
 31
0.0
  0
LWPOLYLINE
  5
216F5
102
{ACAD_REACTORS
330
24914
102
}
330
18
100
AcDbEntity
  8
0
100
AcDbPolyline
 90
        4
 70
     1
 43
0.0
 10
1305.981372571804
 20
-2598.876749340432
 10
1301.981372571804
 20
-2598.876749340432
 10
1301.981372571804
 20
-2565.176749340431
 10
1305.981372571804
 20
-2565.176749340431
  0
LINE
  5
216F6
102
{ACAD_REACTORS
330
24914
102
}
330
18
100
AcDbEntity
  8
0
100
AcDbLine
 10
1288.981372571804
 20
-2596.776749340431
 30
0.0
 11
1301.981372571804
 21
-2596.776749340431
 31
0.0
  0
LINE
  5
216F7
102
{ACAD_REACTORS
330
24914
102
}
330
18
100
AcDbEntity
  8
0
100
AcDbLine
 10
1288.981372571804
 20
-2592.526749340431
 30
0.0
 11
1301.981372571804
 21
-2592.526749340431
 31
0.0
  0
LINE
  5
216F8
102
{ACAD_REACTORS
330
24914
102
}
330
18
100
AcDbEntity
  8
0
100
AcDbLine
 10
1288.981372571804
 20
-2589.526749340432
 30
0.0
 11
1301.981372571804
 21
-2589.526749340432
 31
0.0
  0
LINE
  5
216F9
102
{ACAD_REACTORS
330
24914
102
}
330
18
100
AcDbEntity
  8
0
100
AcDbLine
 10
1287.981372571804
 20
-2593.026749340431
 30
0.0
 11
1288.981372571804
 21
-2592.526749340431
 31
0.0
  0
LINE
  5
216FA
102
{ACAD_REACTORS
330
24914
102
}
330
18
100
AcDbEntity
  8
0
100
AcDbLine
 10
1288.981372571804
 20
-2596.776749340431
 30
0.0
 11
1287.981372571804
 21
-2593.026749340431
 31
0.0
  0
LINE
  5
216FB
102
{ACAD_REACTORS
330
24914
102
}
330
18
100
AcDbEntity
  8
0
100
AcDbLine
 10
1288.981372571804
 20
-2596.776749340431
 30
0.0
 11
1288.981372571804
 21
-2592.526749340431
 31
0.0
  0
LINE
  5
216FC
102
{ACAD_REACTORS
330
24914
102
}
330
18
100
AcDbEntity
  8
0
100
AcDbLine
 10
1288.981372571804
 20
-2586.526749340432
 30
0.0
 11
1301.981372571804
 21
-2586.526749340432
 31
0.0
  0
LINE
  5
216FD
102
{ACAD_REACTORS
330
24914
102
}
330
18
100
AcDbEntity
  8
0
100
AcDbLine
 10
1288.981372571804
 20
-2577.526749340432
 30
0.0
 11
1301.981372571804
 21
-2577.526749340432
 31
0.0
  0
LINE
  5
216FE
102
{ACAD_REACTORS
330
24914
102
}
330
18
100
AcDbEntity
  8
0
100
AcDbLine
 10
1288.981372571804
 20
-2571.526749340431
 30
0.0
 11
1301.981372571804
 21
-2571.526749340431
 31
0.0
  0
LINE
  5
216FF
102
{ACAD_REACTORS
330
24914
102
}
330
18
100
AcDbEntity
  8
0
100
AcDbLine
 10
1288.981372571804
 20
-2574.526749340432
 30
0.0
 11
1301.981372571804
 21
-2574.526749340432
 31
0.0
  0
LINE
  5
21700
102
{ACAD_REACTORS
330
24914
102
}
330
18
100
AcDbEntity
  8
0
100
AcDbLine
 10
1301.981372571804
 20
-2567.276749340432
 30
0.0
 11
1288.981372571804
 21
-2567.276749340432
 31
0.0
  0
LINE
  5
21701
102
{ACAD_REACTORS
330
24914
102
}
330
18
100
AcDbEntity
  8
0
100
AcDbLine
 10
1288.981372571804
 20
-2583.526749340431
 30
0.0
 11
1301.981372571804
 21
-2583.526749340431
 31
0.0
  0
LINE
  5
21702
102
{ACAD_REACTORS
330
24914
102
}
330
18
100
AcDbEntity
  8
0
100
AcDbLine
 10
1288.981372571804
 20
-2580.526749340432
 30
0.0
 11
1301.981372571804
 21
-2580.526749340432
 31
0.0
  0
LINE
  5
21703
102
{ACAD_REACTORS
330
24914
102
}
330
18
100
AcDbEntity
  8
0
100
AcDbLine
 10
1288.981372571804
 20
-2577.526749340432
 30
0.0
 11
1288.981372571804
 21
-2574.526749340432
 31
0.0
  0
LINE
  5
21704
102
{ACAD_REACTORS
330
24914
102
}
330
18
100
AcDbEntity
  8
0
100
AcDbLine
 10
1288.981372571804
 20
-2567.276749340432
 30
0.0
 11
1287.981372571804
 21
-2571.026749340431
 31
0.0
  0
LINE
  5
21705
102
{ACAD_REACTORS
330
24914
102
}
330
18
100
AcDbEntity
  8
0
100
AcDbLine
 10
1287.981372571804
 20
-2571.026749340431
 30
0.0
 11
1288.981372571804
 21
-2571.526749340431
 31
0.0
  0
LINE
  5
21706
102
{ACAD_REACTORS
330
24914
102
}
330
18
100
AcDbEntity
  8
0
100
AcDbLine
 10
1288.981372571804
 20
-2571.526749340431
 30
0.0
 11
1288.981372571804
 21
-2567.276749340432
 31
0.0
  0
LINE
  5
21707
102
{ACAD_REACTORS
330
24914
102
}
330
18
100
AcDbEntity
  8
0
100
AcDbLine
 10
1288.981372571804
 20
-2583.526749340431
 30
0.0
 11
1288.981372571804
 21
-2580.526749340432
 31
0.0
  0
MTEXT
  5
21ACC
330
18
100
AcDbEntity
  8
0
100
AcDbMText
 10
62.91095225984048
 20
-1280.130762802907
 30
0.0
 40
2.5
 41
0.625
 71
     9
 72
     1
  1

 73
     1
 44
1.0
1001
ACAD
1000
MTEXTBEGIN
1070
    73
1070
     1
1070
    44
1040
1.0
1070
    74
1070
     0
1000
MTEXTEND
1000
MTEXTBEGIN
1070
    73
1070
     1
1070
    44
1040
1.0
1070
    74
1070
     0
1000
MTEXTEND
1000
MTEXTBEGIN
1070
    73
1070
     1
1070
    44
1040
1.0
1070
    74
1070
     0
1000
MTEXTEND
1000
MTEXTBEGIN
1070
    73
1070
     1
1070
    44
1040
1.0
1070
    74
1070
     0
1000
MTEXTEND
1000
MTEXTBEGIN
1070
    73
1070
     1
1070
    44
1040
1.0
1070
    74
1070
     0
1000
MTEXTEND
1000
MTEXTBEGIN
1070
    73
1070
     1
1070
    44
1040
1.0
1070
    74
1070
     0
1000
MTEXTEND
  0
DIMENSION
  5
2439B
330
18
100
AcDbEntity
  8
文字
370
    13
100
AcDbDimension
  2
*D22
 10
646.5501991536529
 20
-2580.526749340432
 30
0.0
 11
641.5501991536534
 21
-2548.026749340431
 31
0.0
 70
    32
 71
     5
 42
65.00000000000046
  3
まこ
100
AcDbAlignedDimension
 13
696.6595275678444
 23
-2515.526749340431
 33
0.0
 14
696.6595275678444
 24
-2580.526749340432
 34
0.0
 50
90.0
100
AcDbRotatedDimension
1001
ACAD
1000
DSTYLE
1002
{
1070
   271
1070
     6
1002
}
  0
DIMENSION
  5
2439C
330
18
100
AcDbEntity
  8
文字
370
    13
100
AcDbDimension
  2
*D25
 10
646.5501991536529
 20
-2588.026749340432
 30
0.0
 11
641.5501991536534
 21
-2617.241035054717
 31
0.0
 70
    32
  1
（<>）
 71
     5
 42
7.5
  3
まこ
100
AcDbAlignedDimension
 13
696.6595275678444
 23
-2580.526749340432
 33
0.0
 14
670.9078331117835
 24
-2588.026749340432
 34
0.0
 50
90.0
100
AcDbRotatedDimension
1001
ACAD
1000
DSTYLE
1002
{
1070
   271
1070
     6
1002
}
  0
DIMENSION
  5
2439D
330
18
100
AcDbEntity
  8
文字
370
    13
100
AcDbDimension
  2
*D26
 10
700.9078331117836
 20
-2618.593522282292
 30
0.0
 11
685.9078331117835
 21
-2613.593522282292
 31
0.0
 70
    32
 71
     5
 42
30.00000000000023
  3
まこ
100
AcDbAlignedDimension
 13
670.9078331117835
 23
-2588.012766654611
 33
0.0
 14
700.9078331117836
 24
-2584.19285428557
 34
0.0
100
AcDbRotatedDimension
1001
ACAD
1000
DSTYLE
1002
{
1070
   271
1070
     6
1002
}
  0
LINE
  5
2439E
330
18
100
AcDbEntity
  8
0
370
    50
100
AcDbLine
 10
670.9078331117835
 20
-2588.026749340432
 30
0.0
 11
1178.907833111783
 21
-2588.026749340432
 31
0.0
  0
LINE
  5
2439F
330
18
100
AcDbEntity
  8
0
370
    50
100
AcDbLine
 10
670.9078331117835
 20
-2570.029521512305
 30
0.0
 11
1004.930016131561
 21
-2570.029521512305
 31
0.0
  0
DIMENSION
  5
243A0
330
18
100
AcDbEntity
  8
文字
370
    13
100
AcDbDimension
  2
*D30
 10
646.5501991536529
 20
-2508.026749340432
 30
0.0
 11
641.5501991536534
 21
-2478.812463626146
 31
0.0
 70
    32
  1
（<>）
 71
     5
 42
7.499999999999545
  3
まこ
100
AcDbAlignedDimension
 13
696.6595275678444
 23
-2515.526749340431
 33
0.0
 14
670.9078331117836
 24
-2508.026749340432
 34
0.0
 50
90.0
100
AcDbRotatedDimension
1001
ACAD
1000
DSTYLE
1002
{
1070
   271
1070
     6
1002
}
  0
LINE
  5
243A1
330
18
100
AcDbEntity
  8
0
370
    50
100
AcDbLine
 10
670.9078331117837
 20
-2526.023977168557
 30
0.0
 11
1004.930016131561
 21
-2526.023977168558
 31
0.0
  0
LINE
  5
243A2
330
18
100
AcDbEntity
  8
0
370
    50
100
AcDbLine
 10
1178.907833111783
 20
-2508.026749340432
 30
0.0
 11
670.9078331117836
 21
-2508.026749340431
 31
0.0
  0
LINE
  5
243A3
330
18
100
AcDbEntity
  8
0
370
    50
100
AcDbLine
 10
670.9078331117836
 20
-2662.727285212188
 30
0.0
 11
685.9300161315615
 21
-2662.727285212188
 31
0.0
  0
LINE
  5
243A4
330
18
100
AcDbEntity
  8
0
370
    50
100
AcDbLine
 10
1178.907833111783
 20
-2700.735877685328
 30
0.0
 11
670.9078331117836
 21
-2700.735877685328
 31
0.0
  0
LINE
  5
243A5
330
18
100
AcDbEntity
  8
0
370
    50
100
AcDbLine
 10
670.9078331117836
 20
-2660.735877685328
 30
0.0
 11
1178.907833111783
 21
-2660.735877685328
 31
0.0
  0
DIMENSION
  5
243A6
330
18
100
AcDbEntity
  8
文字
370
    13
100
AcDbDimension
  2
*D24
 10
1178.907833111783
 20
-2629.229284265707
 30
0.0
 11
924.9078331117834
 21
-2624.229284265707
 31
0.0
 70
    32
 71
     5
 42
508.0
  3
まこ
100
AcDbAlignedDimension
 13
670.9078331117835
 23
-2588.012766654612
 33
0.0
 14
1178.907833111783
 24
-2588.012766654612
 34
0.0
100
AcDbRotatedDimension
1001
ACAD
1000
DSTYLE
1002
{
1070
   271
1070
     6
1002
}
  0
LINE
  5
243A7
330
18
100
AcDbEntity
  8
0
  6
CENTER
 62
     1
 48
0.75
370
    13
100
AcDbLine
 10
660.9888583894335
 20
-2548.026749340431
 30
0.0
 11
1204.660568398741
 21
-2548.026749340431
 31
0.0
  0
LINE
  5
243A8
330
18
100
AcDbEntity
  8
0
370
    50
100
AcDbLine
 10
670.9078331117835
 20
-2660.735877685328
 30
0.0
 11
670.9078331117835
 21
-2700.735877685328
 31
0.0
  0
LINE
  5
243A9
330
18
100
AcDbEntity
  8
0
  6
CENTER
 62
     1
 48
0.75
370
    13
100
AcDbLine
 10
596.6521260000638
 20
-2548.026749340431
 30
0.0
 11
530.5798687655054
 21
-2548.026749340431
 31
0.0
  0
LEADER
  5
243AA
330
18
100
AcDbEntity
  8
文字
370
    13
100
AcDbLeader
  3
まこ
 73
     0
 74
     0
 75
     1
 40
8.172588832487308
 41
26.04568527918781
 76
     3
 10
567.5138019601276
 20
-2578.026788586739
 30
0.0
 10
589.1100147166482
 20
-2557.500145293426
 30
0.0
 10
595.3600147166482
 20
-2557.500145293426
 30
0.0
340
243AB
1001
ACAD
1000
DSTYLE
1002
{
1070
   147
1040
0.5
1070
    77
1070
     1
1002
}
  0
MTEXT
  5
243AB
102
{ACAD_REACTORS
330
243AA
102
}
330
18
100
AcDbEntity
  8
文字
370
    13
100
AcDbMText
 10
596.6100147166482
 20
-2556.250145293426
 30
0.0
 40
7.0
 41
0.0
 71
     7
 72
     1
  1
\A1;合格証
  7
まこ
 73
     1
 44
1.0
  0
HATCH
  5
243AC
330
18
100
AcDbEntity
  8
0
 62
     2
100
AcDbHatch
 10
0.0
 20
0.0
 30
0.0
210
0.0
220
0.0
230
1.0
  2
SOLID
 70
     1
 71
     1
 91
        2
 92
       16
 93
        1
 72
     2
 10
558.7690753781294
 20
-2535.475835087817
 40
0.6007500000000002
 50
0.0
 51
360.0
 73
     1
 97
        1
330
243E2
 92
        1
 93
        8
 72
     2
 10
558.7709381688271
 20
-2535.476766483166
 40
1.00311322310025
 50
23.58977727261417
 51
179.946800591402
 73
     1
 72
     2
 10
558.5688253781295
 20
-2535.475835087817
 40
0.8009999999999999
 50
180.0
 51
360.0
 73
     1
 72
     1
 10
559.3698253781294
 20
-2535.475835087817
 11
559.3698253781294
 21
-2537.718635087817
 72
     1
 10
559.3698253781294
 20
-2537.718635087817
 11
557.3673253781294
 21
-2537.478335087817
 72
     1
 10
557.3673253781294
 20
-2537.478335087817
 11
557.3673253781294
 21
-2533.072835087817
 72
     1
 10
557.3673253781294
 20
-2533.072835087817
 11
560.5713253781293
 21
-2533.473335087817
 72
     1
 10
560.5713253781293
 20
-2533.473335087817
 11
560.5713253781293
 21
-2537.878835087817
 72
     1
 10
560.5713253781293
 20
-2537.878835087817
 11
559.6902253781295
 21
-2535.075335087817
 97
        8
330
243B4
330
243E1
330
243DE
330
243DC
330
243E4
330
243B3
330
2441F
330
24420
 75
     0
 76
     1
 98
        1
 10
561.2485501938886
 20
-2333.998124993581
  0
HATCH
  5
243AD
330
18
100
AcDbEntity
  8
0
 62
     2
100
AcDbHatch
 10
0.0
 20
0.0
 30
0.0
210
0.0
220
0.0
230
1.0
  2
SOLID
 70
     1
 71
     1
 91
        2
 92
       16
 93
        1
 72
     2
 10
558.7690753781296
 20
-2535.475835087817
 40
0.6007500000000002
 50
0.0
 51
360.0
 73
     1
 97
        1
330
243E0
 92
        1
 93
        8
 72
     2
 10
558.7709381688271
 20
-2535.476766483166
 40
1.00311322310025
 50
23.58977727262236
 51
179.9468005913759
 73
     1
 72
     2
 10
558.5688253781297
 20
-2535.475835087817
 40
0.8009999999999999
 50
180.0
 51
360.0
 73
     1
 72
     1
 10
559.3698253781297
 20
-2535.475835087817
 11
559.3698253781297
 21
-2537.718635087818
 72
     1
 10
559.3698253781297
 20
-2537.718635087818
 11
557.3673253781296
 21
-2537.478335087818
 72
     1
 10
557.3673253781296
 20
-2537.478335087818
 11
557.3673253781296
 21
-2533.072835087817
 72
     1
 10
557.3673253781296
 20
-2533.072835087817
 11
560.5713253781293
 21
-2533.473335087817
 72
     1
 10
560.5713253781293
 20
-2533.473335087817
 11
560.5713253781293
 21
-2537.878835087818
 72
     1
 10
560.5713253781293
 20
-2537.878835087818
 11
559.6902253781297
 21
-2535.075335087818
 97
        8
330
243B2
330
243DF
330
243DD
330
243DB
330
243E3
330
243B1
330
2441E
330
2441D
 75
     0
 76
     1
 98
        1
 10
561.2485501938888
 20
-2333.998124993582
  0
HATCH
  5
243AE
330
18
100
AcDbEntity
  8
0
 62
     4
100
AcDbHatch
 10
0.0
 20
0.0
 30
0.0
210
0.0
220
0.0
230
1.0
  2
SOLID
 70
     1
 71
     1
 91
        2
 92
       16
 93
        1
 72
     2
 10
560.2140460407404
 20
-2574.186861988357
 40
0.6007500000000002
 50
0.0
 51
360.0
 73
     1
 97
        1
330
24406
 92
        1
 93
        8
 72
     2
 10
560.2159088314388
 20
-2574.187793383705
 40
1.00311322310025
 50
23.58977727262236
 51
179.9468005913759
 73
     1
 72
     2
 10
560.0137960407405
 20
-2574.186861988357
 40
0.8009999999999999
 50
180.0
 51
360.0
 73
     1
 72
     1
 10
560.8147960407409
 20
-2574.186861988357
 11
560.8147960407409
 21
-2576.429661988356
 72
     1
 10
560.8147960407409
 20
-2576.429661988356
 11
558.8122960407413
 21
-2576.189361988357
 72
     1
 10
558.8122960407413
 20
-2576.189361988357
 11
558.8122960407413
 21
-2571.783861988356
 72
     1
 10
558.8122960407413
 20
-2571.783861988356
 11
562.0162960407411
 21
-2572.184361988357
 72
     1
 10
562.0162960407411
 20
-2572.184361988357
 11
562.0162960407411
 21
-2576.589861988356
 72
     1
 10
562.0162960407411
 20
-2576.589861988356
 11
561.1351960407405
 21
-2573.786361988357
 97
        8
330
243B6
330
243B7
330
24405
330
243B9
330
243CC
330
243B5
330
24403
330
24404
 75
     0
 76
     1
 98
        1
 10
562.6935208565005
 20
-2372.709151894121
  0
TEXT
  5
243AF
330
18
100
AcDbEntity
  8
0
 62
     2
100
AcDbText
 10
559.1118219256989
 20
-2538.816347422345
 30
0.0
 40
1.44
  1
NIKKI
 50
270.0
 41
1.25
  7
TIMESNR
100
AcDbText
  0
TEXT
  5
243B0
330
18
100
AcDbEntity
  8
0
 62
     2
100
AcDbText
 10
559.1118219256986
 20
-2538.816347422343
 30
0.0
 40
1.44
  1
NIKKI
 50
270.0
 41
1.25
  7
TIMESNR
100
AcDbText
  0
LINE
  5
243B1
102
{ACAD_REACTORS
330
243AD
102
}
330
18
100
AcDbEntity
  8
0
 62
     2
100
AcDbLine
 10
557.3673253781296
 20
-2533.072835087817
 30
0.0
 11
560.5713253781293
 21
-2533.473335087817
 31
0.0
  0
ARC
  5
243B2
102
{ACAD_REACTORS
330
243AD
102
}
330
18
100
AcDbEntity
  8
0
 62
     2
100
AcDbCircle
 10
558.7709381688271
 20
-2535.476766483166
 30
0.0
 40
1.00311322310025
100
AcDbArc
 50
23.58977727262236
 51
179.9468005913759
  0
LINE
  5
243B3
102
{ACAD_REACTORS
330
243AC
102
}
330
18
100
AcDbEntity
  8
0
 62
     2
100
AcDbLine
 10
557.3673253781294
 20
-2533.072835087817
 30
0.0
 11
560.5713253781293
 21
-2533.473335087817
 31
0.0
  0
ARC
  5
243B4
102
{ACAD_REACTORS
330
243AC
102
}
330
18
100
AcDbEntity
  8
0
 62
     2
100
AcDbCircle
 10
558.7709381688271
 20
-2535.476766483166
 30
0.0
 40
1.00311322310025
100
AcDbArc
 50
23.58977727261417
 51
179.946800591402
  0
LINE
  5
243B5
102
{ACAD_REACTORS
330
243AE
102
}
330
18
100
AcDbEntity
  8
0
 62
     4
100
AcDbLine
 10
558.8122960407413
 20
-2571.783861988356
 30
0.0
 11
562.0162960407411
 21
-2572.184361988357
 31
0.0
  0
ARC
  5
243B6
102
{ACAD_REACTORS
330
243AE
102
}
330
18
100
AcDbEntity
  8
0
 62
     4
100
AcDbCircle
 10
560.2159088314388
 20
-2574.187793383705
 30
0.0
 40
1.00311322310025
100
AcDbArc
 50
23.58977727262236
 51
179.9468005913759
  0
ARC
  5
243B7
102
{ACAD_REACTORS
330
243AE
102
}
330
18
100
AcDbEntity
  8
0
 62
     4
100
AcDbCircle
 10
560.0137960407405
 20
-2574.186861988357
 30
0.0
 40
0.8009999999999999
100
AcDbArc
 50
180.0
 51
0.0
  0
TEXT
  5
243B8
330
18
100
AcDbEntity
  8
0
 62
     4
100
AcDbText
 10
558.8600301793244
 20
-2577.405961212745
 30
0.0
 40
1.44
  1
DENSO
 50
270.0
  7
TIMESNR
100
AcDbText
  0
LINE
  5
243B9
102
{ACAD_REACTORS
330
243AE
102
}
330
18
100
AcDbEntity
  8
0
 62
     4
100
AcDbLine
 10
558.8122960407413
 20
-2576.189361988357
 30
0.0
 11
560.8147960407409
 21
-2576.429661988356
 31
0.0
  0
LINE
  5
243BA
330
18
100
AcDbEntity
  8
0
 62
     2
100
AcDbLine
 10
557.0138019601279
 20
-2565.526788586739
 30
0.0
 11
568.0138019601279
 21
-2565.526788586739
 31
0.0
  0
LINE
  5
243BB
330
18
100
AcDbEntity
  8
0
 62
     2
100
AcDbLine
 10
557.0138019601279
 20
-2565.526788586739
 30
0.0
 11
568.0138019601279
 21
-2565.526788586739
 31
0.0
  0
LINE
  5
243BC
330
18
100
AcDbEntity
  8
0
 48
0.3
370
    50
100
AcDbLine
 10
551.5138019601279
 20
-2588.026749340432
 30
0.0
 11
591.5138019601279
 21
-2588.026749340432
 31
0.0
  0
LINE
  5
243BD
330
18
100
AcDbEntity
  8
0
 62
     4
100
AcDbLine
 10
567.0138019601276
 20
-2570.526788586739
 30
0.0
 11
558.0138019601281
 21
-2570.526788586739
 31
0.0
  0
LINE
  5
243BE
330
18
100
AcDbEntity
  8
0
 62
     4
100
AcDbLine
 10
558.0138019601276
 20
-2585.526788586739
 30
0.0
 11
567.0138019601276
 21
-2585.526788586739
 31
0.0
  0
LINE
  5
243BF
330
18
100
AcDbEntity
  8
0
 62
     2
100
AcDbLine
 10
568.0138019601279
 20
-2530.526788586739
 30
0.0
 11
557.0138019601279
 21
-2530.526788586739
 31
0.0
  0
LINE
  5
243C0
330
18
100
AcDbEntity
  8
0
 62
     2
100
AcDbLine
 10
568.0138019601279
 20
-2530.526788586739
 30
0.0
 11
557.0138019601279
 21
-2530.526788586739
 31
0.0
  0
LINE
  5
243C1
330
18
100
AcDbEntity
  8
0
 48
0.3
370
    50
100
AcDbLine
 10
591.5138019601279
 20
-2508.026749340431
 30
0.0
 11
551.5138019601279
 21
-2508.026749340431
 31
0.0
  0
LINE
  5
243C2
330
18
100
AcDbEntity
  8
0
 62
     2
100
AcDbLine
 10
556.5138019601278
 20
-2531.026788586739
 30
0.0
 11
556.5138019601278
 21
-2565.026788586739
 31
0.0
  0
LINE
  5
243C3
330
18
100
AcDbEntity
  8
0
 62
     2
100
AcDbLine
 10
556.5138019601278
 20
-2531.026788586739
 30
0.0
 11
556.5138019601278
 21
-2565.026788586739
 31
0.0
  0
LINE
  5
243C4
330
18
100
AcDbEntity
  8
0
 48
0.3
370
    50
100
AcDbLine
 10
551.5138019601279
 20
-2508.026793204686
 30
0.0
 11
551.5138019601279
 21
-2588.026783968792
 31
0.0
  0
LWPOLYLINE
  5
243C5
102
{ACAD_REACTORS
330
24717
102
}
330
18
100
AcDbEntity
  8
0
  6
PHANTOM
 48
0.75
370
     5
100
AcDbPolyline
 90
        4
 70
     1
 43
0.0
 10
550.3138019601278
 20
-2523.051838382336
 10
545.3138019601276
 20
-2523.051838382336
 10
545.3138019601276
 20
-2573.027322065339
 10
550.3138019601278
 20
-2573.027322065339
  0
LINE
  5
243C6
102
{ACAD_REACTORS
330
24717
102
}
330
18
100
AcDbEntity
  8
0
  6
PHANTOM
 48
0.75
370
     5
100
AcDbLine
 10
537.5138019601279
 20
-2508.026793204686
 30
0.0
 11
537.5138019601279
 21
-2588.026793204686
 31
0.0
  0
LINE
  5
243C7
102
{ACAD_REACTORS
330
24717
102
}
330
18
100
AcDbEntity
  8
0
  6
PHANTOM
 48
0.75
370
     5
100
AcDbLine
 10
545.3138019601276
 20
-2588.026793204686
 30
0.0
 11
545.3138019601276
 21
-2508.026793204686
 31
0.0
  0
LINE
  5
243CA
330
18
100
AcDbEntity
  8
0
  6
CENTER
 62
     1
 48
0.75
370
    13
100
AcDbLine
 10
527.635920848985
 20
-2580.527449340431
 30
0.0
 11
554.5962263180606
 21
-2580.527449340431
 31
0.0
  0
LINE
  5
243CB
102
{ACAD_REACTORS
330
24717
102
}
330
18
100
AcDbEntity
  8
0
  6
PHANTOM
 48
0.75
370
     5
100
AcDbLine
 10
537.5138019601279
 20
-2588.026793204686
 30
0.0
 11
545.3138019601276
 21
-2588.026793204686
 31
0.0
  0
LINE
  5
243CC
102
{ACAD_REACTORS
330
243AE
102
}
330
18
100
AcDbEntity
  8
0
 62
     4
100
AcDbLine
 10
558.8122960407413
 20
-2571.783861988356
 30
0.0
 11
558.8122960407413
 21
-2576.189361988357
 31
0.0
  0
LINE
  5
243CD
330
18
100
AcDbEntity
  8
0
 62
     4
100
AcDbLine
 10
557.5138019601281
 20
-2571.026788586739
 30
0.0
 11
557.5138019601276
 21
-2585.026788586739
 31
0.0
  0
ARC
  5
243CE
330
18
100
AcDbEntity
  8
0
 62
     4
100
AcDbCircle
 10
558.0138019601281
 20
-2571.026788586739
 30
0.0
 40
0.5
100
AcDbArc
 50
89.99999999999998
 51
180.0
  0
ARC
  5
243CF
330
18
100
AcDbEntity
  8
0
 62
     4
100
AcDbCircle
 10
558.0138019601276
 20
-2585.026788586739
 30
0.0
 40
0.5
100
AcDbArc
 50
180.0
 51
270.0
  0
ARC
  5
243D0
330
18
100
AcDbEntity
  8
0
 62
     2
100
AcDbCircle
 10
557.0138019601279
 20
-2565.026788586739
 30
0.0
 40
0.5
100
AcDbArc
 50
180.0
 51
270.0
  0
ARC
  5
243D1
330
18
100
AcDbEntity
  8
0
 62
     2
100
AcDbCircle
 10
557.0138019601279
 20
-2565.026788586739
 30
0.0
 40
0.5
100
AcDbArc
 50
180.0
 51
270.0
  0
LINE
  5
243D7
330
18
100
AcDbEntity
  8
0
  6
CENTER
 62
     1
 48
0.75
370
    13
100
AcDbLine
 10
527.635920848985
 20
-2515.527449340431
 30
0.0
 11
554.5540821942674
 21
-2515.527449340431
 31
0.0
  0
LINE
  5
243D8
102
{ACAD_REACTORS
330
24717
102
}
330
18
100
AcDbEntity
  8
0
  6
PHANTOM
 48
0.75
370
     5
100
AcDbLine
 10
545.3138019601276
 20
-2508.026793204686
 30
0.0
 11
537.5138019601279
 21
-2508.026793204686
 31
0.0
  0
TEXT
  5
243D9
330
18
100
AcDbEntity
  8
0
 62
     2
100
AcDbText
 10
557.4150595167136
 20
-2538.694934312204
 30
0.0
 40
1.44
  1
DENSO
 50
270.0
 41
1.3
  7
TIMESNR
100
AcDbText
  0
TEXT
  5
243DA
330
18
100
AcDbEntity
  8
0
 62
     2
100
AcDbText
 10
557.4150595167131
 20
-2538.694934312205
 30
0.0
 40
1.44
  1
DENSO
 50
270.0
 41
1.3
  7
TIMESNR
100
AcDbText
  0
LINE
  5
243DB
102
{ACAD_REACTORS
330
243AD
102
}
330
18
100
AcDbEntity
  8
0
 62
     2
100
AcDbLine
 10
557.3673253781296
 20
-2537.478335087818
 30
0.0
 11
559.3698253781297
 21
-2537.718635087818
 31
0.0
  0
LINE
  5
243DC
102
{ACAD_REACTORS
330
243AC
102
}
330
18
100
AcDbEntity
  8
0
 62
     2
100
AcDbLine
 10
557.3673253781294
 20
-2537.478335087817
 30
0.0
 11
559.3698253781294
 21
-2537.718635087817
 31
0.0
  0
LINE
  5
243DD
102
{ACAD_REACTORS
330
243AD
102
}
330
18
100
AcDbEntity
  8
0
 62
     2
100
AcDbLine
 10
559.3698253781297
 20
-2535.475835087817
 30
0.0
 11
559.3698253781297
 21
-2537.718635087818
 31
0.0
  0
LINE
  5
243DE
102
{ACAD_REACTORS
330
243AC
102
}
330
18
100
AcDbEntity
  8
0
 62
     2
100
AcDbLine
 10
559.3698253781294
 20
-2535.475835087817
 30
0.0
 11
559.3698253781294
 21
-2537.718635087817
 31
0.0
  0
ARC
  5
243DF
102
{ACAD_REACTORS
330
243AD
102
}
330
18
100
AcDbEntity
  8
0
 62
     2
100
AcDbCircle
 10
558.5688253781297
 20
-2535.475835087817
 30
0.0
 40
0.8009999999999999
100
AcDbArc
 50
180.0
 51
0.0
  0
CIRCLE
  5
243E0
102
{ACAD_REACTORS
330
243AD
102
}
330
18
100
AcDbEntity
  8
0
 62
     2
100
AcDbCircle
 10
558.7690753781296
 20
-2535.475835087817
 30
0.0
 40
0.6007500000000002
  0
ARC
  5
243E1
102
{ACAD_REACTORS
330
243AC
102
}
330
18
100
AcDbEntity
  8
0
 62
     2
100
AcDbCircle
 10
558.5688253781295
 20
-2535.475835087817
 30
0.0
 40
0.8009999999999999
100
AcDbArc
 50
180.0
 51
0.0
  0
CIRCLE
  5
243E2
102
{ACAD_REACTORS
330
243AC
102
}
330
18
100
AcDbEntity
  8
0
 62
     2
100
AcDbCircle
 10
558.7690753781294
 20
-2535.475835087817
 30
0.0
 40
0.6007500000000002
  0
LINE
  5
243E3
102
{ACAD_REACTORS
330
243AD
102
}
330
18
100
AcDbEntity
  8
0
 62
     2
100
AcDbLine
 10
557.3673253781296
 20
-2533.072835087817
 30
0.0
 11
557.3673253781296
 21
-2537.478335087818
 31
0.0
  0
LINE
  5
243E4
102
{ACAD_REACTORS
330
243AC
102
}
330
18
100
AcDbEntity
  8
0
 62
     2
100
AcDbLine
 10
557.3673253781294
 20
-2533.072835087817
 30
0.0
 11
557.3673253781294
 21
-2537.478335087817
 31
0.0
  0
ARC
  5
243E5
330
18
100
AcDbEntity
  8
0
 62
     2
100
AcDbCircle
 10
557.0138019601279
 20
-2531.026788586739
 30
0.0
 40
0.5
100
AcDbArc
 50
89.99999999999998
 51
180.0
  0
ARC
  5
243E6
330
18
100
AcDbEntity
  8
0
 62
     2
100
AcDbCircle
 10
557.0138019601279
 20
-2531.026788586739
 30
0.0
 40
0.5
100
AcDbArc
 50
89.99999999999998
 51
180.0
  0
TEXT
  5
243EA
330
18
100
AcDbEntity
  8
0
 62
     2
100
AcDbText
 10
564.8967141078062
 20
-2532.350758617605
 30
0.0
 40
2.6
  1
MODEL:CLM750MA
 50
270.0
 41
1.199999999999999
  7
MSゴシックN
 11
564.4215872042529
 21
-2532.350758617605
 31
0.0
100
AcDbText
 73
     1
  0
LINE
  5
243EB
330
18
100
AcDbEntity
  8
0
 62
     2
100
AcDbLine
 10
568.5138019601279
 20
-2565.026788586739
 30
0.0
 11
568.5138019601279
 21
-2531.026788586739
 31
0.0
  0
LINE
  5
243EC
330
18
100
AcDbEntity
  8
0
 62
     2
100
AcDbLine
 10
568.5138019601279
 20
-2565.026788586739
 30
0.0
 11
568.5138019601279
 21
-2531.026788586739
 31
0.0
  0
LWPOLYLINE
  5
243ED
330
18
100
AcDbEntity
  8
0
  6
HIDDEN
 48
0.75
370
    13
100
AcDbPolyline
 90
        4
 70
     1
 43
0.0
 10
577.5138107446539
 20
-2512.054749340431
 10
589.5138107446539
 20
-2512.054749340431
 10
589.5138107446539
 20
-2584.054749340431
 10
577.5138107446539
 20
-2584.054749340431
  0
LINE
  5
243EE
330
18
100
AcDbEntity
  8
0
 48
0.3
370
    50
100
AcDbLine
 10
591.0138019601279
 20
-2526.037994482738
 30
0.0
 11
591.0138019601279
 21
-2570.026783968792
 31
0.0
  0
LINE
  5
243EF
330
18
100
AcDbEntity
  8
0
 62
     2
100
AcDbLine
 10
561.5138019601279
 20
-2530.526788586739
 30
0.0
 11
561.5138019601279
 21
-2565.526788586739
 31
0.0
  0
LINE
  5
243F0
330
18
100
AcDbEntity
  8
0
 62
     2
100
AcDbLine
 10
561.5138019601279
 20
-2530.526788586739
 30
0.0
 11
561.5138019601279
 21
-2565.526788586739
 31
0.0
  0
CIRCLE
  5
243F4
330
18
100
AcDbEntity
  8
0
  6
HIDDEN
 48
0.75
370
    13
100
AcDbCircle
 10
583.5141821507966
 20
-2578.03887637926
 30
0.0
 40
4.0
  0
LINE
  5
243F8
330
18
100
AcDbEntity
  8
0
  6
CENTER
 62
     1
 48
0.75
370
    13
100
AcDbLine
 10
595.1934470433709
 20
-2580.522641094663
 30
0.0
 11
572.4836487485783
 21
-2580.522641094663
 31
0.0
  0
LINE
  5
243F9
330
18
100
AcDbEntity
  8
0
 62
     4
100
AcDbLine
 10
567.5138019601276
 20
-2585.026788586739
 30
0.0
 11
567.5138019601276
 21
-2571.026788586739
 31
0.0
  0
LINE
  5
243FA
330
18
100
AcDbEntity
  8
0
 62
     4
100
AcDbLine
 10
563.5138019601281
 20
-2570.526788586739
 30
0.0
 11
563.5138019601281
 21
-2585.526788586739
 31
0.0
  0
TEXT
  5
243FB
330
18
100
AcDbEntity
  8
0
 62
     4
100
AcDbText
 10
564.4723614110555
 20
-2571.741507065945
 30
0.0
 40
2.0
  1
Certificate
 50
270.0
  7
TIMESNR
 11
563.8335726583518
 21
-2571.741507065945
 31
0.0
100
AcDbText
 73
     1
  0
ARC
  5
243FC
330
18
100
AcDbEntity
  8
0
 62
     4
100
AcDbCircle
 10
567.0138019601276
 20
-2571.026788586739
 30
0.0
 40
0.5
100
AcDbArc
 50
0.0
 51
89.99999999999998
  0
ARC
  5
243FD
330
18
100
AcDbEntity
  8
0
 62
     4
100
AcDbCircle
 10
567.0138019601276
 20
-2585.026788586739
 30
0.0
 40
0.5
100
AcDbArc
 50
270.0
 51
0.0
  0
ARC
  5
243FE
330
18
100
AcDbEntity
  8
0
 62
     2
100
AcDbCircle
 10
568.0138019601279
 20
-2565.026788586739
 30
0.0
 40
0.5
100
AcDbArc
 50
270.0
 51
0.0
  0
ARC
  5
243FF
330
18
100
AcDbEntity
  8
0
 62
     2
100
AcDbCircle
 10
568.0138019601279
 20
-2565.026788586739
 30
0.0
 40
0.5
100
AcDbArc
 50
270.0
 51
0.0
  0
LINE
  5
24403
102
{ACAD_REACTORS
330
243AE
102
}
330
18
100
AcDbEntity
  8
0
 62
     4
100
AcDbLine
 10
562.0162960407411
 20
-2572.184361988357
 30
0.0
 11
562.0162960407411
 21
-2576.589861988356
 31
0.0
  0
LINE
  5
24404
102
{ACAD_REACTORS
330
243AE
102
}
330
18
100
AcDbEntity
  8
0
 62
     4
100
AcDbLine
 10
562.0162960407411
 20
-2576.589861988356
 30
0.0
 11
561.1351960407405
 21
-2573.786361988357
 31
0.0
  0
LINE
  5
24405
102
{ACAD_REACTORS
330
243AE
102
}
330
18
100
AcDbEntity
  8
0
 62
     4
100
AcDbLine
 10
560.8147960407409
 20
-2574.186861988357
 30
0.0
 11
560.8147960407409
 21
-2576.429661988356
 31
0.0
  0
CIRCLE
  5
24406
102
{ACAD_REACTORS
330
243AE
102
}
330
18
100
AcDbEntity
  8
0
 62
     4
100
AcDbCircle
 10
560.2140460407404
 20
-2574.186861988357
 30
0.0
 40
0.6007500000000002
  0
TEXT
  5
24407
330
18
100
AcDbEntity
  8
0
 62
     4
100
AcDbText
 10
560.5567925883101
 20
-2577.527374322884
 30
0.0
 40
1.44
  1
NIKKI
 50
270.0
  7
TIMESNR
100
AcDbText
  0
LINE
  5
24409
330
18
100
AcDbEntity
  8
0
 48
0.3
370
    50
100
AcDbLine
 10
591.0138019601279
 20
-2570.026749340431
 30
0.0
 11
591.5138107446539
 21
-2570.026749340431
 31
0.0
  0
LEADER
  5
2440F
330
18
100
AcDbEntity
  8
文字
370
    13
100
AcDbLeader
  3
まこ
 73
     0
 74
     0
 75
     1
 40
8.350253807106598
 41
17.55329949238578
 76
     3
 10
568.5138019601279
 20
-2548.026749340431
 30
0.0
 10
588.1392232797345
 20
-2531.586296414043
 30
0.0
 10
594.3892232797345
 20
-2531.586296414043
 30
0.0
340
24423
1001
ACAD
1000
DSTYLE
1002
{
1070
   147
1040
0.5
1070
    77
1070
     1
1002
}
  0
CIRCLE
  5
24413
330
18
100
AcDbEntity
  8
0
  6
HIDDEN
 48
0.75
370
    13
100
AcDbCircle
 10
583.5141821507966
 20
-2518.03887637926
 30
0.0
 40
4.0
  0
LINE
  5
24417
330
18
100
AcDbEntity
  8
0
  6
CENTER
 62
     1
 48
0.75
370
    13
100
AcDbLine
 10
595.1934470433709
 20
-2515.550775890506
 30
0.0
 11
573.2173951382931
 21
-2515.550775890506
 31
0.0
  0
ARC
  5
24418
330
18
100
AcDbEntity
  8
0
 62
     2
100
AcDbCircle
 10
568.0138019601279
 20
-2531.026788586739
 30
0.0
 40
0.5
100
AcDbArc
 50
0.0
 51
89.99999999999998
  0
ARC
  5
24419
330
18
100
AcDbEntity
  8
0
 62
     2
100
AcDbCircle
 10
568.0138019601279
 20
-2531.026788586739
 30
0.0
 40
0.5
100
AcDbArc
 50
0.0
 51
89.99999999999998
  0
LINE
  5
2441D
102
{ACAD_REACTORS
330
243AD
102
}
330
18
100
AcDbEntity
  8
0
 62
     2
100
AcDbLine
 10
560.5713253781293
 20
-2537.878835087818
 30
0.0
 11
559.6902253781297
 21
-2535.075335087818
 31
0.0
  0
LINE
  5
2441E
102
{ACAD_REACTORS
330
243AD
102
}
330
18
100
AcDbEntity
  8
0
 62
     2
100
AcDbLine
 10
560.5713253781293
 20
-2533.473335087817
 30
0.0
 11
560.5713253781293
 21
-2537.878835087818
 31
0.0
  0
LINE
  5
2441F
102
{ACAD_REACTORS
330
243AC
102
}
330
18
100
AcDbEntity
  8
0
 62
     2
100
AcDbLine
 10
560.5713253781293
 20
-2533.473335087817
 30
0.0
 11
560.5713253781293
 21
-2537.878835087817
 31
0.0
  0
LINE
  5
24420
102
{ACAD_REACTORS
330
243AC
102
}
330
18
100
AcDbEntity
  8
0
 62
     2
100
AcDbLine
 10
560.5713253781293
 20
-2537.878835087817
 30
0.0
 11
559.6902253781295
 21
-2535.075335087817
 31
0.0
  0
TEXT
  5
24421
330
18
100
AcDbEntity
  8
0
 62
     2
100
AcDbText
 10
562.0726807593749
 20
-2532.323632044793
 30
0.0
 40
2.0
  1
SER No.******
 50
270.0
 41
1.199999999999999
  7
MSｺﾞｼｯｸN
 11
561.7071985258724
 21
-2532.323632044793
 31
0.0
100
AcDbText
 73
     1
  0
TEXT
  5
24422
330
18
100
AcDbEntity
  8
0
 62
     2
100
AcDbText
 10
562.0726807593749
 20
-2532.323632044793
 30
0.0
 40
2.0
  1
SER No.******
 50
270.0
 41
1.199999999999999
  7
MSゴシックN
 11
561.7071985258724
 21
-2532.323632044793
 31
0.0
100
AcDbText
 73
     1
  0
MTEXT
  5
24423
102
{ACAD_REACTORS
330
2440F
102
}
330
18
100
AcDbEntity
  8
文字
370
    13
100
AcDbMText
 10
595.6392232797345
 20
-2530.336296414043
 30
0.0
 40
7.0
 41
0.0
 71
     7
 72
     1
  1
\A1;銘板
  7
まこ
 73
     1
 44
1.0
  0
LINE
  5
24425
330
18
100
AcDbEntity
  8
0
 48
0.3
370
    50
100
AcDbLine
 10
591.5138107446539
 20
-2526.026749340431
 30
0.0
 11
591.0138019601279
 21
-2526.026749340431
 31
0.0
  0
DIMENSION
  5
2442B
330
18
100
AcDbEntity
  8
文字
370
    13
100
AcDbDimension
  2
*D38
 10
636.283902581476
 20
-2588.026749340432
 30
0.0
 11
631.2839025814764
 21
-2548.026749340431
 31
0.0
 70
    32
 71
     5
 42
80.0000000000009
  3
まこ
100
AcDbAlignedDimension
 13
670.9078331117836
 23
-2508.02674934043
 33
0.0
 14
670.9078331117835
 24
-2588.026749340432
 34
0.0
 50
90.0
100
AcDbRotatedDimension
1001
ACAD
1000
DSTYLE
1002
{
1070
   271
1070
     6
1002
}
  0
LINE
  5
2442C
330
18
100
AcDbEntity
  8
0
370
    50
100
AcDbLine
 10
670.9078331117835
 20
-2588.026749340432
 30
0.0
 11
670.9078331117836
 21
-2508.026749340432
 31
0.0
  0
LINE
  5
2442D
330
18
100
AcDbEntity
  8
0
 62
     4
370
    13
100
AcDbLine
 10
646.5501991536529
 20
-2588.012766654612
 30
0.0
 11
646.5501991536529
 21
-2580.522641094663
 31
0.0
  0
LINE
  5
2442E
330
18
100
AcDbEntity
  8
0
 62
     4
370
    13
100
AcDbLine
 10
646.5501991536529
 20
-2508.040732026252
 30
0.0
 11
646.5501991536529
 21
-2515.5308575862
 31
0.0
  0
TEXT
  5
2442F
330
18
100
AcDbEntity
  8
0
 62
     7
100
AcDbText
 10
559.0183972365653
 20
-2550.14844898129
 30
137.5
 40
1.5
  1
SN-16140
 50
270.0
  7
MSゴシックN
 11
558.7442855614383
 21
-2550.14844898129
 31
137.5
100
AcDbText
 73
     1
  0
TEXT
  5
24430
330
18
100
AcDbEntity
  8
0
 62
     7
100
AcDbText
 10
557.1486111861795
 20
-2550.14844898129
 30
137.5
 40
1.5
  1
MADE IN JAPAN
 50
270.0
  7
MSゴシックN
 11
556.8744995110526
 21
-2550.14844898129
 31
137.5
100
AcDbText
 73
     1
  0
LINE
  5
24433
330
18
100
AcDbEntity
  8
0
370
    50
100
AcDbLine
 10
1164.930055511783
 20
-2526.023977168558
 30
0.0
 11
1178.907833111783
 21
-2526.023977168558
 31
0.0
  0
LINE
  5
24435
330
18
100
AcDbEntity
  8
0
370
    50
100
AcDbLine
 10
1164.950016131561
 20
-2570.029521512305
 30
0.0
 11
1178.907833111783
 21
-2570.029521512305
 31
0.0
  0
DIMENSION
  5
24436
330
18
100
AcDbEntity
  8
文字
370
    13
100
AcDbDimension
  2
*D29
 10
1178.907833111783
 20
-2618.593522282292
 30
0.0
 11
1163.907833111783
 21
-2613.593522282292
 31
0.0
 70
    32
  1
（<>）
 71
     5
 42
29.99999999999977
  3
まこ
100
AcDbAlignedDimension
 13
1148.907833111783
 23
-2584.124590644009
 33
0.0
 14
1178.907833111783
 24
-2588.012766654612
 34
0.0
100
AcDbRotatedDimension
1001
ACAD
1000
DSTYLE
1002
{
1070
   271
1070
     6
1002
}
  0
LINE
  5
24439
330
18
100
AcDbEntity
  8
0
370
    50
100
AcDbLine
 10
1163.930055511783
 20
-2662.727285212188
 30
0.0
 11
1178.907833111783
 21
-2662.727285212188
 31
0.0
  0
LWPOLYLINE
  5
2443D
330
18
100
AcDbEntity
  8
0
370
    50
100
AcDbPolyline
 90
        2
 70
     0
 43
0.0
 10
1004.930016131561
 20
-2660.735877685328
 10
1164.930055511783
 20
-2660.735877685328
  0
LWPOLYLINE
  5
2443E
330
18
100
AcDbEntity
  8
0
370
    50
100
AcDbPolyline
 90
        2
 70
     0
 43
0.0
 10
1163.930055511783
 20
-2686.735877685328
 10
685.9300161315614
 20
-2686.735877685328
  0
LINE
  5
2443F
330
18
100
AcDbEntity
  8
隠れ線
 48
0.75
370
    13
100
AcDbLine
 10
685.9300161315614
 20
-2672.235877685328
 30
0.0
 11
1163.930055511783
 21
-2672.235877685328
 31
0.0
  0
LINE
  5
24440
330
18
100
AcDbEntity
  8
隠れ線
 48
0.75
370
    13
100
AcDbLine
 10
685.9300161315615
 20
-2662.727285212188
 30
0.0
 11
1163.930055511783
 21
-2662.735877685328
 31
0.0
  0
LINE
  5
24446
330
18
100
AcDbEntity
  8
0
370
    50
100
AcDbLine
 10
685.9300161315614
 20
-2660.735877685328
 30
0.0
 11
685.9300161315614
 21
-2686.735877685328
 31
0.0
  0
LINE
  5
2449A
330
18
100
AcDbEntity
  8
0
370
    50
100
AcDbLine
 10
1163.930055511783
 20
-2660.735877685328
 30
0.0
 11
1163.930055511783
 21
-2686.735877685328
 31
0.0
  0
DIMENSION
  5
244A2
330
18
100
AcDbEntity
  8
文字
370
    13
100
AcDbDimension
  2
*D23
 10
1148.907833111783
 20
-2618.593522282292
 30
0.0
 11
924.9078331117837
 21
-2613.593522282292
 31
0.0
 70
    32
  1
7xP64=<>
 71
     5
 42
448.0
  3
まこ
100
AcDbAlignedDimension
 13
700.9078331117836
 23
-2584.19285428557
 33
0.0
 14
1148.907833111783
 24
-2584.124590644009
 34
0.0
100
AcDbRotatedDimension
1001
ACAD
1000
DSTYLE
1002
{
1070
   271
1070
     6
1002
}
  0
LWPOLYLINE
  5
244A4
330
18
100
AcDbEntity
  8
0
370
    50
100
AcDbPolyline
 90
        2
 70
     0
 43
0.0
 10
1164.930055511783
 20
-2570.029521512305
 10
1004.930016131561
 20
-2570.029521512305
  0
LWPOLYLINE
  5
244A6
330
18
100
AcDbEntity
  8
0
370
    50
100
AcDbPolyline
 90
        2
 70
     0
 43
0.0
 10
1164.930055511783
 20
-2526.023977168558
 10
1004.930016131561
 20
-2526.023977168558
  0
LINE
  5
244A8
330
18
100
AcDbEntity
  8
0
  6
CENTER
 62
     1
 48
0.3
370
    13
100
AcDbLine
 10
696.6595275678444
 20
-2515.526749340431
 30
0.0
 11
704.9464675398464
 21
-2515.526749340431
 31
0.0
  0
CIRCLE
  5
244A9
330
18
100
AcDbEntity
  8
0
370
     9
100
AcDbCircle
 10
700.9078331117836
 20
-2515.526749340431
 30
0.0
 40
2.5
  0
CIRCLE
  5
244AA
330
18
100
AcDbEntity
  8
0
370
    20
100
AcDbCircle
 10
700.9078331117836
 20
-2515.546667644737
 30
0.0
 40
2.0
  0
LINE
  5
244AB
330
18
100
AcDbEntity
  8
0
  6
CENTER
 62
     1
 48
0.3
370
    13
100
AcDbLine
 10
696.6595275678444
 20
-2580.526749340432
 30
0.0
 11
704.9464675398464
 21
-2580.526749340432
 31
0.0
  0
CIRCLE
  5
244AC
330
18
100
AcDbEntity
  8
0
370
     9
100
AcDbCircle
 10
700.9078331117836
 20
-2580.526749340432
 30
0.0
 40
2.5
  0
CIRCLE
  5
244AD
330
18
100
AcDbEntity
  8
0
370
    20
100
AcDbCircle
 10
700.9078331117836
 20
-2580.534884136275
 30
0.0
 40
2.0
  0
LINE
  5
244AE
330
18
100
AcDbEntity
  8
0
100
AcDbLine
 10
685.9300161315614
 20
-2570.029521512305
 30
0.0
 11
685.9300161315614
 21
-2588.012766654612
 31
0.0
  0
LINE
  5
244AF
330
18
100
AcDbEntity
  8
0
  6
CENTER
 62
     1
 48
0.3
370
    13
100
AcDbLine
 10
700.9078331117836
 20
-2584.196962531339
 30
0.0
 11
700.9078331117836
 21
-2577.093657367189
 31
0.0
  0
LINE
  5
244B0
330
18
100
AcDbEntity
  8
0
100
AcDbLine
 10
685.9300161315614
 20
-2508.040732026251
 30
0.0
 11
685.9300161315614
 21
-2526.023977168558
 31
0.0
  0
LINE
  5
244B1
330
18
100
AcDbEntity
  8
0
  6
CENTER
 62
     1
 48
0.3
370
    13
100
AcDbLine
 10
700.9078331117836
 20
-2519.196962531339
 30
0.0
 11
700.9078331117836
 21
-2512.093657367189
 31
0.0
  0
LINE
  5
244CC
330
18
100
AcDbEntity
  8
0
100
AcDbLine
 10
1163.950016131561
 20
-2570.029521512305
 30
0.0
 11
1163.930055511783
 21
-2588.026749340432
 31
0.0
  0
LINE
  5
244CD
330
18
100
AcDbEntity
  8
0
100
AcDbLine
 10
1163.930055511783
 20
-2508.040732026251
 30
0.0
 11
1163.930055511783
 21
-2526.023977168558
 31
0.0
  0
DIMENSION
  5
244CE
330
18
100
AcDbEntity
  8
文字
370
    13
100
AcDbDimension
  2
*D28
 10
1263.981372571804
 20
-2629.229284265707
 30
0.0
 11
1221.444602841794
 21
-2624.229284265707
 31
0.0
 70
    32
  1
（200）
 71
     5
 42
85.07353946002103
  3
まこ
100
AcDbAlignedDimension
 13
1178.907833111783
 23
-2588.012766654612
 33
0.0
 14
1263.981372571804
 24
-2594.894880141958
 34
0.0
100
AcDbRotatedDimension
1001
ACAD
1000
DSTYLE
1002
{
1070
   271
1070
     6
1002
}
  0
LINE
  5
244D5
330
18
100
AcDbEntity
  8
0
370
    50
100
AcDbLine
 10
1178.907833111783
 20
-2660.735877685328
 30
0.0
 11
1178.907833111783
 21
-2700.735877685328
 31
0.0
  0
LEADER
  5
244F8
330
18
100
AcDbEntity
  8
0
370
    13
100
AcDbLeader
  3
まこ
 73
     0
 74
     0
 75
     1
 40
8.492385786802028
 41
53.19289340101523
 76
     3
 10
1371.125975517902
 20
-2585.786891073002
 30
0.0
 10
1337.981611873042
 20
-2647.456529818109
 30
0.0
 10
1344.231611873042
 20
-2647.456529818109
 30
0.0
340
24568
213
-2.298688052477245
223
-0.3086725873749856
233
0.0
1001
ACAD
1000
DSTYLE
1002
{
1070
   147
1040
0.5
1070
    77
1070
     1
1002
}
  0
LINE
  5
244F9
330
18
100
AcDbEntity
  8
0
  6
CENTER
 62
     1
 48
0.75
370
    13
100
AcDbLine
 10
1344.067261409102
 20
-2548.026749340431
 30
0.0
 11
1413.504405282671
 21
-2548.026749340431
 31
0.0
  0
LINE
  5
244FA
330
18
100
AcDbEntity
  8
0
 48
0.3
370
    50
100
AcDbLine
 10
1390.827167039283
 20
-2588.026749340432
 30
0.0
 11
1350.827167039283
 21
-2588.026749340432
 31
0.0
  0
LINE
  5
244FB
330
18
100
AcDbEntity
  8
0
 48
0.3
370
    50
100
AcDbLine
 10
1350.827167039283
 20
-2508.026749340432
 30
0.0
 11
1390.827167039283
 21
-2508.026749340432
 31
0.0
  0
DIMENSION
  5
244FC
330
18
100
AcDbEntity
  8
文字
370
    13
100
AcDbDimension
  2
*D33
 10
1390.827167039283
 20
-2471.424427658803
 30
0.0
 11
1370.827167039283
 21
-2466.424427658803
 31
0.0
 70
    32
 71
     5
 42
40.0
  3
まこ
100
AcDbAlignedDimension
 13
1350.827167039283
 23
-2508.026793204686
 33
0.0
 14
1390.827167039283
 24
-2508.026793204686
 34
0.0
100
AcDbRotatedDimension
  0
DIMENSION
  5
244FD
330
18
100
AcDbEntity
  8
文字
370
    13
100
AcDbDimension
  2
*D34
 10
1404.827167039283
 20
-2425.491339233658
 30
0.0
 11
1377.827167039283
 21
-2425.491339233658
 31
0.0
 70
   160
  1
<>（取付寸法）
 71
     5
 42
54.0
  3
まこ
100
AcDbAlignedDimension
 13
1350.827167039283
 23
-2508.026793204686
 33
0.0
 14
1404.827167039283
 24
-2508.026793204686
 34
0.0
100
AcDbRotatedDimension
1001
ACAD
1000
DSTYLE
1002
{
1070
   271
1070
     6
1002
}
  0
LINE
  5
24504
330
18
100
AcDbEntity
  8
0
370
    50
100
AcDbLine
 10
1178.907833111783
 20
-2588.026749340432
 30
0.0
 11
1178.907833111783
 21
-2508.040732026251
 31
0.0
  0
DIMENSION
  5
2451F
330
18
100
AcDbEntity
  8
文字
370
    13
100
AcDbDimension
  2
*D37
 10
1322.78832090487
 20
-2570.026749340431
 30
0.0
 11
1317.78832090487
 21
-2548.026749340431
 31
0.0
 70
    32
 71
     5
 42
44.0
  3
まこ
100
AcDbAlignedDimension
 13
1350.827167039283
 23
-2526.026749340431
 33
0.0
 14
1350.827158254757
 24
-2570.026749340431
 34
0.0
 50
90.0
100
AcDbRotatedDimension
1001
ACAD
1000
DSTYLE
1002
{
1070
   271
1070
     6
1070
   279
1070
     1
1002
}
  0
DIMENSION
  5
24520
330
18
100
AcDbEntity
  8
文字
370
    13
100
AcDbDimension
  2
*D27
 10
1322.78832090487
 20
-2588.026749340432
 30
0.0
 11
1322.78832090487
 21
-2579.026749340431
 31
0.0
 70
   160
  1
（<>）
 71
     5
 42
18.0
  3
まこ
100
AcDbAlignedDimension
 13
1350.827158254757
 23
-2570.026749340431
 33
0.0
 14
1350.827167039283
 24
-2588.026749340432
 34
0.0
 50
90.0
100
AcDbRotatedDimension
1001
ACAD
1000
DSTYLE
1002
{
1070
   271
1070
     6
1002
}
  0
DIMENSION
  5
24521
330
18
100
AcDbEntity
  8
文字
370
    13
100
AcDbDimension
  2
*D31
 10
1322.78832090487
 20
-2526.026749340431
 30
0.0
 11
1322.78832090487
 21
-2517.026749340431
 31
0.0
 70
   160
  1
（<>）
 71
     5
 42
18.0
  3
まこ
100
AcDbAlignedDimension
 13
1350.827167039283
 23
-2508.026749340432
 33
0.0
 14
1350.827158254757
 24
-2526.026749340431
 34
0.0
 50
90.0
100
AcDbRotatedDimension
1001
ACAD
1000
DSTYLE
1002
{
1070
   271
1070
     6
1002
}
  0
LINE
  5
2452B
330
18
100
AcDbEntity
  8
0
 48
0.3
370
    50
100
AcDbLine
 10
1351.327167039283
 20
-2570.026749340431
 30
0.0
 11
1350.827158254757
 21
-2570.026749340431
 31
0.0
  0
CIRCLE
  5
24549
330
18
100
AcDbEntity
  8
0
  6
HIDDEN
 48
0.75
370
    13
100
AcDbCircle
 10
1358.826786848614
 20
-2578.03887637926
 30
0.0
 40
4.0
  0
DIMENSION
  5
2454C
330
18
100
AcDbEntity
  8
文字
370
    13
100
AcDbDimension
  2
*D32
 10
1351.327167039283
 20
-2482.716217679254
 30
0.0
 11
1329.22002418214
 21
-2482.716217679254
 31
0.0
 70
   160
 71
     5
 42
0.5
  3
まこ
100
AcDbAlignedDimension
 13
1350.827167039283
 23
-2508.026793204686
 33
0.0
 14
1351.327167039283
 24
-2526.037994482738
 34
0.0
100
AcDbRotatedDimension
  0
LINE
  5
24552
330
18
100
AcDbEntity
  8
0
 48
0.3
370
    50
100
AcDbLine
 10
1350.827158254757
 20
-2526.026749340431
 30
0.0
 11
1351.327167039283
 21
-2526.026749340431
 31
0.0
  0
LINE
  5
24553
330
18
100
AcDbEntity
  8
0
 62
     4
370
    13
100
AcDbLine
 10
1350.827158254757
 20
-2482.716217679254
 30
0.0
 11
1351.327998695978
 21
-2482.716217679254
 31
0.0
  0
CIRCLE
  5
2455D
330
18
100
AcDbEntity
  8
0
  6
HIDDEN
 48
0.75
370
    13
100
AcDbCircle
 10
1358.826786848614
 20
-2518.03887637926
 30
0.0
 40
4.0
  0
DIMENSION
  5
24560
330
18
100
AcDbEntity
  8
文字
370
    13
100
AcDbDimension
  2
*D35
 10
1392.027167039283
 20
-2471.424427658803
 30
0.0
 11
1361.493033907027
 21
-2451.081034142857
 31
0.0
 70
   160
 71
     5
 42
1.200000000000045
  3
まこ
100
AcDbAlignedDimension
 13
1390.827167039283
 23
-2508.026793204686
 33
0.0
 14
1392.027167039283
 24
-2523.051838382336
 34
0.0
100
AcDbRotatedDimension
1001
ACAD
1000
DSTYLE
1002
{
1070
   344
1005
153E2
1070
   342
1005
0
1070
   173
1070
     1
1070
   343
1005
1215D
1070
    78
1070
     8
1070
   279
1070
     2
1002
}
  0
DIMENSION
  5
24561
330
18
100
AcDbEntity
  8
文字
370
    13
100
AcDbDimension
  2
*D36
 10
1404.827167039283
 20
-2482.716217679254
 30
0.0
 11
1426.434309896426
 21
-2477.716217679254
 31
0.0
 70
    32
 71
     5
 42
7.799999999999954
  3
まこ
100
AcDbAlignedDimension
 13
1397.027167039283
 23
-2508.026793204686
 33
0.0
 14
1404.827167039283
 24
-2508.026793204686
 34
0.0
100
AcDbRotatedDimension
1001
ACAD
1000
DSTYLE
1002
{
1070
   271
1070
     1
1002
}
  0
LEADER
  5
24562
330
18
100
AcDbEntity
  8
文字
370
    13
100
AcDbLeader
  3
まこ
 73
     0
 74
     0
 75
     1
 40
20.79864636209813
 41
99.42131979695432
 76
     3
 10
1402.961535325884
 20
-2588.026793204686
 30
0.0
 10
1399.005281667217
 20
-2633.791230256361
 30
0.0
 10
1405.255281667217
 20
-2633.791230256361
 30
0.0
340
24563
213
2.119167807137955
223
-0.8649104465985146
233
0.0
1001
ACAD
1000
DSTYLE
1002
{
1070
   147
1040
0.5
1070
    77
1070
     1
1002
}
  0
MTEXT
  5
24563
102
{ACAD_REACTORS
330
24562
102
}
330
18
100
AcDbEntity
  8
文字
370
    13
100
AcDbMText
 10
1404.386113860079
 20
-2631.676319809762
 30
0.0
 40
7.0
 41
0.0
 71
     7
 72
     1
  1
組合せマグネットベース\PＭＢＭＡシリーズ
  7
まこ
 73
     1
 44
1.0
  0
LINE
  5
24564
330
18
100
AcDbEntity
  8
0
 48
0.3
370
    50
100
AcDbLine
 10
1390.827167039283
 20
-2508.026749340432
 30
0.0
 11
1390.827167039283
 21
-2588.026783968792
 31
0.0
  0
LWPOLYLINE
  5
24565
102
{ACAD_REACTORS
330
2471A
102
}
330
18
100
AcDbEntity
  8
0
  6
PHANTOM
 48
0.75
370
     5
100
AcDbPolyline
 90
        4
 70
     1
 43
0.0
 10
1392.027167039283
 20
-2523.051838382336
 10
1397.027167039283
 20
-2523.051838382336
 10
1397.027167039283
 20
-2573.02732206534
 10
1392.027167039283
 20
-2573.02732206534
  0
LINE
  5
24566
102
{ACAD_REACTORS
330
2471A
102
}
330
18
100
AcDbEntity
  8
0
  6
PHANTOM
 48
0.75
370
     5
100
AcDbLine
 10
1404.827167039283
 20
-2508.026793204686
 30
0.0
 11
1404.827167039283
 21
-2588.026793204686
 31
0.0
  0
LINE
  5
24567
102
{ACAD_REACTORS
330
2471A
102
}
330
18
100
AcDbEntity
  8
0
  6
PHANTOM
 48
0.75
370
     5
100
AcDbLine
 10
1397.027167039283
 20
-2588.026793204686
 30
0.0
 11
1397.027167039283
 21
-2508.026793204686
 31
0.0
  0
MTEXT
  5
24568
102
{ACAD_REACTORS
330
244F8
102
}
330
18
100
AcDbEntity
  8
0
 62
     2
370
    13
100
AcDbMText
 10
1347.780299925519
 20
-2645.897857230735
 30
0.0
 40
7.0
 41
0.0
 71
     7
 72
     1
  1
\A1;ケーブル位置
  7
まこ
 73
     1
 44
1.0
  0
LINE
  5
24569
330
18
100
AcDbEntity
  8
0
  6
CENTER
 62
     1
 48
0.75
370
    13
100
AcDbLine
 10
1414.705048150425
 20
-2580.527449340431
 30
0.0
 11
1387.74474268135
 21
-2580.527449340431
 31
0.0
  0
LINE
  5
2456F
102
{ACAD_REACTORS
330
2471A
102
}
330
18
100
AcDbEntity
  8
0
  6
PHANTOM
 48
0.75
370
     5
100
AcDbLine
 10
1404.827167039283
 20
-2588.026793204686
 30
0.0
 11
1397.027167039283
 21
-2588.026793204686
 31
0.0
  0
LINE
  5
24570
330
18
100
AcDbEntity
  8
0
  6
CENTER
 62
     1
 48
0.75
370
    13
100
AcDbLine
 10
1414.705048150425
 20
-2515.527449340432
 30
0.0
 11
1387.786886805143
 21
-2515.527449340432
 31
0.0
  0
LINE
  5
24576
102
{ACAD_REACTORS
330
2471A
102
}
330
18
100
AcDbEntity
  8
0
  6
PHANTOM
 48
0.75
370
     5
100
AcDbLine
 10
1397.027167039283
 20
-2508.026793204686
 30
0.0
 11
1404.827167039283
 21
-2508.026793204686
 31
0.0
  0
LINE
  5
24578
330
18
100
AcDbEntity
  8
0
 62
     4
370
    13
100
AcDbLine
 10
1397.027167039283
 20
-2482.716217679254
 30
0.0
 11
1406.75767925816
 21
-2482.716217679254
 31
0.0
  0
TEXT
  5
24579
330
18
100
AcDbEntity
  8
文字
370
    13
100
AcDbText
 10
1443.914155052492
 20
-2469.152813793082
 30
0.0
 40
7.5
  1
注：1
 41
0.6
  7
ｽﾀｲﾙ3
100
AcDbText
  0
CIRCLE
  5
247DA
330
18
100
AcDbEntity
  8
0
370
     9
100
AcDbCircle
 10
764.9078331117837
 20
-2580.526749340432
 30
0.0
 40
2.5
  0
LINE
  5
247DB
330
18
100
AcDbEntity
  8
0
  6
CENTER
 62
     1
 48
0.3
370
    13
100
AcDbLine
 10
760.6595275678444
 20
-2580.526749340432
 30
0.0
 11
768.9464675398465
 21
-2580.526749340432
 31
0.0
  0
CIRCLE
  5
247DC
330
18
100
AcDbEntity
  8
0
370
    20
100
AcDbCircle
 10
764.9078331117837
 20
-2580.534884136275
 30
0.0
 40
2.0
  0
LINE
  5
247DD
330
18
100
AcDbEntity
  8
0
  6
CENTER
 62
     1
 48
0.3
370
    13
100
AcDbLine
 10
764.9078331117837
 20
-2584.196962531339
 30
0.0
 11
764.9078331117837
 21
-2577.093657367189
 31
0.0
  0
CIRCLE
  5
247DE
330
18
100
AcDbEntity
  8
0
370
     9
100
AcDbCircle
 10
764.9078331117837
 20
-2515.526749340431
 30
0.0
 40
2.5
  0
LINE
  5
247DF
330
18
100
AcDbEntity
  8
0
  6
CENTER
 62
     1
 48
0.3
370
    13
100
AcDbLine
 10
760.6595275678444
 20
-2515.526749340431
 30
0.0
 11
768.9464675398465
 21
-2515.526749340431
 31
0.0
  0
CIRCLE
  5
247E0
330
18
100
AcDbEntity
  8
0
370
    20
100
AcDbCircle
 10
764.9078331117837
 20
-2515.546667644737
 30
0.0
 40
2.0
  0
LINE
  5
247E1
330
18
100
AcDbEntity
  8
0
  6
CENTER
 62
     1
 48
0.3
370
    13
100
AcDbLine
 10
764.9078331117837
 20
-2519.196962531339
 30
0.0
 11
764.9078331117837
 21
-2512.093657367189
 31
0.0
  0
CIRCLE
  5
247E2
330
18
100
AcDbEntity
  8
0
370
     9
100
AcDbCircle
 10
828.9078331117837
 20
-2580.526749340432
 30
0.0
 40
2.5
  0
LINE
  5
247E3
330
18
100
AcDbEntity
  8
0
  6
CENTER
 62
     1
 48
0.3
370
    13
100
AcDbLine
 10
824.6595275678444
 20
-2580.526749340432
 30
0.0
 11
832.9464675398465
 21
-2580.526749340432
 31
0.0
  0
CIRCLE
  5
247E4
330
18
100
AcDbEntity
  8
0
370
    20
100
AcDbCircle
 10
828.9078331117837
 20
-2580.534884136275
 30
0.0
 40
2.0
  0
LINE
  5
247E5
330
18
100
AcDbEntity
  8
0
  6
CENTER
 62
     1
 48
0.3
370
    13
100
AcDbLine
 10
828.9078331117837
 20
-2584.196962531339
 30
0.0
 11
828.9078331117837
 21
-2577.093657367189
 31
0.0
  0
CIRCLE
  5
247E6
330
18
100
AcDbEntity
  8
0
370
     9
100
AcDbCircle
 10
828.9078331117837
 20
-2515.526749340431
 30
0.0
 40
2.5
  0
LINE
  5
247E7
330
18
100
AcDbEntity
  8
0
  6
CENTER
 62
     1
 48
0.3
370
    13
100
AcDbLine
 10
824.6595275678444
 20
-2515.526749340431
 30
0.0
 11
832.9464675398465
 21
-2515.526749340431
 31
0.0
  0
CIRCLE
  5
247E8
330
18
100
AcDbEntity
  8
0
370
    20
100
AcDbCircle
 10
828.9078331117837
 20
-2515.546667644737
 30
0.0
 40
2.0
  0
LINE
  5
247E9
330
18
100
AcDbEntity
  8
0
  6
CENTER
 62
     1
 48
0.3
370
    13
100
AcDbLine
 10
828.9078331117837
 20
-2519.196962531339
 30
0.0
 11
828.9078331117837
 21
-2512.093657367189
 31
0.0
  0
CIRCLE
  5
247EA
330
18
100
AcDbEntity
  8
0
370
     9
100
AcDbCircle
 10
892.9078331117837
 20
-2580.526749340432
 30
0.0
 40
2.5
  0
LINE
  5
247EB
330
18
100
AcDbEntity
  8
0
  6
CENTER
 62
     1
 48
0.3
370
    13
100
AcDbLine
 10
888.6595275678443
 20
-2580.526749340432
 30
0.0
 11
896.9464675398464
 21
-2580.526749340432
 31
0.0
  0
CIRCLE
  5
247EC
330
18
100
AcDbEntity
  8
0
370
    20
100
AcDbCircle
 10
892.9078331117837
 20
-2580.534884136275
 30
0.0
 40
2.0
  0
LINE
  5
247ED
330
18
100
AcDbEntity
  8
0
  6
CENTER
 62
     1
 48
0.3
370
    13
100
AcDbLine
 10
892.9078331117837
 20
-2584.196962531339
 30
0.0
 11
892.9078331117837
 21
-2577.093657367189
 31
0.0
  0
CIRCLE
  5
247EE
330
18
100
AcDbEntity
  8
0
370
     9
100
AcDbCircle
 10
892.9078331117837
 20
-2515.526749340431
 30
0.0
 40
2.5
  0
LINE
  5
247EF
330
18
100
AcDbEntity
  8
0
  6
CENTER
 62
     1
 48
0.3
370
    13
100
AcDbLine
 10
888.6595275678443
 20
-2515.526749340431
 30
0.0
 11
896.9464675398464
 21
-2515.526749340431
 31
0.0
  0
CIRCLE
  5
247F0
330
18
100
AcDbEntity
  8
0
370
    20
100
AcDbCircle
 10
892.9078331117837
 20
-2515.546667644737
 30
0.0
 40
2.0
  0
LINE
  5
247F1
330
18
100
AcDbEntity
  8
0
  6
CENTER
 62
     1
 48
0.3
370
    13
100
AcDbLine
 10
892.9078331117837
 20
-2519.196962531339
 30
0.0
 11
892.9078331117837
 21
-2512.093657367189
 31
0.0
  0
CIRCLE
  5
247F2
330
18
100
AcDbEntity
  8
0
370
     9
100
AcDbCircle
 10
956.9078331117836
 20
-2580.526749340432
 30
0.0
 40
2.5
  0
LINE
  5
247F3
330
18
100
AcDbEntity
  8
0
  6
CENTER
 62
     1
 48
0.3
370
    13
100
AcDbLine
 10
952.6595275678443
 20
-2580.526749340432
 30
0.0
 11
960.9464675398465
 21
-2580.526749340432
 31
0.0
  0
CIRCLE
  5
247F4
330
18
100
AcDbEntity
  8
0
370
    20
100
AcDbCircle
 10
956.9078331117836
 20
-2580.534884136275
 30
0.0
 40
2.0
  0
LINE
  5
247F5
330
18
100
AcDbEntity
  8
0
  6
CENTER
 62
     1
 48
0.3
370
    13
100
AcDbLine
 10
956.9078331117836
 20
-2584.196962531339
 30
0.0
 11
956.9078331117836
 21
-2577.093657367189
 31
0.0
  0
CIRCLE
  5
247F6
330
18
100
AcDbEntity
  8
0
370
     9
100
AcDbCircle
 10
956.9078331117836
 20
-2515.526749340431
 30
0.0
 40
2.5
  0
LINE
  5
247F7
330
18
100
AcDbEntity
  8
0
  6
CENTER
 62
     1
 48
0.3
370
    13
100
AcDbLine
 10
952.6595275678443
 20
-2515.526749340431
 30
0.0
 11
960.9464675398465
 21
-2515.526749340431
 31
0.0
  0
CIRCLE
  5
247F8
330
18
100
AcDbEntity
  8
0
370
    20
100
AcDbCircle
 10
956.9078331117836
 20
-2515.546667644737
 30
0.0
 40
2.0
  0
LINE
  5
247F9
330
18
100
AcDbEntity
  8
0
  6
CENTER
 62
     1
 48
0.3
370
    13
100
AcDbLine
 10
956.9078331117836
 20
-2519.196962531339
 30
0.0
 11
956.9078331117836
 21
-2512.093657367189
 31
0.0
  0
CIRCLE
  5
247FA
330
18
100
AcDbEntity
  8
0
370
     9
100
AcDbCircle
 10
1020.907833111783
 20
-2580.526749340432
 30
0.0
 40
2.5
  0
LINE
  5
247FB
330
18
100
AcDbEntity
  8
0
  6
CENTER
 62
     1
 48
0.3
370
    13
100
AcDbLine
 10
1016.659527567844
 20
-2580.526749340432
 30
0.0
 11
1024.946467539846
 21
-2580.526749340432
 31
0.0
  0
CIRCLE
  5
247FC
330
18
100
AcDbEntity
  8
0
370
    20
100
AcDbCircle
 10
1020.907833111783
 20
-2580.534884136275
 30
0.0
 40
2.0
  0
LINE
  5
247FD
330
18
100
AcDbEntity
  8
0
  6
CENTER
 62
     1
 48
0.3
370
    13
100
AcDbLine
 10
1020.907833111783
 20
-2584.196962531339
 30
0.0
 11
1020.907833111783
 21
-2577.093657367189
 31
0.0
  0
CIRCLE
  5
247FE
330
18
100
AcDbEntity
  8
0
370
     9
100
AcDbCircle
 10
1020.907833111783
 20
-2515.526749340431
 30
0.0
 40
2.5
  0
LINE
  5
247FF
330
18
100
AcDbEntity
  8
0
  6
CENTER
 62
     1
 48
0.3
370
    13
100
AcDbLine
 10
1016.659527567844
 20
-2515.526749340431
 30
0.0
 11
1024.946467539846
 21
-2515.526749340431
 31
0.0
  0
CIRCLE
  5
24800
330
18
100
AcDbEntity
  8
0
370
    20
100
AcDbCircle
 10
1020.907833111783
 20
-2515.546667644737
 30
0.0
 40
2.0
  0
LINE
  5
24801
330
18
100
AcDbEntity
  8
0
  6
CENTER
 62
     1
 48
0.3
370
    13
100
AcDbLine
 10
1020.907833111783
 20
-2519.196962531339
 30
0.0
 11
1020.907833111783
 21
-2512.093657367189
 31
0.0
  0
CIRCLE
  5
24802
330
18
100
AcDbEntity
  8
0
370
     9
100
AcDbCircle
 10
1084.907833111783
 20
-2580.526749340432
 30
0.0
 40
2.5
  0
LINE
  5
24803
330
18
100
AcDbEntity
  8
0
  6
CENTER
 62
     1
 48
0.3
370
    13
100
AcDbLine
 10
1080.659527567844
 20
-2580.526749340432
 30
0.0
 11
1088.946467539846
 21
-2580.526749340432
 31
0.0
  0
CIRCLE
  5
24804
330
18
100
AcDbEntity
  8
0
370
    20
100
AcDbCircle
 10
1084.907833111783
 20
-2580.534884136275
 30
0.0
 40
2.0
  0
LINE
  5
24805
330
18
100
AcDbEntity
  8
0
  6
CENTER
 62
     1
 48
0.3
370
    13
100
AcDbLine
 10
1084.907833111783
 20
-2584.196962531339
 30
0.0
 11
1084.907833111783
 21
-2577.093657367189
 31
0.0
  0
CIRCLE
  5
24806
330
18
100
AcDbEntity
  8
0
370
     9
100
AcDbCircle
 10
1084.907833111783
 20
-2515.526749340431
 30
0.0
 40
2.5
  0
LINE
  5
24807
330
18
100
AcDbEntity
  8
0
  6
CENTER
 62
     1
 48
0.3
370
    13
100
AcDbLine
 10
1080.659527567844
 20
-2515.526749340431
 30
0.0
 11
1088.946467539846
 21
-2515.526749340431
 31
0.0
  0
CIRCLE
  5
24808
330
18
100
AcDbEntity
  8
0
370
    20
100
AcDbCircle
 10
1084.907833111783
 20
-2515.546667644737
 30
0.0
 40
2.0
  0
LINE
  5
24809
330
18
100
AcDbEntity
  8
0
  6
CENTER
 62
     1
 48
0.3
370
    13
100
AcDbLine
 10
1084.907833111783
 20
-2519.196962531339
 30
0.0
 11
1084.907833111783
 21
-2512.093657367189
 31
0.0
  0
CIRCLE
  5
2480A
330
18
100
AcDbEntity
  8
0
370
     9
100
AcDbCircle
 10
1148.907833111783
 20
-2580.526749340432
 30
0.0
 40
2.5
  0
LINE
  5
2480B
330
18
100
AcDbEntity
  8
0
  6
CENTER
 62
     1
 48
0.3
370
    13
100
AcDbLine
 10
1144.659527567844
 20
-2580.526749340432
 30
0.0
 11
1152.946467539846
 21
-2580.526749340432
 31
0.0
  0
CIRCLE
  5
2480C
330
18
100
AcDbEntity
  8
0
370
    20
100
AcDbCircle
 10
1148.907833111783
 20
-2580.534884136275
 30
0.0
 40
2.0
  0
LINE
  5
2480D
330
18
100
AcDbEntity
  8
0
  6
CENTER
 62
     1
 48
0.3
370
    13
100
AcDbLine
 10
1148.907833111783
 20
-2584.196962531339
 30
0.0
 11
1148.907833111783
 21
-2577.093657367189
 31
0.0
  0
CIRCLE
  5
2480E
330
18
100
AcDbEntity
  8
0
370
     9
100
AcDbCircle
 10
1148.907833111783
 20
-2515.526749340431
 30
0.0
 40
2.5
  0
LINE
  5
2480F
330
18
100
AcDbEntity
  8
0
  6
CENTER
 62
     1
 48
0.3
370
    13
100
AcDbLine
 10
1144.659527567844
 20
-2515.526749340431
 30
0.0
 11
1152.946467539846
 21
-2515.526749340431
 31
0.0
  0
CIRCLE
  5
24810
330
18
100
AcDbEntity
  8
0
370
    20
100
AcDbCircle
 10
1148.907833111783
 20
-2515.546667644737
 30
0.0
 40
2.0
  0
LINE
  5
24811
330
18
100
AcDbEntity
  8
0
  6
CENTER
 62
     1
 48
0.3
370
    13
100
AcDbLine
 10
1148.907833111783
 20
-2519.196962531339
 30
0.0
 11
1148.907833111783
 21
-2512.093657367189
 31
0.0
  0
MTEXT
  5
2483F
102
{ACAD_REACTORS
330
24840
102
}
330
18
100
AcDbEntity
  8
文字
370
    13
100
AcDbMText
 10
1166.401144260946
 20
-2498.039362851647
 30
0.0
 40
7.0
 41
0.0
 71
     7
 72
     1
  1
取付穴16-M5ネジ深10
  7
まこ
 73
     1
 44
1.0
  0
LEADER
  5
24840
330
18
100
AcDbEntity
  8
文字
370
    13
100
AcDbLeader
  3
まこ
 73
     0
 74
     0
 75
     1
 40
8.385786802030455
 41
85.52791878172589
 76
     3
 10
1150.743131519984
 20
-2513.75648044091
 30
0.0
 10
1158.901144260946
 20
-2499.289362851647
 30
0.0
 10
1165.151144260945
 20
-2499.289362851647
 30
0.0
340
2483F
1001
ACAD
1000
DSTYLE
1002
{
1070
   147
1040
0.5
1070
    77
1070
     1
1002
}
  0
LINE
  5
24843
102
{ACAD_REACTORS
330
24913
102
}
330
18
100
AcDbEntity
  8
0
100
AcDbLine
 10
1263.981372571804
 20
-2688.225402775271
 30
0.0
 11
1263.981372571804
 21
-2673.100402775271
 31
0.0
  0
LINE
  5
24845
102
{ACAD_REACTORS
330
24913
102
}
330
18
100
AcDbEntity
  8
0
100
AcDbLine
 10
1287.981372571804
 20
-2688.225402775271
 30
0.0
 11
1263.981372571804
 21
-2688.225402775271
 31
0.0
  0
LINE
  5
24846
102
{ACAD_REACTORS
330
24913
102
}
330
18
100
AcDbEntity
  8
0
100
AcDbLine
 10
1288.981372571804
 20
-2691.850402775271
 30
0.0
 11
1301.981372571804
 21
-2691.850402775271
 31
0.0
  0
LINE
  5
24847
102
{ACAD_REACTORS
330
24913
102
}
330
18
100
AcDbEntity
  8
0
100
AcDbLine
 10
1288.981372571804
 20
-2691.10040277527
 30
0.0
 11
1301.981372571804
 21
-2691.10040277527
 31
0.0
  0
LINE
  5
24848
102
{ACAD_REACTORS
330
24913
102
}
330
18
100
AcDbEntity
  8
0
100
AcDbLine
 10
1287.981372571804
 20
-2688.225402775271
 30
0.0
 11
1288.981372571804
 21
-2687.600402775271
 31
0.0
  0
LINE
  5
24849
102
{ACAD_REACTORS
330
24913
102
}
330
18
100
AcDbEntity
  8
0
100
AcDbLine
 10
1288.981372571804
 20
-2691.850402775271
 30
0.0
 11
1287.981372571804
 21
-2688.225402775271
 31
0.0
  0
LINE
  5
2484A
102
{ACAD_REACTORS
330
24913
102
}
330
18
100
AcDbEntity
  8
0
100
AcDbLine
 10
1288.981372571804
 20
-2691.850402775271
 30
0.0
 11
1288.981372571804
 21
-2687.600402775271
 31
0.0
  0
LINE
  5
2484C
102
{ACAD_REACTORS
330
24913
102
}
330
18
100
AcDbEntity
  8
0
100
AcDbLine
 10
1287.981372571804
 20
-2673.100402775271
 30
0.0
 11
1263.981372571804
 21
-2673.100402775271
 31
0.0
  0
LINE
  5
2484D
102
{ACAD_REACTORS
330
24913
102
}
330
18
100
AcDbEntity
  8
0
100
AcDbLine
 10
1242.673264463695
 20
-2682.90040277527
 30
0.0
 11
1263.981372571804
 21
-2686.50040277527
 31
0.0
  0
LINE
  5
2484E
102
{ACAD_REACTORS
330
24913
102
}
330
18
100
AcDbEntity
  8
0
100
AcDbLine
 10
1242.081372571804
 20
-2678.60040277527
 30
0.0
 11
1263.981372571804
 21
-2674.90040277527
 31
0.0
  0
LINE
  5
2484F
102
{ACAD_REACTORS
330
24913
102
}
330
18
100
AcDbEntity
  8
0
100
AcDbLine
 10
1242.081372571804
 20
-2681.00040277527
 30
0.0
 11
1263.981372571804
 21
-2677.300402775271
 31
0.0
  0
LINE
  5
24850
102
{ACAD_REACTORS
330
24913
102
}
330
18
100
AcDbEntity
  8
0
100
AcDbLine
 10
1242.081372571804
 20
-2680.600402775271
 30
0.0
 11
1263.981372571804
 21
-2676.90040277527
 31
0.0
  0
LINE
  5
24851
102
{ACAD_REACTORS
330
24913
102
}
330
18
100
AcDbEntity
  8
0
100
AcDbLine
 10
1242.081372571804
 20
-2683.00040277527
 30
0.0
 11
1263.981372571804
 21
-2679.300402775271
 31
0.0
  0
LINE
  5
24852
102
{ACAD_REACTORS
330
24913
102
}
330
18
100
AcDbEntity
  8
0
100
AcDbLine
 10
1248.695466531536
 20
-2681.882953110841
 30
0.0
 11
1263.981372571804
 21
-2684.50040277527
 31
0.0
  0
LINE
  5
24853
102
{ACAD_REACTORS
330
24913
102
}
330
18
100
AcDbEntity
  8
0
100
AcDbLine
 10
1249.7759671664
 20
-2681.700402775271
 30
0.0
 11
1263.981372571804
 21
-2684.10040277527
 31
0.0
  0
LINE
  5
24854
102
{ACAD_REACTORS
330
24913
102
}
330
18
100
AcDbEntity
  8
基板
100
AcDbLine
 10
1242.081372571803
 20
-2683.985877685328
 30
0.0
 11
1242.081372571803
 21
-2677.485877685327
 31
0.0
  0
LINE
  5
24855
102
{ACAD_REACTORS
330
24913
102
}
330
18
100
AcDbEntity
  8
0
100
AcDbLine
 10
1242.081372571804
 20
-2678.35040277527
 30
0.0
 11
1242.816271900662
 21
-2678.476241701445
 31
0.0
  0
LINE
  5
24856
102
{ACAD_REACTORS
330
24913
102
}
330
18
100
AcDbEntity
  8
0
100
AcDbLine
 10
1242.081372571804
 20
-2680.75040277527
 30
0.0
 11
1242.816271900662
 21
-2680.876241701445
 31
0.0
  0
LINE
  5
24857
102
{ACAD_REACTORS
330
24913
102
}
330
18
100
AcDbEntity
  8
0
100
AcDbLine
 10
1242.673264463695
 20
-2680.50040277527
 30
0.0
 11
1243.85704824748
 21
-2680.700402775271
 31
0.0
  0
LINE
  5
24858
102
{ACAD_REACTORS
330
24913
102
}
330
18
100
AcDbEntity
  8
0
100
AcDbLine
 10
1248.695466531536
 20
-2679.482953110841
 30
0.0
 11
1249.87130545771
 21
-2679.68429539272
 31
0.0
  0
LINE
  5
2485A
102
{ACAD_REACTORS
330
24913
102
}
330
18
100
AcDbEntity
  8
0
370
    20
100
AcDbLine
 10
1263.981372571804
 20
-2687.97540277527
 30
0.0
 11
1263.981372571804
 21
-2673.22540277527
 31
0.0
  0
LINE
  5
2485E
102
{ACAD_REACTORS
330
24913
102
}
330
18
100
AcDbEntity
  8
0
100
AcDbLine
 10
1255.750500088582
 20
-2680.691006802116
 30
0.0
 11
1263.981372571804
 21
-2682.100402775271
 31
0.0
  0
LINE
  5
2485F
102
{ACAD_REACTORS
330
24913
102
}
330
18
100
AcDbEntity
  8
0
100
AcDbLine
 10
1288.981372571804
 20
-2688.10040277527
 30
0.0
 11
1301.981372571804
 21
-2688.10040277527
 31
0.0
  0
LINE
  5
24860
102
{ACAD_REACTORS
330
24913
102
}
330
18
100
AcDbEntity
  8
0
100
AcDbLine
 10
1288.981372571804
 20
-2685.100402775271
 30
0.0
 11
1301.981372571804
 21
-2685.100402775271
 31
0.0
  0
LINE
  5
24861
102
{ACAD_REACTORS
330
24913
102
}
330
18
100
AcDbEntity
  8
0
100
AcDbLine
 10
1288.981372571804
 20
-2676.10040277527
 30
0.0
 11
1301.981372571804
 21
-2676.10040277527
 31
0.0
  0
LINE
  5
24862
102
{ACAD_REACTORS
330
24913
102
}
330
18
100
AcDbEntity
  8
0
100
AcDbLine
 10
1288.981372571804
 20
-2670.10040277527
 30
0.0
 11
1301.981372571804
 21
-2670.10040277527
 31
0.0
  0
LINE
  5
24863
102
{ACAD_REACTORS
330
24913
102
}
330
18
100
AcDbEntity
  8
0
100
AcDbLine
 10
1288.981372571804
 20
-2673.10040277527
 30
0.0
 11
1301.981372571804
 21
-2673.10040277527
 31
0.0
  0
LINE
  5
24864
102
{ACAD_REACTORS
330
24913
102
}
330
18
100
AcDbEntity
  8
0
100
AcDbLine
 10
1301.981372571804
 20
-2669.35040277527
 30
0.0
 11
1288.981372571804
 21
-2669.35040277527
 31
0.0
  0
LINE
  5
24865
102
{ACAD_REACTORS
330
24913
102
}
330
18
100
AcDbEntity
  8
0
100
AcDbLine
 10
1288.981372571804
 20
-2682.100402775271
 30
0.0
 11
1301.981372571804
 21
-2682.100402775271
 31
0.0
  0
LINE
  5
24866
102
{ACAD_REACTORS
330
24913
102
}
330
18
100
AcDbEntity
  8
0
100
AcDbLine
 10
1288.981372571804
 20
-2679.10040277527
 30
0.0
 11
1301.981372571804
 21
-2679.10040277527
 31
0.0
  0
LINE
  5
24867
102
{ACAD_REACTORS
330
24913
102
}
330
18
100
AcDbEntity
  8
0
100
AcDbLine
 10
1288.981372571804
 20
-2688.10040277527
 30
0.0
 11
1288.981372571804
 21
-2685.100402775271
 31
0.0
  0
LINE
  5
24868
102
{ACAD_REACTORS
330
24913
102
}
330
18
100
AcDbEntity
  8
0
100
AcDbLine
 10
1288.981372571804
 20
-2676.10040277527
 30
0.0
 11
1288.981372571804
 21
-2673.10040277527
 31
0.0
  0
LINE
  5
24869
102
{ACAD_REACTORS
330
24913
102
}
330
18
100
AcDbEntity
  8
0
100
AcDbLine
 10
1288.981372571804
 20
-2669.35040277527
 30
0.0
 11
1287.981372571804
 21
-2673.10040277527
 31
0.0
  0
LINE
  5
2486A
102
{ACAD_REACTORS
330
24913
102
}
330
18
100
AcDbEntity
  8
0
100
AcDbLine
 10
1287.981372571804
 20
-2673.10040277527
 30
0.0
 11
1288.981372571804
 21
-2673.60040277527
 31
0.0
  0
LINE
  5
2486B
102
{ACAD_REACTORS
330
24913
102
}
330
18
100
AcDbEntity
  8
0
100
AcDbLine
 10
1288.981372571804
 20
-2673.60040277527
 30
0.0
 11
1288.981372571804
 21
-2669.35040277527
 31
0.0
  0
LINE
  5
2486C
102
{ACAD_REACTORS
330
24913
102
}
330
18
100
AcDbEntity
  8
0
100
AcDbLine
 10
1288.981372571804
 20
-2682.100402775271
 30
0.0
 11
1288.981372571804
 21
-2679.10040277527
 31
0.0
  0
LINE
  5
2490B
102
{ACAD_REACTORS
330
24913
102
}
330
18
100
AcDbEntity
  8
0
100
AcDbLine
 10
1305.981372571804
 20
-2693.950402775271
 30
0.0
 11
1301.981372571804
 21
-2693.950402775271
 31
0.0
  0
LINE
  5
2490C
102
{ACAD_REACTORS
330
24913
102
}
330
18
100
AcDbEntity
  8
0
100
AcDbLine
 10
1301.981372571804
 20
-2693.950402775271
 30
0.0
 11
1301.981372571804
 21
-2667.25040277527
 31
0.0
  0
LINE
  5
2490D
102
{ACAD_REACTORS
330
24913
102
}
330
18
100
AcDbEntity
  8
0
100
AcDbLine
 10
1301.981372571804
 20
-2667.25040277527
 30
0.0
 11
1305.981372571804
 21
-2667.25040277527
 31
0.0
  0
LINE
  5
2490E
102
{ACAD_REACTORS
330
24913
102
}
330
18
100
AcDbEntity
  8
0
100
AcDbLine
 10
1305.981372571804
 20
-2667.25040277527
 30
0.0
 11
1305.981372571804
 21
-2693.950402775271
 31
0.0
  0
LINE
  5
2490F
102
{ACAD_REACTORS
330
24913
102
}
330
18
100
AcDbEntity
  8
0
100
AcDbLine
 10
1310.981372571804
 20
-2691.850402775271
 30
0.0
 11
1305.981372571804
 21
-2691.850402775271
 31
0.0
  0
LINE
  5
24910
102
{ACAD_REACTORS
330
24913
102
}
330
18
100
AcDbEntity
  8
0
100
AcDbLine
 10
1305.981372571804
 20
-2693.950402775271
 30
0.0
 11
1305.981372571804
 21
-2667.25040277527
 31
0.0
  0
LINE
  5
24911
102
{ACAD_REACTORS
330
24913
102
}
330
18
100
AcDbEntity
  8
0
100
AcDbLine
 10
1305.981372571804
 20
-2669.35040277527
 30
0.0
 11
1310.981372571804
 21
-2669.35040277527
 31
0.0
  0
LINE
  5
24912
102
{ACAD_REACTORS
330
24913
102
}
330
18
100
AcDbEntity
  8
0
100
AcDbLine
 10
1310.981372571804
 20
-2669.35040277527
 30
0.0
 11
1310.981372571804
 21
-2691.850402775271
 31
0.0
  0
LINE
  5
2499C
330
18
100
AcDbEntity
  8
0
  6
CENTER
 62
     1
 48
0.75
370
    13
100
AcDbLine
 10
700.9078331117838
 20
-2674.117922009067
 30
0.0
 11
700.9078331117838
 21
-2659.269429189102
 31
0.0
  0
LINE
  5
2499D
330
18
100
AcDbEntity
  8
隠れ線
 48
0.75
370
    13
100
AcDbLine
 10
698.907097191926
 20
-2660.735877685328
 30
0.0
 11
698.907097191926
 21
-2670.735877685328
 31
0.0
  0
LINE
  5
2499E
330
18
100
AcDbEntity
  8
隠れ線
 48
0.75
370
    13
100
AcDbLine
 10
699.407097191926
 20
-2660.735877685328
 30
0.0
 11
699.4070971919259
 21
-2672.235877685327
 31
0.0
  0
LINE
  5
2499F
330
18
100
AcDbEntity
  8
隠れ線
 48
0.75
370
    13
100
AcDbLine
 10
698.907097191926
 20
-2670.735877685328
 30
0.0
 11
702.899619682732
 21
-2670.735877685328
 31
0.0
  0
LINE
  5
249A0
330
18
100
AcDbEntity
  8
隠れ線
 48
0.75
370
    13
100
AcDbLine
 10
702.407097191926
 20
-2660.735877685328
 30
0.0
 11
702.407097191926
 21
-2672.235877685327
 31
0.0
  0
LINE
  5
249A1
330
18
100
AcDbEntity
  8
隠れ線
 48
0.75
370
    13
100
AcDbLine
 10
702.407097191926
 20
-2671.424570339599
 30
0.0
 11
702.899619682732
 21
-2670.735877685328
 31
0.0
  0
LINE
  5
249A2
330
18
100
AcDbEntity
  8
隠れ線
 48
0.75
370
    13
100
AcDbLine
 10
698.907097191926
 20
-2670.735877685328
 30
0.0
 11
699.407097191926
 21
-2671.424570339599
 31
0.0
  0
LINE
  5
249A3
330
18
100
AcDbEntity
  8
隠れ線
 48
0.75
370
    13
100
AcDbLine
 10
702.899619682732
 20
-2670.735877685328
 30
0.0
 11
702.899619682732
 21
-2660.735877685328
 31
0.0
  0
LINE
  5
249A4
330
18
100
AcDbEntity
  8
0
  6
CENTER
 62
     1
 48
0.75
370
    13
100
AcDbLine
 10
764.9078331117838
 20
-2674.117922009067
 30
0.0
 11
764.9078331117838
 21
-2659.269429189102
 31
0.0
  0
LINE
  5
249A5
330
18
100
AcDbEntity
  8
隠れ線
 48
0.75
370
    13
100
AcDbLine
 10
766.899619682732
 20
-2670.735877685328
 30
0.0
 11
766.899619682732
 21
-2660.735877685328
 31
0.0
  0
LINE
  5
249A6
330
18
100
AcDbEntity
  8
隠れ線
 48
0.75
370
    13
100
AcDbLine
 10
762.907097191926
 20
-2670.735877685328
 30
0.0
 11
763.407097191926
 21
-2671.424570339599
 31
0.0
  0
LINE
  5
249A7
330
18
100
AcDbEntity
  8
隠れ線
 48
0.75
370
    13
100
AcDbLine
 10
766.407097191926
 20
-2671.424570339599
 30
0.0
 11
766.899619682732
 21
-2670.735877685328
 31
0.0
  0
LINE
  5
249A8
330
18
100
AcDbEntity
  8
隠れ線
 48
0.75
370
    13
100
AcDbLine
 10
766.407097191926
 20
-2660.735877685328
 30
0.0
 11
766.407097191926
 21
-2672.235877685327
 31
0.0
  0
LINE
  5
249A9
330
18
100
AcDbEntity
  8
隠れ線
 48
0.75
370
    13
100
AcDbLine
 10
762.907097191926
 20
-2670.735877685328
 30
0.0
 11
766.899619682732
 21
-2670.735877685328
 31
0.0
  0
LINE
  5
249AA
330
18
100
AcDbEntity
  8
隠れ線
 48
0.75
370
    13
100
AcDbLine
 10
763.407097191926
 20
-2660.735877685328
 30
0.0
 11
763.4070971919259
 21
-2672.235877685327
 31
0.0
  0
LINE
  5
249AB
330
18
100
AcDbEntity
  8
隠れ線
 48
0.75
370
    13
100
AcDbLine
 10
762.907097191926
 20
-2660.735877685328
 30
0.0
 11
762.907097191926
 21
-2670.735877685328
 31
0.0
  0
LINE
  5
249AC
330
18
100
AcDbEntity
  8
0
  6
CENTER
 62
     1
 48
0.75
370
    13
100
AcDbLine
 10
828.9078331117838
 20
-2674.117922009067
 30
0.0
 11
828.9078331117838
 21
-2659.269429189102
 31
0.0
  0
LINE
  5
249AD
330
18
100
AcDbEntity
  8
隠れ線
 48
0.75
370
    13
100
AcDbLine
 10
830.8996196827319
 20
-2670.735877685328
 30
0.0
 11
830.8996196827319
 21
-2660.735877685328
 31
0.0
  0
LINE
  5
249AE
330
18
100
AcDbEntity
  8
隠れ線
 48
0.75
370
    13
100
AcDbLine
 10
826.907097191926
 20
-2670.735877685328
 30
0.0
 11
827.4070971919259
 21
-2671.424570339599
 31
0.0
  0
LINE
  5
249AF
330
18
100
AcDbEntity
  8
隠れ線
 48
0.75
370
    13
100
AcDbLine
 10
830.407097191926
 20
-2671.424570339599
 30
0.0
 11
830.8996196827319
 21
-2670.735877685328
 31
0.0
  0
LINE
  5
249B0
330
18
100
AcDbEntity
  8
隠れ線
 48
0.75
370
    13
100
AcDbLine
 10
830.407097191926
 20
-2660.735877685328
 30
0.0
 11
830.407097191926
 21
-2672.235877685327
 31
0.0
  0
LINE
  5
249B1
330
18
100
AcDbEntity
  8
隠れ線
 48
0.75
370
    13
100
AcDbLine
 10
826.907097191926
 20
-2670.735877685328
 30
0.0
 11
830.8996196827319
 21
-2670.735877685328
 31
0.0
  0
LINE
  5
249B2
330
18
100
AcDbEntity
  8
隠れ線
 48
0.75
370
    13
100
AcDbLine
 10
827.4070971919259
 20
-2660.735877685328
 30
0.0
 11
827.4070971919259
 21
-2672.235877685327
 31
0.0
  0
LINE
  5
249B3
330
18
100
AcDbEntity
  8
隠れ線
 48
0.75
370
    13
100
AcDbLine
 10
826.907097191926
 20
-2660.735877685328
 30
0.0
 11
826.907097191926
 21
-2670.735877685328
 31
0.0
  0
LINE
  5
249B4
330
18
100
AcDbEntity
  8
0
  6
CENTER
 62
     1
 48
0.75
370
    13
100
AcDbLine
 10
892.9078331117837
 20
-2674.117922009067
 30
0.0
 11
892.9078331117837
 21
-2659.269429189102
 31
0.0
  0
LINE
  5
249B5
330
18
100
AcDbEntity
  8
隠れ線
 48
0.75
370
    13
100
AcDbLine
 10
894.8996196827319
 20
-2670.735877685328
 30
0.0
 11
894.8996196827319
 21
-2660.735877685328
 31
0.0
  0
LINE
  5
249B6
330
18
100
AcDbEntity
  8
隠れ線
 48
0.75
370
    13
100
AcDbLine
 10
890.9070971919261
 20
-2670.735877685328
 30
0.0
 11
891.407097191926
 21
-2671.424570339599
 31
0.0
  0
LINE
  5
249B7
330
18
100
AcDbEntity
  8
隠れ線
 48
0.75
370
    13
100
AcDbLine
 10
894.4070971919259
 20
-2671.424570339599
 30
0.0
 11
894.8996196827319
 21
-2670.735877685328
 31
0.0
  0
LINE
  5
249B8
330
18
100
AcDbEntity
  8
隠れ線
 48
0.75
370
    13
100
AcDbLine
 10
894.4070971919259
 20
-2660.735877685328
 30
0.0
 11
894.4070971919259
 21
-2672.235877685327
 31
0.0
  0
LINE
  5
249B9
330
18
100
AcDbEntity
  8
隠れ線
 48
0.75
370
    13
100
AcDbLine
 10
890.9070971919261
 20
-2670.735877685328
 30
0.0
 11
894.8996196827319
 21
-2670.735877685328
 31
0.0
  0
LINE
  5
249BA
330
18
100
AcDbEntity
  8
隠れ線
 48
0.75
370
    13
100
AcDbLine
 10
891.407097191926
 20
-2660.735877685328
 30
0.0
 11
891.4070971919258
 21
-2672.235877685327
 31
0.0
  0
LINE
  5
249BB
330
18
100
AcDbEntity
  8
隠れ線
 48
0.75
370
    13
100
AcDbLine
 10
890.9070971919261
 20
-2660.735877685328
 30
0.0
 11
890.9070971919261
 21
-2670.735877685328
 31
0.0
  0
LINE
  5
249BC
330
18
100
AcDbEntity
  8
0
  6
CENTER
 62
     1
 48
0.75
370
    13
100
AcDbLine
 10
956.9078331117838
 20
-2674.117922009067
 30
0.0
 11
956.9078331117838
 21
-2659.269429189102
 31
0.0
  0
LINE
  5
249BD
330
18
100
AcDbEntity
  8
隠れ線
 48
0.75
370
    13
100
AcDbLine
 10
958.899619682732
 20
-2670.735877685328
 30
0.0
 11
958.899619682732
 21
-2660.735877685328
 31
0.0
  0
LINE
  5
249BE
330
18
100
AcDbEntity
  8
隠れ線
 48
0.75
370
    13
100
AcDbLine
 10
954.907097191926
 20
-2670.735877685328
 30
0.0
 11
955.407097191926
 21
-2671.424570339599
 31
0.0
  0
LINE
  5
249BF
330
18
100
AcDbEntity
  8
隠れ線
 48
0.75
370
    13
100
AcDbLine
 10
958.407097191926
 20
-2671.424570339599
 30
0.0
 11
958.899619682732
 21
-2670.735877685328
 31
0.0
  0
LINE
  5
249C0
330
18
100
AcDbEntity
  8
隠れ線
 48
0.75
370
    13
100
AcDbLine
 10
958.407097191926
 20
-2660.735877685328
 30
0.0
 11
958.407097191926
 21
-2672.235877685327
 31
0.0
  0
LINE
  5
249C1
330
18
100
AcDbEntity
  8
隠れ線
 48
0.75
370
    13
100
AcDbLine
 10
954.907097191926
 20
-2670.735877685328
 30
0.0
 11
958.899619682732
 21
-2670.735877685328
 31
0.0
  0
LINE
  5
249C2
330
18
100
AcDbEntity
  8
隠れ線
 48
0.75
370
    13
100
AcDbLine
 10
955.407097191926
 20
-2660.735877685328
 30
0.0
 11
955.4070971919259
 21
-2672.235877685327
 31
0.0
  0
LINE
  5
249C3
330
18
100
AcDbEntity
  8
隠れ線
 48
0.75
370
    13
100
AcDbLine
 10
954.907097191926
 20
-2660.735877685328
 30
0.0
 11
954.907097191926
 21
-2670.735877685328
 31
0.0
  0
LINE
  5
249C4
330
18
100
AcDbEntity
  8
0
  6
CENTER
 62
     1
 48
0.75
370
    13
100
AcDbLine
 10
1020.907833111784
 20
-2674.117922009067
 30
0.0
 11
1020.907833111784
 21
-2659.269429189102
 31
0.0
  0
LINE
  5
249C5
330
18
100
AcDbEntity
  8
隠れ線
 48
0.75
370
    13
100
AcDbLine
 10
1022.899619682732
 20
-2670.735877685328
 30
0.0
 11
1022.899619682732
 21
-2660.735877685328
 31
0.0
  0
LINE
  5
249C6
330
18
100
AcDbEntity
  8
隠れ線
 48
0.75
370
    13
100
AcDbLine
 10
1018.907097191926
 20
-2670.735877685328
 30
0.0
 11
1019.407097191926
 21
-2671.424570339599
 31
0.0
  0
LINE
  5
249C7
330
18
100
AcDbEntity
  8
隠れ線
 48
0.75
370
    13
100
AcDbLine
 10
1022.407097191926
 20
-2671.424570339599
 30
0.0
 11
1022.899619682732
 21
-2670.735877685328
 31
0.0
  0
LINE
  5
249C8
330
18
100
AcDbEntity
  8
隠れ線
 48
0.75
370
    13
100
AcDbLine
 10
1022.407097191926
 20
-2660.735877685328
 30
0.0
 11
1022.407097191926
 21
-2672.235877685327
 31
0.0
  0
LINE
  5
249C9
330
18
100
AcDbEntity
  8
隠れ線
 48
0.75
370
    13
100
AcDbLine
 10
1018.907097191926
 20
-2670.735877685328
 30
0.0
 11
1022.899619682732
 21
-2670.735877685328
 31
0.0
  0
LINE
  5
249CA
330
18
100
AcDbEntity
  8
隠れ線
 48
0.75
370
    13
100
AcDbLine
 10
1019.407097191926
 20
-2660.735877685328
 30
0.0
 11
1019.407097191926
 21
-2672.235877685327
 31
0.0
  0
LINE
  5
249CB
330
18
100
AcDbEntity
  8
隠れ線
 48
0.75
370
    13
100
AcDbLine
 10
1018.907097191926
 20
-2660.735877685328
 30
0.0
 11
1018.907097191926
 21
-2670.735877685328
 31
0.0
  0
LINE
  5
249CC
330
18
100
AcDbEntity
  8
0
  6
CENTER
 62
     1
 48
0.75
370
    13
100
AcDbLine
 10
1084.907833111784
 20
-2674.117922009067
 30
0.0
 11
1084.907833111784
 21
-2659.269429189102
 31
0.0
  0
LINE
  5
249CD
330
18
100
AcDbEntity
  8
隠れ線
 48
0.75
370
    13
100
AcDbLine
 10
1086.899619682732
 20
-2670.735877685328
 30
0.0
 11
1086.899619682732
 21
-2660.735877685328
 31
0.0
  0
LINE
  5
249CE
330
18
100
AcDbEntity
  8
隠れ線
 48
0.75
370
    13
100
AcDbLine
 10
1082.907097191925
 20
-2670.735877685328
 30
0.0
 11
1083.407097191925
 21
-2671.424570339599
 31
0.0
  0
LINE
  5
249CF
330
18
100
AcDbEntity
  8
隠れ線
 48
0.75
370
    13
100
AcDbLine
 10
1086.407097191925
 20
-2671.424570339599
 30
0.0
 11
1086.899619682732
 21
-2670.735877685328
 31
0.0
  0
LINE
  5
249D0
330
18
100
AcDbEntity
  8
隠れ線
 48
0.75
370
    13
100
AcDbLine
 10
1086.407097191925
 20
-2660.735877685328
 30
0.0
 11
1086.407097191925
 21
-2672.235877685327
 31
0.0
  0
LINE
  5
249D1
330
18
100
AcDbEntity
  8
隠れ線
 48
0.75
370
    13
100
AcDbLine
 10
1082.907097191925
 20
-2670.735877685328
 30
0.0
 11
1086.899619682732
 21
-2670.735877685328
 31
0.0
  0
LINE
  5
249D2
330
18
100
AcDbEntity
  8
隠れ線
 48
0.75
370
    13
100
AcDbLine
 10
1083.407097191925
 20
-2660.735877685328
 30
0.0
 11
1083.407097191925
 21
-2672.235877685327
 31
0.0
  0
LINE
  5
249D3
330
18
100
AcDbEntity
  8
隠れ線
 48
0.75
370
    13
100
AcDbLine
 10
1082.907097191925
 20
-2660.735877685328
 30
0.0
 11
1082.907097191925
 21
-2670.735877685328
 31
0.0
  0
LINE
  5
249D4
330
18
100
AcDbEntity
  8
0
  6
CENTER
 62
     1
 48
0.75
370
    13
100
AcDbLine
 10
1148.907833111784
 20
-2674.117922009067
 30
0.0
 11
1148.907833111784
 21
-2659.269429189102
 31
0.0
  0
LINE
  5
249D5
330
18
100
AcDbEntity
  8
隠れ線
 48
0.75
370
    13
100
AcDbLine
 10
1150.899619682732
 20
-2670.735877685328
 30
0.0
 11
1150.899619682732
 21
-2660.735877685328
 31
0.0
  0
LINE
  5
249D6
330
18
100
AcDbEntity
  8
隠れ線
 48
0.75
370
    13
100
AcDbLine
 10
1146.907097191925
 20
-2670.735877685328
 30
0.0
 11
1147.407097191925
 21
-2671.424570339599
 31
0.0
  0
LINE
  5
249D7
330
18
100
AcDbEntity
  8
隠れ線
 48
0.75
370
    13
100
AcDbLine
 10
1150.407097191926
 20
-2671.424570339599
 30
0.0
 11
1150.899619682732
 21
-2670.735877685328
 31
0.0
  0
LINE
  5
249D8
330
18
100
AcDbEntity
  8
隠れ線
 48
0.75
370
    13
100
AcDbLine
 10
1150.407097191926
 20
-2660.735877685328
 30
0.0
 11
1150.407097191926
 21
-2672.235877685327
 31
0.0
  0
LINE
  5
249D9
330
18
100
AcDbEntity
  8
隠れ線
 48
0.75
370
    13
100
AcDbLine
 10
1146.907097191925
 20
-2670.735877685328
 30
0.0
 11
1150.899619682732
 21
-2670.735877685328
 31
0.0
  0
LINE
  5
249DA
330
18
100
AcDbEntity
  8
隠れ線
 48
0.75
370
    13
100
AcDbLine
 10
1147.407097191925
 20
-2660.735877685328
 30
0.0
 11
1147.407097191925
 21
-2672.235877685327
 31
0.0
  0
LINE
  5
249DB
330
18
100
AcDbEntity
  8
隠れ線
 48
0.75
370
    13
100
AcDbLine
 10
1146.907097191925
 20
-2660.735877685328
 30
0.0
 11
1146.907097191925
 21
-2670.735877685328
 31
0.0
  0
CIRCLE
  5
249EF
330
18
100
AcDbEntity
  8
0
  6
HIDDEN
 48
0.75
370
    13
100
AcDbCircle
 10
942.7100161315614
 20
-2668.235877685328
 30
0.0
 40
6.0
  0
CIRCLE
  5
249F6
330
18
100
AcDbEntity
  8
0
  6
HIDDEN
 48
0.75
370
    13
100
AcDbCircle
 10
978.2700161315615
 20
-2668.235877685328
 30
0.0
 40
6.0
  0
CIRCLE
  5
249FE
330
18
100
AcDbEntity
  8
0
  6
HIDDEN
 48
0.75
370
    13
100
AcDbCircle
 10
996.0500161315614
 20
-2668.235877685328
 30
0.0
 40
6.0
  0
CIRCLE
  5
24A05
330
18
100
AcDbEntity
  8
0
  6
HIDDEN
 48
0.75
370
    13
100
AcDbCircle
 10
1031.610016131561
 20
-2668.235877685328
 30
0.0
 40
6.0
  0
CIRCLE
  5
24A0C
330
18
100
AcDbEntity
  8
0
  6
HIDDEN
 48
0.75
370
    13
100
AcDbCircle
 10
1067.170016131561
 20
-2668.235877685328
 30
0.0
 40
6.0
  0
CIRCLE
  5
24A13
330
18
100
AcDbEntity
  8
0
  6
HIDDEN
 48
0.75
370
    13
100
AcDbCircle
 10
1102.730016131561
 20
-2668.235877685328
 30
0.0
 40
6.0
  0
CIRCLE
  5
24A1A
330
18
100
AcDbEntity
  8
0
  6
HIDDEN
 48
0.75
370
    13
100
AcDbCircle
 10
1138.290016131561
 20
-2668.235877685328
 30
0.0
 40
6.0
  0
CIRCLE
  5
24A21
330
18
100
AcDbEntity
  8
0
  6
HIDDEN
 48
0.75
370
    13
100
AcDbCircle
 10
907.1056500920054
 20
-2668.235877685328
 30
0.0
 40
6.0
  0
CIRCLE
  5
24A26
330
18
100
AcDbEntity
  8
0
  6
HIDDEN
 48
0.75
370
    13
100
AcDbCircle
 10
871.5456500920053
 20
-2668.235877685328
 30
0.0
 40
6.0
  0
CIRCLE
  5
24A2B
330
18
100
AcDbEntity
  8
0
  6
HIDDEN
 48
0.75
370
    13
100
AcDbCircle
 10
853.7656500920054
 20
-2668.235877685328
 30
0.0
 40
6.0
  0
CIRCLE
  5
24A2F
330
18
100
AcDbEntity
  8
0
  6
HIDDEN
 48
0.75
370
    13
100
AcDbCircle
 10
818.2056500920054
 20
-2668.235877685328
 30
0.0
 40
6.0
  0
CIRCLE
  5
24A35
330
18
100
AcDbEntity
  8
0
  6
HIDDEN
 48
0.75
370
    13
100
AcDbCircle
 10
782.6456500920053
 20
-2668.235877685328
 30
0.0
 40
6.0
  0
CIRCLE
  5
24A3A
330
18
100
AcDbEntity
  8
0
  6
HIDDEN
 48
0.75
370
    13
100
AcDbCircle
 10
747.0856500920054
 20
-2668.235877685328
 30
0.0
 40
6.0
  0
CIRCLE
  5
24A3F
330
18
100
AcDbEntity
  8
0
  6
HIDDEN
 48
0.75
370
    13
100
AcDbCircle
 10
711.5256500920054
 20
-2668.235877685328
 30
0.0
 40
6.0
  0
LINE
  5
24B54
330
18
100
AcDbEntity
  8
0
  6
CENTER
 62
     1
 48
0.75
370
    13
100
AcDbLine
 10
1347.14752195604
 20
-2515.550775890506
 30
0.0
 11
1369.123573861117
 21
-2515.550775890506
 31
0.0
  0
LINE
  5
24B55
330
18
100
AcDbEntity
  8
0
  6
CENTER
 62
     1
 48
0.75
370
    13
100
AcDbLine
 10
1347.14752195604
 20
-2580.522641094663
 30
0.0
 11
1364.00821682545
 21
-2580.522641094663
 31
0.0
  0
LINE
  5
24D68
330
18
100
AcDbEntity
  8
0
 62
     4
370
    13
100
AcDbLine
 10
1391.299090458425
 20
-2471.424427658803
 30
0.0
 11
1396.088978960587
 21
-2455.765323457313
 31
0.0
  0
LINE
  5
24D69
330
18
100
AcDbEntity
  8
0
 62
     4
370
    13
100
AcDbLine
 10
1396.088978960587
 20
-2455.765323457313
 30
0.0
 11
1354.175459887009
 21
-2455.765323457313
 31
0.0
  0
LINE
  5
24D6C
330
18
100
AcDbEntity
  8
文字
 62
     4
370
    13
100
AcDbLine
 10
1391.827167039283
 20
-2471.424427658803
 30
0.0
 11
1385.577167039283
 21
-2471.424427658803
 31
0.0
  0
LINE
  5
24DE1
330
18
100
AcDbEntity
  8
0
  6
HIDDEN
 48
0.75
370
    13
100
AcDbLine
 10
1364.827158254757
 20
-2584.054749340432
 30
0.0
 11
1364.827158254757
 21
-2512.054749340432
 31
0.0
  0
LINE
  5
24DE2
330
18
100
AcDbEntity
  8
0
  6
HIDDEN
 48
0.75
370
    13
100
AcDbLine
 10
1364.827158254757
 20
-2512.054749340432
 30
0.0
 11
1352.827158254757
 21
-2512.054749340432
 31
0.0
  0
LINE
  5
24DE3
330
18
100
AcDbEntity
  8
0
  6
HIDDEN
 48
0.75
370
    13
100
AcDbLine
 10
1352.827158254757
 20
-2512.054749340432
 30
0.0
 11
1352.827158254757
 21
-2584.054749340432
 31
0.0
  0
LINE
  5
24DE4
330
18
100
AcDbEntity
  8
0
  6
HIDDEN
 48
0.75
370
    13
100
AcDbLine
 10
1352.827158254757
 20
-2584.054749340432
 30
0.0
 11
1364.827158254757
 21
-2584.054749340432
 31
0.0
  0
LINE
  5
24DE6
330
18
100
AcDbEntity
  8
0
  6
CENTER
 62
     1
 48
0.75
370
    13
100
AcDbLine
 10
1358.827167039283
 20
-2578.271676867133
 30
0.0
 11
1358.827167039283
 21
-2541.582717906667
 31
0.0
  0
LINE
  5
24E03
330
18
100
AcDbEntity
  8
0
  6
CENTER
 62
     1
 48
0.75
370
    13
100
AcDbLine
 10
1352.827158254757
 20
-2571.026749340431
 30
0.0
 11
1364.827158254757
 21
-2571.026749340431
 31
0.0
  0
LINE
  5
24E04
330
18
100
AcDbEntity
  8
0
  6
CENTER
 62
     1
 48
0.75
370
    13
100
AcDbLine
 10
1352.827158254757
 20
-2547.026749340432
 30
0.0
 11
1364.827158254757
 21
-2547.026749340432
 31
0.0
  0
CIRCLE
  5
24E06
330
18
100
AcDbEntity
  8
0
370
     9
100
AcDbCircle
 10
1358.827167039283
 20
-2547.026749340432
 30
0.0
 40
2.0
  0
CIRCLE
  5
24E07
330
18
100
AcDbEntity
  8
0
370
    20
100
AcDbCircle
 10
1358.827167039283
 20
-2547.026749340432
 30
0.0
 40
1.6
  0
CIRCLE
  5
24E08
330
18
100
AcDbEntity
  8
0
370
    20
100
AcDbCircle
 10
1358.827167039283
 20
-2571.026749340431
 30
0.0
 40
1.6
  0
CIRCLE
  5
24E09
330
18
100
AcDbEntity
  8
0
370
     9
100
AcDbCircle
 10
1358.827167039283
 20
-2571.026749340431
 30
0.0
 40
2.0
  0
DIMENSION
  5
24E0A
330
18
100
AcDbEntity
  8
0
 62
     2
370
    13
100
AcDbDimension
  2
*D39
 10
1335.155788342641
 20
-2571.026749340431
 30
0.0
 11
1330.155788342641
 21
-2579.526749340431
 31
0.0
 70
    32
 71
     5
 42
17.0
  3
まこ
100
AcDbAlignedDimension
 13
1350.827167039283
 23
-2588.026749340432
 33
0.0
 14
1352.827158254757
 24
-2571.026749340431
 34
0.0
 50
90.0
100
AcDbRotatedDimension
1001
ACAD
1000
DSTYLE
1002
{
1070
   271
1070
     6
1002
}
  0
DIMENSION
  5
24E21
330
18
100
AcDbEntity
  8
0
 62
     2
370
    13
100
AcDbDimension
  2
*D40
 10
1335.155788342641
 20
-2547.026749340432
 30
0.0
 11
1330.155788342641
 21
-2559.026749340431
 31
0.0
 70
    32
 71
     5
 42
24.0
  3
まこ
100
AcDbAlignedDimension
 13
1352.827158254757
 23
-2571.026749340431
 33
0.0
 14
1352.827158254757
 24
-2547.026749340432
 34
0.0
 50
90.0
100
AcDbRotatedDimension
1001
ACAD
1000
DSTYLE
1002
{
1070
   271
1070
     6
1070
   279
1070
     1
1002
}
  0
DIMENSION
  5
24E2E
330
18
100
AcDbEntity
  8
0
 62
     2
370
    13
100
AcDbDimension
  2
*D41
 10
1358.827167039283
 20
-2623.84522244776
 30
0.0
 11
1354.827167039283
 21
-2618.84522244776
 31
0.0
 70
    32
 71
     5
 42
8.0
  3
まこ
100
AcDbAlignedDimension
 13
1350.827167039283
 23
-2588.026749340432
 33
0.0
 14
1358.827167039283
 24
-2578.01036962126
 34
0.0
100
AcDbRotatedDimension
1001
ACAD
1000
DSTYLE
1002
{
1070
   271
1070
     6
1002
}
  0
LINE
  5
24E46
330
18
100
AcDbEntity
  8
0
 62
     4
370
    13
100
AcDbLine
 10
1350.827158254757
 20
-2623.84522244776
 30
0.0
 11
1358.826786848614
 21
-2623.84522244776
 31
0.0
  0
LEADER
  5
24E48
330
18
100
AcDbEntity
  8
0
370
    13
100
AcDbLeader
  3
まこ
 73
     0
 75
     1
 40
21.4467005076142
 41
92.01776649746191
 76
     3
 10
1357.419976242913
 20
-2572.475959664607
 30
0.0
 10
1336.408578962474
 20
-2647.283013520999
 30
0.0
 10
1330.158578962474
 20
-2647.283013520999
 30
0.0
340
24E49
213
-1.969673226232998
223
-1.040292069389579
233
0.0
1001
ACAD
1000
DSTYLE
1002
{
1070
   147
1040
0.5
1070
    77
1070
     1
1002
}
  0
MTEXT
  5
24E49
102
{ACAD_REACTORS
330
24E48
102
}
330
18
100
AcDbEntity
  8
0
370
    13
100
AcDbMText
 10
1330.878252188707
 20
-2644.99272145161
 30
0.0
 40
7.5
 41
0.0
 71
     9
 72
     1
  1
\A1;2-M4ﾈｼﾞ深10\Pｵﾌﾟｼｮﾝ磁極ｾﾝｻ取付用
  7
まこ
 73
     1
 44
1.0
  0
LINE
  5
24E50
330
18
100
AcDbEntity
  8
0
  6
CENTER
 62
     1
 48
0.75
370
    13
100
AcDbLine
 10
1172.907833111783
 20
-2547.054749340432
 30
0.0
 11
1184.907833111783
 21
-2547.054749340432
 31
0.0
  0
LINE
  5
24E51
330
18
100
AcDbEntity
  8
0
  6
CENTER
 62
     1
 48
0.75
370
    13
100
AcDbLine
 10
1172.907833111783
 20
-2571.054749340432
 30
0.0
 11
1184.907833111783
 21
-2571.054749340432
 31
0.0
  0
LINE
  5
24FBA
330
18
100
AcDbEntity
  8
0
 48
0.3
370
    50
100
AcDbLine
 10
1350.827167039283
 20
-2508.026749340432
 30
0.0
 11
1350.827167039283
 21
-2526.026749340431
 31
0.0
  0
LINE
  5
24FD6
330
18
100
AcDbEntity
  8
0
 48
0.3
370
    50
100
AcDbLine
 10
1351.327167039283
 20
-2526.026749340431
 30
0.0
 11
1351.327167039283
 21
-2570.026749340431
 31
0.0
  0
LINE
  5
25033
330
18
100
AcDbEntity
  8
0
 48
0.3
370
    50
100
AcDbLine
 10
1350.827167039283
 20
-2570.026749340431
 30
0.0
 11
1350.827167039283
 21
-2588.026749340432
 31
0.0
  0
LINE
  5
2518F
330
18
100
AcDbEntity
  8
0
 48
0.3
370
    50
100
AcDbLine
 10
591.5138019601279
 20
-2508.026749340431
 30
0.0
 11
591.5138107446539
 21
-2526.026749340431
 31
0.0
  0
LINE
  5
25190
330
18
100
AcDbEntity
  8
0
 48
0.3
370
    50
100
AcDbLine
 10
591.0138019601279
 20
-2526.026793204686
 30
0.0
 11
591.0138019601279
 21
-2570.026783968792
 31
0.0
  0
LINE
  5
25192
330
18
100
AcDbEntity
  8
0
 48
0.3
370
    50
100
AcDbLine
 10
591.0138019601279
 20
-2570.026749340431
 30
0.0
 11
591.5138107446539
 21
-2570.026749340431
 31
0.0
  0
LINE
  5
25194
330
18
100
AcDbEntity
  8
0
 48
0.3
370
    50
100
AcDbLine
 10
591.5138019601278
 20
-2570.026749340431
 30
0.0
 11
591.5138019601279
 21
-2588.026749340432
 31
0.0
  0
LINE
  5
252FF
330
18
100
AcDbEntity
  8
隠れ線
 48
0.75
370
     5
100
AcDbLine
 10
1404.827167039283
 20
-2512.527449340431
 30
0.0
 11
1397.027167039283
 21
-2512.527449340431
 31
0.0
  0
LINE
  5
25300
330
18
100
AcDbEntity
  8
隠れ線
 48
0.75
370
     5
100
AcDbLine
 10
1404.827167039283
 20
-2518.527449340432
 30
0.0
 11
1397.027167039283
 21
-2518.527449340432
 31
0.0
  0
LINE
  5
25301
330
18
100
AcDbEntity
  8
隠れ線
 48
0.75
370
     5
100
AcDbLine
 10
1404.827167039283
 20
-2577.527449340431
 30
0.0
 11
1397.027167039283
 21
-2577.527449340431
 31
0.0
  0
LINE
  5
25302
330
18
100
AcDbEntity
  8
隠れ線
 48
0.75
370
     5
100
AcDbLine
 10
1404.827167039283
 20
-2583.527449340431
 30
0.0
 11
1397.027167039283
 21
-2583.527449340431
 31
0.0
  0
TEXT
  5
25338
330
18
100
AcDbEntity
  8
文字
370
    13
100
AcDbText
 10
1366.775045558649
 20
-2454.780530348362
 30
0.0
 40
7.5
  1
（ギャップ）
 41
0.6
  7
ｽﾀｲﾙ3
100
AcDbText
  0
TEXT
  5
2533A
330
18
100
AcDbEntity
  8
文字
370
    13
100
AcDbText
 10
1384.610114359111
 20
-2444.633408251574
 30
0.0
 40
7.5
  1
注：1
 41
0.6
  7
ｽﾀｲﾙ3
100
AcDbText
  0
DIMENSION
  5
25351
330
18
100
AcDbEntity
  8
文字
370
    13
100
AcDbDimension
  2
*D42
 10
1392.027167039283
 20
-2471.424427658803
 30
0.0
 11
1429.600069110105
 21
-2474.697704663548
 31
0.0
 70
   160
 71
     5
 42
12.79999999999995
  3
まこ
100
AcDbAlignedDimension
 13
1404.827167039283
 23
-2508.026793204686
 33
0.0
 14
1392.027167039283
 24
-2523.051838382336
 34
0.0
100
AcDbRotatedDimension
1001
ACAD
1000
DSTYLE
1002
{
1070
   173
1070
     1
1070
   279
1070
     1
1070
   342
1005
0
1070
   343
1005
1215D
1070
   344
1005
153E2
1002
}
  0
LINE
  5
2543E
330
18
100
AcDbEntity
  8
隠れ線
  6
HIDDEN
 48
0.75
370
     5
100
AcDbLine
 10
537.513801960128
 20
-2512.527449340431
 30
0.0
 11
545.3138019601275
 21
-2512.527449340431
 31
0.0
  0
LINE
  5
2543F
330
18
100
AcDbEntity
  8
隠れ線
  6
HIDDEN
 48
0.75
370
     5
100
AcDbLine
 10
537.513801960128
 20
-2518.52744934043
 30
0.0
 11
545.3138019601275
 21
-2518.527449340431
 31
0.0
  0
LINE
  5
25440
330
18
100
AcDbEntity
  8
隠れ線
  6
HIDDEN
 48
0.75
370
     5
100
AcDbLine
 10
537.5138019601279
 20
-2577.527449340431
 30
0.0
 11
545.3138019601276
 21
-2577.527449340431
 31
0.0
  0
LINE
  5
25441
330
18
100
AcDbEntity
  8
隠れ線
  6
HIDDEN
 48
0.75
370
     5
100
AcDbLine
 10
537.5138019601279
 20
-2583.527449340431
 30
0.0
 11
545.3138019601276
 21
-2583.527449340431
 31
0.0
  0
LINE
  5
2556C
102
{ACAD_REACTORS
330
25594
102
}
330
18
100
AcDbEntity
  8
0
370
    50
100
AcDbLine
 10
1242.081372571802
 20
-2578.276749340432
 30
0.0
 11
1242.081372571803
 21
-2585.776749340432
 31
0.0
  0
LINE
  5
25584
102
{ACAD_REACTORS
330
25594
102
}
330
18
100
AcDbEntity
  8
0
 48
10.0
370
    50
100
AcDbLine
 10
1178.907833111783
 20
-2577.526749340432
 30
0.0
 11
1198.907833111783
 21
-2577.526749340432
 31
0.0
  0
LINE
  5
25585
102
{ACAD_REACTORS
330
25594
102
}
330
18
100
AcDbEntity
  8
0
 48
10.0
370
    50
100
AcDbLine
 10
1198.907833111783
 20
-2586.526749340432
 30
0.0
 11
1178.907833111783
 21
-2586.526749340432
 31
0.0
  0
LINE
  5
25586
102
{ACAD_REACTORS
330
25594
102
}
330
18
100
AcDbEntity
  8
0
  6
CENTER
 62
     1
 48
0.45
370
    13
100
AcDbLine
 10
1174.776405596754
 20
-2582.026749340431
 30
0.0
 11
1242.938315440233
 21
-2582.026749340431
 31
0.0
  0
LINE
  5
25587
102
{ACAD_REACTORS
330
25594
102
}
330
18
100
AcDbEntity
  8
0
 48
10.0
370
    50
100
AcDbLine
 10
1178.907833111783
 20
-2577.526749340432
 30
0.0
 11
1178.907833111783
 21
-2586.526749340432
 31
0.0
  0
LINE
  5
25588
102
{ACAD_REACTORS
330
25594
102
}
330
18
100
AcDbEntity
  8
0
370
    50
100
AcDbLine
 10
1222.418829719084
 20
-2585.776749340432
 30
0.0
 11
1198.907833111783
 21
-2585.776749340432
 31
0.0
  0
LINE
  5
25589
102
{ACAD_REACTORS
330
25594
102
}
330
18
100
AcDbEntity
  8
0
370
    50
100
AcDbLine
 10
1198.907833111783
 20
-2578.276749340432
 30
0.0
 11
1224.752674207907
 21
-2578.276749340432
 31
0.0
  0
LINE
  5
2558A
102
{ACAD_REACTORS
330
25594
102
}
330
18
100
AcDbEntity
  8
0
  6
CENTER
 62
     1
 48
0.45
370
    13
100
AcDbLine
 10
1227.712103663692
 20
-2568.806307452031
 30
0.0
 11
1219.118397346996
 21
-2596.339732428978
 31
0.0
  0
LINE
  5
2558B
102
{ACAD_REACTORS
330
25594
102
}
330
18
100
AcDbEntity
  8
0
370
    50
100
AcDbLine
 10
1198.907833111783
 20
-2585.765458214857
 30
0.0
 11
1198.907833111783
 21
-2578.288040466006
 31
0.0
  0
LINE
  5
2558C
102
{ACAD_REACTORS
330
25594
102
}
330
18
100
AcDbEntity
  8
0
370
    50
100
AcDbLine
 10
1198.907833111783
 20
-2577.526749340432
 30
0.0
 11
1198.907833111783
 21
-2586.526749340432
 31
0.0
  0
LINE
  5
2558D
102
{ACAD_REACTORS
330
25594
102
}
330
18
100
AcDbEntity
  8
0
370
    50
100
AcDbLine
 10
1242.081372571803
 20
-2585.776749340432
 30
0.0
 11
1227.112652467706
 21
-2585.776749340432
 31
0.0
  0
LINE
  5
2558E
102
{ACAD_REACTORS
330
25594
102
}
330
18
100
AcDbEntity
  8
0
370
    50
100
AcDbLine
 10
1229.446496956529
 20
-2578.276749340432
 30
0.0
 11
1242.081372571803
 21
-2578.276749340432
 31
0.0
  0
LINE
  5
2558F
102
{ACAD_REACTORS
330
25594
102
}
330
18
100
AcDbEntity
  8
0
  6
CENTER
 62
     1
 48
0.45
370
    13
100
AcDbLine
 10
1232.405926412314
 20
-2568.806307452031
 30
0.0
 11
1223.812220095618
 21
-2596.339732428978
 31
0.0
  0
LINE
  5
2559F
102
{ACAD_REACTORS
330
255AC
102
}
330
18
100
AcDbEntity
  8
0
  6
CENTER
 62
     1
 48
0.45
370
    13
100
AcDbLine
 10
1174.776405596754
 20
-2680.735877685328
 30
0.0
 11
1242.938315440233
 21
-2680.735877685328
 31
0.0
  0
LINE
  5
255A0
102
{ACAD_REACTORS
330
255AC
102
}
330
18
100
AcDbEntity
  8
0
370
    50
100
AcDbLine
 10
1222.418829719084
 20
-2684.485877685327
 30
0.0
 11
1198.907833111783
 21
-2684.485877685327
 31
0.0
  0
LINE
  5
255A1
102
{ACAD_REACTORS
330
255AC
102
}
330
18
100
AcDbEntity
  8
0
370
    50
100
AcDbLine
 10
1198.907833111783
 20
-2676.985877685328
 30
0.0
 11
1224.752674207907
 21
-2676.985877685328
 31
0.0
  0
LINE
  5
255A2
102
{ACAD_REACTORS
330
255AC
102
}
330
18
100
AcDbEntity
  8
0
  6
CENTER
 62
     1
 48
0.45
370
    13
100
AcDbLine
 10
1227.712103663692
 20
-2667.515435796927
 30
0.0
 11
1219.118397346996
 21
-2695.048860773875
 31
0.0
  0
LINE
  5
255A3
102
{ACAD_REACTORS
330
255AC
102
}
330
18
100
AcDbEntity
  8
0
370
    50
100
AcDbLine
 10
1242.081372571802
 20
-2676.985877685328
 30
0.0
 11
1242.081372571803
 21
-2684.485877685327
 31
0.0
  0
LINE
  5
255A4
102
{ACAD_REACTORS
330
255AC
102
}
330
18
100
AcDbEntity
  8
0
  6
CENTER
 62
     1
 48
0.45
370
    13
100
AcDbLine
 10
1232.405926412314
 20
-2667.515435796927
 30
0.0
 11
1223.812220095618
 21
-2695.048860773875
 31
0.0
  0
LINE
  5
255A5
102
{ACAD_REACTORS
330
255AC
102
}
330
18
100
AcDbEntity
  8
0
370
    50
100
AcDbLine
 10
1242.081372571803
 20
-2684.485877685327
 30
0.0
 11
1227.112652467706
 21
-2684.485877685327
 31
0.0
  0
LINE
  5
255A6
102
{ACAD_REACTORS
330
255AC
102
}
330
18
100
AcDbEntity
  8
0
370
    50
100
AcDbLine
 10
1229.446496956529
 20
-2676.985877685328
 30
0.0
 11
1242.081372571803
 21
-2676.985877685328
 31
0.0
  0
LINE
  5
255A7
102
{ACAD_REACTORS
330
255AC
102
}
330
18
100
AcDbEntity
  8
0
 48
10.0
370
    50
100
AcDbLine
 10
1178.907833111783
 20
-2676.235877685328
 30
0.0
 11
1198.907833111783
 21
-2676.235877685328
 31
0.0
  0
LINE
  5
255A8
102
{ACAD_REACTORS
330
255AC
102
}
330
18
100
AcDbEntity
  8
0
 48
10.0
370
    50
100
AcDbLine
 10
1198.907833111783
 20
-2685.235877685328
 30
0.0
 11
1178.907833111783
 21
-2685.235877685328
 31
0.0
  0
LINE
  5
255A9
102
{ACAD_REACTORS
330
255AC
102
}
330
18
100
AcDbEntity
  8
0
 48
10.0
370
    50
100
AcDbLine
 10
1178.907833111783
 20
-2676.235877685328
 30
0.0
 11
1178.907833111783
 21
-2685.235877685328
 31
0.0
  0
LINE
  5
255AA
102
{ACAD_REACTORS
330
255AC
102
}
330
18
100
AcDbEntity
  8
0
370
    50
100
AcDbLine
 10
1198.907833111783
 20
-2684.474586559753
 30
0.0
 11
1198.907833111783
 21
-2676.997168810902
 31
0.0
  0
LINE
  5
255AB
102
{ACAD_REACTORS
330
255AC
102
}
330
18
100
AcDbEntity
  8
0
370
    50
100
AcDbLine
 10
1198.907833111783
 20
-2676.235877685328
 30
0.0
 11
1198.907833111783
 21
-2685.235877685328
 31
0.0
  0
LINE
  5
255CB
330
18
100
AcDbEntity
  8
細線
100
AcDbLine
 10
1373.478817468734
 20
-2582.026749340431
 30
0.0
 11
1374.46661747903
 21
-2581.038949330135
 31
0.0
  0
CIRCLE
  5
255CC
330
18
100
AcDbEntity
  8
実線
370
    50
100
AcDbCircle
 10
1370.827167039283
 20
-2581.9003438371
 30
0.0
 40
3.74
  0
LINE
  5
255CD
330
18
100
AcDbEntity
  8
細線
100
AcDbLine
 10
1369.305077762036
 20
-2585.316605570645
 30
0.0
 11
1370.827167039283
 21
-2583.794516293398
 31
0.0
  0
LINE
  5
255CE
330
18
100
AcDbEntity
  8
細線
100
AcDbLine
 10
1370.827167039283
 20
-2582.026749340431
 30
0.0
 11
1373.534193804037
 21
-2579.319722575677
 31
0.0
  0
LINE
  5
255CF
330
18
100
AcDbEntity
  8
0
  6
CENTER
 62
     1
 48
0.3
370
    13
100
AcDbLine
 10
1375.454886911321
 20
-2582.026749340431
 30
0.0
 11
1365.322825110805
 21
-2582.026749340431
 31
0.0
  0
LINE
  5
255D0
330
18
100
AcDbEntity
  8
細線
100
AcDbLine
 10
1369.965772532318
 20
-2585.539794276845
 30
0.0
 11
1370.827167039283
 21
-2584.678399769881
 31
0.0
  0
LINE
  5
255D1
330
18
100
AcDbEntity
  8
細線
100
AcDbLine
 10
1367.492468982005
 20
-2583.593680444742
 30
0.0
 11
1369.059400086317
 21
-2582.02674934043
 31
0.0
  0
LINE
  5
255D2
330
18
100
AcDbEntity
  8
細線
100
AcDbLine
 10
1367.83110942861
 20
-2584.138923474622
 30
0.0
 11
1369.9432835628
 21
-2582.026749340431
 31
0.0
  0
LINE
  5
255D3
330
18
100
AcDbEntity
  8
細線
100
AcDbLine
 10
1368.246545777861
 20
-2584.607370601854
 30
0.0
 11
1370.827167039283
 21
-2582.026749340431
 31
0.0
  0
LINE
  5
255D4
330
18
100
AcDbEntity
  8
細線
100
AcDbLine
 10
1368.736424581669
 20
-2585.001375274529
 30
0.0
 11
1370.827167039283
 21
-2582.910632816915
 31
0.0
  0
LINE
  5
255D5
330
18
100
AcDbEntity
  8
0
  6
CENTER
 62
     1
 48
0.3
370
    13
100
AcDbLine
 10
1370.827167039283
 20
-2576.987176934459
 30
0.0
 11
1370.827167039283
 21
-2586.466454010746
 31
0.0
  0
LINE
  5
255D6
330
18
100
AcDbEntity
  8
細線
100
AcDbLine
 10
1370.827167039283
 20
-2579.375098910981
 30
0.0
 11
1371.888245184258
 21
-2578.314020766006
 31
0.0
  0
LINE
  5
255D7
330
18
100
AcDbEntity
  8
細線
100
AcDbLine
 10
1370.827167039283
 20
-2580.258982387465
 30
0.0
 11
1372.520503646926
 21
-2578.565645779821
 31
0.0
  0
LINE
  5
255D8
330
18
100
AcDbEntity
  8
細線
100
AcDbLine
 10
1371.711050515766
 20
-2582.026749340431
 30
0.0
 11
1373.928198476713
 21
-2579.809601379485
 31
0.0
  0
LINE
  5
255D9
330
18
100
AcDbEntity
  8
細線
100
AcDbLine
 10
1370.827167039283
 20
-2581.142865863949
 30
0.0
 11
1373.065746676805
 21
-2578.904286226427
 31
0.0
  0
LINE
  5
255DA
330
18
100
AcDbEntity
  8
細線
100
AcDbLine
 10
1372.59493399225
 20
-2582.026749340431
 30
0.0
 11
1374.243428772828
 21
-2580.378254559851
 31
0.0
  0
VIEWPORT
  5
23
330
15
100
AcDbEntity
 67
     1
  8
0
100
AcDbViewport
 10
199.9942332505396
 20
144.0017454319274
 30
0.0
 40
580.6640417241931
 41
291.4910309254183
 68
     1
 69
     1
 12
199.9942332505396
 22
144.0017454319274
 13
0.0
 23
0.0
 14
10.0
 24
10.0
 15
10.0
 25
10.0
 16
0.0
 26
0.0
 36
1.0
 17
0.0
 27
0.0
 37
0.0
 42
50.0
 43
0.0
 44
0.0
 45
291.4910309254183
 50
0.0
 51
0.0
 72
   100
 90
    32768
  1

281
     0
 71
     1
 74
     0
110
0.0
120
0.0
130
0.0
111
1.0
121
0.0
131
0.0
112
0.0
122
1.0
132
0.0
 79
     0
146
0.0
  0
VIEWPORT
  5
2E
330
15
100
AcDbEntity
 67
     1
  8
M_VIEW
100
AcDbViewport
 10
200.0
 20
144.0
 30
0.0
 40
400.0
 41
288.0
 68
     2
 69
     2
 12
1014.761559478377
 22
-2621.762706073419
 13
0.0
 23
0.0
 14
10.0
 24
10.0
 15
10.0
 25
10.0
 16
0.0
 26
0.0
 36
1.0
 17
0.0
 27
0.0
 37
0.0
 42
50.0
 43
0.0
 44
0.0
 45
719.9999973953159
 50
0.0
 51
0.0
 72
   100
 90
    32768
  1

281
     0
 71
     1
 74
     0
110
0.0
120
0.0
130
0.0
111
1.0
121
0.0
131
0.0
112
0.0
122
1.0
132
0.0
 79
     0
146
0.0
  0
INSERT
  5
115F
330
15
100
AcDbEntity
 67
     1
  8
FRAME025
100
AcDbBlockReference
  2
機械A4横_LBP
 10
82.74908858651452
 20
152.030959079227
 30
0.0
  0
TEXT
  5
AA6A
330
15
100
AcDbEntity
 67
     1
  8
文字
  6
ByBlock
 62
     0
100
AcDbText
 10
32.81885892396519
 20
73.01882819621747
 30
0.0
 40
3.2
  1

 50
90.0
 41
0.625
  7
MSｺﾞｼｯｸ
100
AcDbText
  0
TEXT
  5
AA6C
330
15
100
AcDbEntity
 67
     1
  8
文字
  6
ByBlock
 62
     0
100
AcDbText
 10
37.25020936743055
 20
73.01882819621747
 30
0.0
 40
3.2
  1

 50
90.0
 41
0.625
  7
MSｺﾞｼｯｸ
100
AcDbText
  0
TEXT
  5
FCA5
330
15
100
AcDbEntity
 67
     1
  8
FRAME020
  6
Continuous
100
AcDbText
 10
126.6213117262079
 20
29.63926951973459
 30
0.0
 40
2.5
  1

 41
0.625
  7
MSｺﾞｼｯｸ
100
AcDbText
  0
TEXT
  5
12229
330
15
100
AcDbEntity
 67
     1
  8
0
100
AcDbText
 10
324.703280378293
 20
10.6316829925787
 30
0.0
 40
6.0
  1
ＳＥ－３７９３０B
 41
1.1
100
AcDbText
  0
MTEXT
  5
21047
330
15
100
AcDbEntity
 67
     1
  8
0
 48
10.0
100
AcDbMText
 10
327.7719738752167
 20
55.46212977036839
 30
0.0
 40
6.0
 41
50.05040000000001
 71
     1
 72
     5
  1
{\L質量：9.0kg}
 73
     1
 44
1.0
  0
TEXT
  5
25435
330
15
100
AcDbEntity
 67
     1
  8
wakumoji
  6
Continuous
100
AcDbText
 10
16.49715195640715
 20
34.20450671396942
 30
0.0
 40
2.88
  1
1.本図は、オプション（マグネットカバー）未装着です。
 41
0.9
  7
まこ
100
AcDbText
  0
LINE
  5
25436
330
15
100
AcDbEntity
 67
     1
  8
細線
  6
Continuous
100
AcDbLine
 10
14.39666833748734
 20
33.13204520789713
 30
0.0
 11
104.6788493966008
 21
33.13204520789713
 31
0.0
  0
LINE
  5
25437
330
15
100
AcDbEntity
 67
     1
  8
細線
  6
Continuous
100
AcDbLine
 10
14.39666833748734
 20
28.13204520789713
 30
0.0
 11
104.6788493966008
 21
28.13204520789713
 31
0.0
  0
TEXT
  5
25438
330
15
100
AcDbEntity
 67
     1
  8
wakumoji
  6
Continuous
100
AcDbText
 10
16.49715195640715
 20
29.20450671396942
 30
0.0
 40
2.88
  1
  マグネットカバーを付けた場合は、マグネットベースの
 41
0.9
  7
まこ
100
AcDbText
  0
TEXT
  5
25439
330
15
100
AcDbEntity
 67
     1
  8
wakumoji
  6
Continuous
100
AcDbText
 10
16.49715195640715
 20
24.20450671396942
 30
0.0
 40
2.88
  1
  全高は13mm、ギャップは1mmになります。
 41
0.9
  7
まこ
100
AcDbText
  0
LINE
  5
2543A
330
15
100
AcDbEntity
 67
     1
  8
細線
  6
Continuous
100
AcDbLine
 10
14.39666833748734
 20
23.13204520789713
 30
0.0
 11
104.6788493966008
 21
23.13204520789713
 31
0.0
  0
LINE
  5
2543B
330
15
100
AcDbEntity
 67
     1
  8
細線
  6
Continuous
100
AcDbLine
 10
14.39666833748734
 20
38.53204520789711
 30
0.0
 11
30.09351707740148
 21
38.53204520789711
 31
0.0
  0
TEXT
  5
2543C
330
15
100
AcDbEntity
 67
     1
  8
wakumoji
  6
Continuous
100
AcDbText
 10
15.35554799904258
 20
39.94864300094667
 30
0.0
 40
2.88
  1
注　　記
  7
まこ
100
AcDbText
  0
MTEXT
  5
25630
330
15
100
AcDbEntity
 67
     1
  8
dimension
100
AcDbMText
 10
213.2674146564808
 20
31.17139271447568
 30
0.0
 40
6.0
 41
181.2725
 71
     1
 72
     5
  1
τﾘﾆｱﾓｰﾀ ｺｱ付M NLA-MA CLﾕﾆｯﾄ CLM750MA (750N)
  7
ｽﾀｲﾙ3
 73
     1
 44
1.0
1001
ACAD
1000
MTEXTBEGIN
1070
    73
1070
     1
1070
    44
1040
1.0
1070
    74
1070
     0
1000
MTEXTEND
  0
ENDSEC
  0
SECTION
  2
OBJECTS
  0
DICTIONARY
  5
C
330
0
100
AcDbDictionary
281
     1
  3
ACAD_GROUP
350
D
  3
ACAD_LAYOUT
350
DB2
  3
ACAD_MLINESTYLE
350
1B
  3
ACAD_PLOTSETTINGS
350
DB3
  3
ACAD_PLOTSTYLENAME
350
FB5B
  3
AcadDim
350
24E47
  3
AcDbVariableDictionary
350
106A6
  3
ASE_INDEX_DICTIONARY
350
1A99F
  3
DWGPROPS
350
15EC9
1001
ACAD
1000
TREAT_AS_HARD
1070
     0
  0
DICTIONARY
  5
25419
330
2
100
AcDbDictionary
280
     1
281
     1
  3
ACAD_LAYERFILTERS
360
2541A
  3
ACAD_LAYERSTATES
360
25426
  0
DICTIONARY
  5
EFC6
330
18
100
AcDbDictionary
280
     1
281
     1
  0
DICTIONARY
  5
EFC4
330
15
100
AcDbDictionary
280
     1
281
     1
  0
DICTIONARY
  5
D
102
{ACAD_REACTORS
330
C
102
}
330
C
100
AcDbDictionary
281
     1
  3
*A1
350
AC8A
  3
*A10
350
FC9B
  3
*A100
350
18F1F
  3
*A101
350
242A7
  3
*A102
350
240F1
  3
*A103
350
224AC
  3
*A104
350
FC9A
  3
*A105
350
1D6CA
  3
*A106
350
24A8C
  3
*A107
350
17389
  3
*A108
350
19256
  3
*A109
350
198F1
  3
*A11
350
1D6B6
  3
*A110
350
24914
  3
*A111
350
106C7
  3
*A112
350
24AEC
  3
*A113
350
1D706
  3
*A114
350
19AA4
  3
*A115
350
19A86
  3
*A116
350
242AE
  3
*A117
350
24B32
  3
*A118
350
20010
  3
*A119
350
242DF
  3
*A12
350
23BB4
  3
*A120
350
19861
  3
*A121
350
1D6A2
  3
*A122
350
2472F
  3
*A123
350
18F21
  3
*A124
350
24A98
  3
*A125
350
24B44
  3
*A126
350
ACAB
  3
*A127
350
1AA94
  3
*A128
350
18F22
  3
*A129
350
19787
  3
*A13
350
23A77
  3
*A130
350
173BE
  3
*A131
350
1D6F2
  3
*A132
350
FB6C
  3
*A133
350
2022C
  3
*A134
350
18F20
  3
*A135
350
19F55
  3
*A136
350
19F87
  3
*A137
350
FC91
  3
*A138
350
24719
  3
*A139
350
20209
  3
*A14
350
224D1
  3
*A140
350
2471E
  3
*A141
350
24AAA
  3
*A142
350
19F99
  3
*A143
350
19A51
  3
*A144
350
24ABC
  3
*A145
350
2244A
  3
*A146
350
196C2
  3
*A147
350
AC9A
  3
*A148
350
1606B
  3
*A149
350
1D6AC
  3
*A15
350
24AB0
  3
*A150
350
173BF
  3
*A151
350
2472A
  3
*A152
350
1D6D4
  3
*A153
350
17901
  3
*A154
350
1B729
  3
*A155
350
19FAB
  3
*A156
350
24ACE
  3
*A157
350
1738A
  3
*A158
350
19F67
  3
*A159
350
1F8FA
  3
*A16
350
242B5
  3
*A160
350
20227
  3
*A161
350
24721
  3
*A162
350
1D6C0
  3
*A163
350
1F8FF
  3
*A164
350
FCB8
  3
*A165
350
1EB7E
  3
*A166
350
1F91D
  3
*A167
350
1738B
  3
*A168
350
19A52
  3
*A169
350
1F904
  3
*A17
350
24AFE
  3
*A170
350
242AF
  3
*A171
350
106C6
  3
*A172
350
242E7
  3
*A173
350
1D6DE
  3
*A174
350
242BC
  3
*A175
350
24AB6
  3
*A176
350
19A5A
  3
*A177
350
16068
  3
*A178
350
24723
  3
*A179
350
24AF8
  3
*A18
350
24A62
  3
*A180
350
24724
  3
*A181
350
1F909
  3
*A182
350
23BB3
  3
*A183
350
24726
  3
*A184
350
2472E
  3
*A185
350
1B756
  3
*A186
350
19259
  3
*A187
350
242BD
  3
*A188
350
20CA2
  3
*A189
350
24728
  3
*A19
350
18FA6
  3
*A190
350
1EB7C
  3
*A191
350
24AA4
  3
*A192
350
20019
  3
*A193
350
2472B
  3
*A194
350
16059
  3
*A195
350
22E4B
  3
*A196
350
25594
  3
*A197
350
255AC
  3
*A198
350
1EB7D
  3
*A199
350
23CC4
  3
*A2
350
19255
  3
*A20
350
106A5
  3
*A200
350
1D68E
  3
*A201
350
24717
  3
*A202
350
16058
  3
*A203
350
1606A
  3
*A204
350
18FA7
  3
*A205
350
1D67A
  3
*A206
350
240ED
  3
*A207
350
242C3
  3
*A208
350
242C4
  3
*A209
350
2472C
  3
*A21
350
24AD4
  3
*A210
350
240F0
  3
*A211
350
1F90E
  3
*A212
350
24730
  3
*A213
350
232CA
  3
*A214
350
242CA
  3
*A215
350
FB6B
  3
*A216
350
20231
  3
*A217
350
1D6E8
  3
*A218
350
1F8F0
  3
*A219
350
20028
  3
*A22
350
20016
  3
*A220
350
ACA1
  3
*A221
350
1F913
  3
*A222
350
24B0A
  3
*A223
350
2471D
  3
*A224
350
240EF
  3
*A225
350
173BD
  3
*A226
350
2001C
  3
*A227
350
2021D
  3
*A228
350
24727
  3
*A229
350
FC95
  3
*A23
350
2471C
  3
*A230
350
24729
  3
*A231
350
24720
  3
*A232
350
1EB80
  3
*A233
350
24AC2
  3
*A234
350
1998A
  3
*A235
350
242CB
  3
*A236
350
24A5C
  3
*A237
350
22498
  3
*A24
350
19786
  3
*A25
350
106B3
  3
*A26
350
2002B
  3
*A27
350
17B11
  3
*A28
350
1D670
  3
*A29
350
17BFF
  3
*A3
350
242D1
  3
*A30
350
24ADA
  3
*A31
350
24AC8
  3
*A32
350
1D710
  3
*A33
350
2001F
  3
*A34
350
2471F
  3
*A35
350
24AF2
  3
*A36
350
1A691
  3
*A37
350
215A2
  3
*A38
350
1B732
  3
*A39
350
24A68
  3
*A4
350
20025
  3
*A40
350
24AE0
  3
*A41
350
1B720
  3
*A42
350
24A6E
  3
*A43
350
24A74
  3
*A44
350
16069
  3
*A45
350
24A7A
  3
*A46
350
20218
  3
*A47
350
169DA
  3
*A48
350
1F918
  3
*A49
350
19881
  3
*A5
350
1D6FC
  3
*A50
350
24B10
  3
*A51
350
227B1
  3
*A52
350
FBFF
  3
*A53
350
1EB7F
  3
*A54
350
242D9
  3
*A55
350
23CC2
  3
*A56
350
2472D
  3
*A57
350
1F8F5
  3
*A58
350
24A80
  3
*A59
350
24AE6
  3
*A6
350
1B73B
  3
*A60
350
24722
  3
*A61
350
24913
  3
*A62
350
ACB4
  3
*A63
350
23BB2
  3
*A64
350
ACBD
  3
*A65
350
20213
  3
*A66
350
240EE
  3
*A67
350
23CC3
  3
*A68
350
240F2
  3
*A69
350
1D698
  3
*A7
350
242D2
  3
*A70
350
22AAC
  3
*A71
350
18FA8
  3
*A72
350
ACA2
  3
*A73
350
1D684
  3
*A74
350
1A695
  3
*A75
350
242E0
  3
*A76
350
1A09A
  3
*A77
350
227B2
  3
*A78
350
24B04
  3
*A79
350
19794
  3
*A8
350
242D8
  3
*A80
350
1B744
  3
*A81
350
20013
  3
*A82
350
19988
  3
*A83
350
1B74D
  3
*A84
350
24725
  3
*A85
350
19729
  3
*A86
350
19989
  3
*A87
350
242A8
  3
*A88
350
2020E
  3
*A89
350
242B6
  3
*A9
350
20022
  3
*A90
350
2471A
  3
*A91
350
242E6
  3
*A92
350
1A692
  3
*A93
350
18F23
  3
*A94
350
24A86
  3
*A95
350
20236
  3
*A96
350
24A92
  3
*A97
350
20222
  3
*A98
350
20CA6
  3
*A99
350
24A9E
1001
ACAD
1000
TREAT_AS_HARD
1070
     0
  0
DICTIONARY
  5
DB2
102
{ACAD_REACTORS
330
C
102
}
330
C
100
AcDbDictionary
281
     1
  3
Model
350
FB5D
  3
外形図
350
FB5E
1001
ACAD
1000
TREAT_AS_HARD
1070
     0
  0
DICTIONARY
  5
1B
102
{ACAD_REACTORS
330
C
102
}
330
C
100
AcDbDictionary
281
     1
  3
STANDARD
350
1C
1001
ACAD
1000
TREAT_AS_HARD
1070
     0
  0
DICTIONARY
  5
DB3
102
{ACAD_REACTORS
330
C
102
}
330
C
100
AcDbDictionary
281
     1
1001
ACAD
1000
TREAT_AS_HARD
1070
     0
  0
ACDBDICTIONARYWDFLT
  5
FB5B
102
{ACAD_REACTORS
330
C
102
}
330
C
100
AcDbDictionary
281
     1
  3
Normal
350
FB5C
100
AcDbDictionaryWithDefault
340
FB5C
  0
XRECORD
  5
24E47
102
{ACAD_REACTORS
330
C
102
}
330
C
100
AcDbXrecord
280
     1
 90
   990106
  3

 60
     0
 61
     0
 62
     4
 63
     4
 64
     1
 65
     0
 66
     0
 67
     3
 68
     1
 69
     0
 70
     0
 71
     0
 72
     0
 40
0.0
170
     2
340
24E49
  0
DICTIONARY
  5
106A6
102
{ACAD_REACTORS
330
C
102
}
330
C
100
AcDbDictionary
281
     1
  3
SORTENTS
350
106A7
  0
DICTIONARY
  5
1A99F
102
{ACAD_REACTORS
330
C
102
}
330
C
100
AcDbDictionary
281
     1
  3
ASEBlockHierarchyIndexRecord
350
1A9A1
1001
DCO15
1040
1464612067.17
  0
XRECORD
  5
15EC9
102
{ACAD_REACTORS
330
C
102
}
330
C
100
AcDbXrecord
280
     1
  1
DWGPROPS COOKIE
  2

  3

  4

  6

  7

  8

  9

300
=
301
=
302
=
303
=
304
=
305
=
306
=
307
=
308
=
309
=
 40
12.65185717592592
 41
2451224.660162384
 42
2452395.660827315
  1

 90
        0
  0
DICTIONARY
  5
2541A
102
{ACAD_REACTORS
330
25419
102
}
330
25419
100
AcDbDictionary
280
     1
281
     1
  3
0
360
2541B
  3
11
360
2541C
  3
150_
360
2541D
  3
160_
360
2541E
  3
170_
360
2541F
  3
171_
360
25420
  3
350_
360
25421
  3
4
360
25422
  3
5
360
25423
  3
7
360
25424
  3
kiseki
360
25425
  0
DICTIONARY
  5
25426
102
{ACAD_REACTORS
330
25419
102
}
330
25419
100
AcDbDictionary
281
     1
  0
GROUP
  5
AC8A
102
{ACAD_REACTORS
330
D
102
}
330
D
100
AcDbGroup
300

 70
     1
 71
     1
  0
GROUP
  5
FC9B
102
{ACAD_REACTORS
330
D
102
}
330
D
100
AcDbGroup
300

 70
     1
 71
     1
  0
GROUP
  5
18F1F
102
{ACAD_REACTORS
330
D
102
}
330
D
100
AcDbGroup
300

 70
     1
 71
     1
  0
GROUP
  5
242A7
102
{ACAD_REACTORS
330
D
102
}
330
D
100
AcDbGroup
300

 70
     1
 71
     1
  0
GROUP
  5
240F1
102
{ACAD_REACTORS
330
D
102
}
330
D
100
AcDbGroup
300

 70
     1
 71
     1
  0
GROUP
  5
224AC
102
{ACAD_REACTORS
330
D
102
}
330
D
100
AcDbGroup
300

 70
     1
 71
     1
  0
GROUP
  5
FC9A
102
{ACAD_REACTORS
330
D
102
}
330
D
100
AcDbGroup
300

 70
     1
 71
     1
  0
GROUP
  5
1D6CA
102
{ACAD_REACTORS
330
D
102
}
330
D
100
AcDbGroup
300

 70
     1
 71
     1
  0
GROUP
  5
24A8C
102
{ACAD_REACTORS
330
D
102
}
330
D
100
AcDbGroup
300

 70
     1
 71
     1
  0
GROUP
  5
17389
102
{ACAD_REACTORS
330
D
102
}
330
D
100
AcDbGroup
300

 70
     1
 71
     1
  0
GROUP
  5
19256
102
{ACAD_REACTORS
330
D
102
}
330
D
100
AcDbGroup
300

 70
     1
 71
     1
  0
GROUP
  5
198F1
102
{ACAD_REACTORS
330
D
102
}
330
D
100
AcDbGroup
300

 70
     1
 71
     1
  0
GROUP
  5
1D6B6
102
{ACAD_REACTORS
330
D
102
}
330
D
100
AcDbGroup
300

 70
     1
 71
     1
  0
GROUP
  5
24914
102
{ACAD_REACTORS
330
D
102
}
330
D
100
AcDbGroup
300

 70
     1
 71
     1
340
216F3
340
216E5
340
216F5
340
216D5
340
216F6
340
216F7
340
216F9
340
216FA
340
216FB
340
216E8
340
216D4
340
216D7
340
216D8
340
216D9
340
216DA
340
216DB
340
216DC
340
216DE
340
216DF
340
216E0
340
216E1
340
216E2
340
216E3
340
216E4
340
216E6
340
216EA
340
216DD
340
216F8
340
216FC
340
216FD
340
216FE
340
216FF
340
21700
340
21701
340
21702
340
216F4
340
21703
340
21704
340
21705
340
21706
340
21707
340
216E9
340
216EC
  0
GROUP
  5
106C7
102
{ACAD_REACTORS
330
D
102
}
330
D
100
AcDbGroup
300

 70
     1
 71
     1
  0
GROUP
  5
24AEC
102
{ACAD_REACTORS
330
D
102
}
330
D
100
AcDbGroup
300

 70
     1
 71
     1
  0
GROUP
  5
1D706
102
{ACAD_REACTORS
330
D
102
}
330
D
100
AcDbGroup
300

 70
     1
 71
     1
  0
GROUP
  5
19AA4
102
{ACAD_REACTORS
330
D
102
}
330
D
100
AcDbGroup
300

 70
     1
 71
     1
  0
GROUP
  5
19A86
102
{ACAD_REACTORS
330
D
102
}
330
D
100
AcDbGroup
300

 70
     1
 71
     1
  0
GROUP
  5
242AE
102
{ACAD_REACTORS
330
D
102
}
330
D
100
AcDbGroup
300

 70
     1
 71
     1
  0
GROUP
  5
24B32
102
{ACAD_REACTORS
330
D
102
}
330
D
100
AcDbGroup
300

 70
     1
 71
     1
  0
GROUP
  5
20010
102
{ACAD_REACTORS
330
D
102
}
330
D
100
AcDbGroup
300

 70
     1
 71
     1
  0
GROUP
  5
242DF
102
{ACAD_REACTORS
330
D
102
}
330
D
100
AcDbGroup
300

 70
     1
 71
     1
  0
GROUP
  5
23BB4
102
{ACAD_REACTORS
330
D
102
}
330
D
100
AcDbGroup
300

 70
     1
 71
     1
  0
GROUP
  5
19861
102
{ACAD_REACTORS
330
D
102
}
330
D
100
AcDbGroup
300

 70
     1
 71
     1
  0
GROUP
  5
1D6A2
102
{ACAD_REACTORS
330
D
102
}
330
D
100
AcDbGroup
300

 70
     1
 71
     1
  0
GROUP
  5
2472F
102
{ACAD_REACTORS
330
D
102
}
330
D
100
AcDbGroup
300

 70
     1
 71
     1
  0
GROUP
  5
18F21
102
{ACAD_REACTORS
330
D
102
}
330
D
100
AcDbGroup
300

 70
     1
 71
     1
  0
GROUP
  5
24A98
102
{ACAD_REACTORS
330
D
102
}
330
D
100
AcDbGroup
300

 70
     1
 71
     1
  0
GROUP
  5
24B44
102
{ACAD_REACTORS
330
D
102
}
330
D
100
AcDbGroup
300

 70
     1
 71
     1
  0
GROUP
  5
ACAB
102
{ACAD_REACTORS
330
D
102
}
330
D
100
AcDbGroup
300

 70
     1
 71
     1
  0
GROUP
  5
1AA94
102
{ACAD_REACTORS
330
D
102
}
330
D
100
AcDbGroup
300

 70
     1
 71
     1
  0
GROUP
  5
18F22
102
{ACAD_REACTORS
330
D
102
}
330
D
100
AcDbGroup
300

 70
     1
 71
     1
  0
GROUP
  5
19787
102
{ACAD_REACTORS
330
D
102
}
330
D
100
AcDbGroup
300

 70
     1
 71
     1
  0
GROUP
  5
23A77
102
{ACAD_REACTORS
330
D
102
}
330
D
100
AcDbGroup
300

 70
     1
 71
     1
  0
GROUP
  5
173BE
102
{ACAD_REACTORS
330
D
102
}
330
D
100
AcDbGroup
300

 70
     1
 71
     1
  0
GROUP
  5
1D6F2
102
{ACAD_REACTORS
330
D
102
}
330
D
100
AcDbGroup
300

 70
     1
 71
     1
  0
GROUP
  5
FB6C
102
{ACAD_REACTORS
330
D
102
}
330
D
100
AcDbGroup
300

 70
     1
 71
     1
  0
GROUP
  5
2022C
102
{ACAD_REACTORS
330
D
102
}
330
D
100
AcDbGroup
300

 70
     1
 71
     1
  0
GROUP
  5
18F20
102
{ACAD_REACTORS
330
D
102
}
330
D
100
AcDbGroup
300

 70
     1
 71
     1
  0
GROUP
  5
19F55
102
{ACAD_REACTORS
330
D
102
}
330
D
100
AcDbGroup
300

 70
     1
 71
     1
  0
GROUP
  5
19F87
102
{ACAD_REACTORS
330
D
102
}
330
D
100
AcDbGroup
300

 70
     1
 71
     1
  0
GROUP
  5
FC91
102
{ACAD_REACTORS
330
D
102
}
330
D
100
AcDbGroup
300

 70
     1
 71
     1
  0
GROUP
  5
24719
102
{ACAD_REACTORS
330
D
102
}
330
D
100
AcDbGroup
300

 70
     1
 71
     1
  0
GROUP
  5
20209
102
{ACAD_REACTORS
330
D
102
}
330
D
100
AcDbGroup
300

 70
     1
 71
     1
  0
GROUP
  5
224D1
102
{ACAD_REACTORS
330
D
102
}
330
D
100
AcDbGroup
300

 70
     1
 71
     1
  0
GROUP
  5
2471E
102
{ACAD_REACTORS
330
D
102
}
330
D
100
AcDbGroup
300

 70
     1
 71
     1
  0
GROUP
  5
24AAA
102
{ACAD_REACTORS
330
D
102
}
330
D
100
AcDbGroup
300

 70
     1
 71
     1
  0
GROUP
  5
19F99
102
{ACAD_REACTORS
330
D
102
}
330
D
100
AcDbGroup
300

 70
     1
 71
     1
  0
GROUP
  5
19A51
102
{ACAD_REACTORS
330
D
102
}
330
D
100
AcDbGroup
300

 70
     1
 71
     1
  0
GROUP
  5
24ABC
102
{ACAD_REACTORS
330
D
102
}
330
D
100
AcDbGroup
300

 70
     1
 71
     1
  0
GROUP
  5
2244A
102
{ACAD_REACTORS
330
D
102
}
330
D
100
AcDbGroup
300

 70
     1
 71
     1
  0
GROUP
  5
196C2
102
{ACAD_REACTORS
330
D
102
}
330
D
100
AcDbGroup
300

 70
     1
 71
     1
  0
GROUP
  5
AC9A
102
{ACAD_REACTORS
330
D
102
}
330
D
100
AcDbGroup
300

 70
     1
 71
     1
  0
GROUP
  5
1606B
102
{ACAD_REACTORS
330
D
102
}
330
D
100
AcDbGroup
300

 70
     1
 71
     1
  0
GROUP
  5
1D6AC
102
{ACAD_REACTORS
330
D
102
}
330
D
100
AcDbGroup
300

 70
     1
 71
     1
  0
GROUP
  5
24AB0
102
{ACAD_REACTORS
330
D
102
}
330
D
100
AcDbGroup
300

 70
     1
 71
     1
  0
GROUP
  5
173BF
102
{ACAD_REACTORS
330
D
102
}
330
D
100
AcDbGroup
300

 70
     1
 71
     1
  0
GROUP
  5
2472A
102
{ACAD_REACTORS
330
D
102
}
330
D
100
AcDbGroup
300

 70
     1
 71
     1
  0
GROUP
  5
1D6D4
102
{ACAD_REACTORS
330
D
102
}
330
D
100
AcDbGroup
300

 70
     1
 71
     1
  0
GROUP
  5
17901
102
{ACAD_REACTORS
330
D
102
}
330
D
100
AcDbGroup
300

 70
     1
 71
     1
  0
GROUP
  5
1B729
102
{ACAD_REACTORS
330
D
102
}
330
D
100
AcDbGroup
300

 70
     1
 71
     1
  0
GROUP
  5
19FAB
102
{ACAD_REACTORS
330
D
102
}
330
D
100
AcDbGroup
300

 70
     1
 71
     1
  0
GROUP
  5
24ACE
102
{ACAD_REACTORS
330
D
102
}
330
D
100
AcDbGroup
300

 70
     1
 71
     1
  0
GROUP
  5
1738A
102
{ACAD_REACTORS
330
D
102
}
330
D
100
AcDbGroup
300

 70
     1
 71
     1
  0
GROUP
  5
19F67
102
{ACAD_REACTORS
330
D
102
}
330
D
100
AcDbGroup
300

 70
     1
 71
     1
  0
GROUP
  5
1F8FA
102
{ACAD_REACTORS
330
D
102
}
330
D
100
AcDbGroup
300

 70
     1
 71
     1
  0
GROUP
  5
242B5
102
{ACAD_REACTORS
330
D
102
}
330
D
100
AcDbGroup
300

 70
     1
 71
     1
  0
GROUP
  5
20227
102
{ACAD_REACTORS
330
D
102
}
330
D
100
AcDbGroup
300

 70
     1
 71
     1
  0
GROUP
  5
24721
102
{ACAD_REACTORS
330
D
102
}
330
D
100
AcDbGroup
300

 70
     1
 71
     1
  0
GROUP
  5
1D6C0
102
{ACAD_REACTORS
330
D
102
}
330
D
100
AcDbGroup
300

 70
     1
 71
     1
  0
GROUP
  5
1F8FF
102
{ACAD_REACTORS
330
D
102
}
330
D
100
AcDbGroup
300

 70
     1
 71
     1
  0
GROUP
  5
FCB8
102
{ACAD_REACTORS
330
D
102
}
330
D
100
AcDbGroup
300

 70
     1
 71
     1
  0
GROUP
  5
1EB7E
102
{ACAD_REACTORS
330
D
102
}
330
D
100
AcDbGroup
300

 70
     1
 71
     1
  0
GROUP
  5
1F91D
102
{ACAD_REACTORS
330
D
102
}
330
D
100
AcDbGroup
300

 70
     1
 71
     1
  0
GROUP
  5
1738B
102
{ACAD_REACTORS
330
D
102
}
330
D
100
AcDbGroup
300

 70
     1
 71
     1
  0
GROUP
  5
19A52
102
{ACAD_REACTORS
330
D
102
}
330
D
100
AcDbGroup
300

 70
     1
 71
     1
  0
GROUP
  5
1F904
102
{ACAD_REACTORS
330
D
102
}
330
D
100
AcDbGroup
300

 70
     1
 71
     1
  0
GROUP
  5
24AFE
102
{ACAD_REACTORS
330
D
102
}
330
D
100
AcDbGroup
300

 70
     1
 71
     1
  0
GROUP
  5
242AF
102
{ACAD_REACTORS
330
D
102
}
330
D
100
AcDbGroup
300

 70
     1
 71
     1
  0
GROUP
  5
106C6
102
{ACAD_REACTORS
330
D
102
}
330
D
100
AcDbGroup
300

 70
     1
 71
     1
  0
GROUP
  5
242E7
102
{ACAD_REACTORS
330
D
102
}
330
D
100
AcDbGroup
300

 70
     1
 71
     1
  0
GROUP
  5
1D6DE
102
{ACAD_REACTORS
330
D
102
}
330
D
100
AcDbGroup
300

 70
     1
 71
     1
  0
GROUP
  5
242BC
102
{ACAD_REACTORS
330
D
102
}
330
D
100
AcDbGroup
300

 70
     1
 71
     1
  0
GROUP
  5
24AB6
102
{ACAD_REACTORS
330
D
102
}
330
D
100
AcDbGroup
300

 70
     1
 71
     1
  0
GROUP
  5
19A5A
102
{ACAD_REACTORS
330
D
102
}
330
D
100
AcDbGroup
300

 70
     1
 71
     1
  0
GROUP
  5
16068
102
{ACAD_REACTORS
330
D
102
}
330
D
100
AcDbGroup
300

 70
     1
 71
     1
  0
GROUP
  5
24723
102
{ACAD_REACTORS
330
D
102
}
330
D
100
AcDbGroup
300

 70
     1
 71
     1
  0
GROUP
  5
24AF8
102
{ACAD_REACTORS
330
D
102
}
330
D
100
AcDbGroup
300

 70
     1
 71
     1
  0
GROUP
  5
24A62
102
{ACAD_REACTORS
330
D
102
}
330
D
100
AcDbGroup
300

 70
     1
 71
     1
  0
GROUP
  5
24724
102
{ACAD_REACTORS
330
D
102
}
330
D
100
AcDbGroup
300

 70
     1
 71
     1
  0
GROUP
  5
1F909
102
{ACAD_REACTORS
330
D
102
}
330
D
100
AcDbGroup
300

 70
     1
 71
     1
  0
GROUP
  5
23BB3
102
{ACAD_REACTORS
330
D
102
}
330
D
100
AcDbGroup
300

 70
     1
 71
     1
  0
GROUP
  5
24726
102
{ACAD_REACTORS
330
D
102
}
330
D
100
AcDbGroup
300

 70
     1
 71
     1
  0
GROUP
  5
2472E
102
{ACAD_REACTORS
330
D
102
}
330
D
100
AcDbGroup
300

 70
     1
 71
     1
  0
GROUP
  5
1B756
102
{ACAD_REACTORS
330
D
102
}
330
D
100
AcDbGroup
300

 70
     1
 71
     1
  0
GROUP
  5
19259
102
{ACAD_REACTORS
330
D
102
}
330
D
100
AcDbGroup
300

 70
     1
 71
     1
  0
GROUP
  5
242BD
102
{ACAD_REACTORS
330
D
102
}
330
D
100
AcDbGroup
300

 70
     1
 71
     1
  0
GROUP
  5
20CA2
102
{ACAD_REACTORS
330
D
102
}
330
D
100
AcDbGroup
300

 70
     1
 71
     1
  0
GROUP
  5
24728
102
{ACAD_REACTORS
330
D
102
}
330
D
100
AcDbGroup
300

 70
     1
 71
     1
  0
GROUP
  5
18FA6
102
{ACAD_REACTORS
330
D
102
}
330
D
100
AcDbGroup
300

 70
     1
 71
     1
  0
GROUP
  5
1EB7C
102
{ACAD_REACTORS
330
D
102
}
330
D
100
AcDbGroup
300

 70
     1
 71
     1
  0
GROUP
  5
24AA4
102
{ACAD_REACTORS
330
D
102
}
330
D
100
AcDbGroup
300

 70
     1
 71
     1
  0
GROUP
  5
20019
102
{ACAD_REACTORS
330
D
102
}
330
D
100
AcDbGroup
300

 70
     1
 71
     1
  0
GROUP
  5
2472B
102
{ACAD_REACTORS
330
D
102
}
330
D
100
AcDbGroup
300

 70
     1
 71
     1
  0
GROUP
  5
16059
102
{ACAD_REACTORS
330
D
102
}
330
D
100
AcDbGroup
300

 70
     1
 71
     1
  0
GROUP
  5
22E4B
102
{ACAD_REACTORS
330
D
102
}
330
D
100
AcDbGroup
300

 70
     1
 71
     1
  0
GROUP
  5
25594
102
{ACAD_REACTORS
330
D
102
}
330
D
100
AcDbGroup
300

 70
     1
 71
     1
340
25586
340
25588
340
25589
340
2558A
340
2556C
340
2558F
340
2558D
340
2558E
340
25584
340
25585
340
25587
340
2558B
340
2558C
  0
GROUP
  5
255AC
102
{ACAD_REACTORS
330
D
102
}
330
D
100
AcDbGroup
300

 70
     1
 71
     1
340
2559F
340
255A0
340
255A1
340
255A2
340
255A3
340
255A4
340
255A5
340
255A6
340
255A7
340
255A8
340
255A9
340
255AA
340
255AB
  0
GROUP
  5
1EB7D
102
{ACAD_REACTORS
330
D
102
}
330
D
100
AcDbGroup
300

 70
     1
 71
     1
  0
GROUP
  5
23CC4
102
{ACAD_REACTORS
330
D
102
}
330
D
100
AcDbGroup
300

 70
     1
 71
     1
  0
GROUP
  5
19255
102
{ACAD_REACTORS
330
D
102
}
330
D
100
AcDbGroup
300

 70
     1
 71
     1
  0
GROUP
  5
106A5
102
{ACAD_REACTORS
330
D
102
}
330
D
100
AcDbGroup
300

 70
     1
 71
     1
  0
GROUP
  5
1D68E
102
{ACAD_REACTORS
330
D
102
}
330
D
100
AcDbGroup
300

 70
     1
 71
     1
  0
GROUP
  5
24717
102
{ACAD_REACTORS
330
D
102
}
330
D
100
AcDbGroup
300

 70
     1
 71
     1
340
243C6
340
243D8
340
243C7
340
243C5
340
243CB
  0
GROUP
  5
16058
102
{ACAD_REACTORS
330
D
102
}
330
D
100
AcDbGroup
300

 70
     1
 71
     1
  0
GROUP
  5
1606A
102
{ACAD_REACTORS
330
D
102
}
330
D
100
AcDbGroup
300

 70
     1
 71
     1
  0
GROUP
  5
18FA7
102
{ACAD_REACTORS
330
D
102
}
330
D
100
AcDbGroup
300

 70
     1
 71
     1
  0
GROUP
  5
1D67A
102
{ACAD_REACTORS
330
D
102
}
330
D
100
AcDbGroup
300

 70
     1
 71
     1
  0
GROUP
  5
240ED
102
{ACAD_REACTORS
330
D
102
}
330
D
100
AcDbGroup
300

 70
     1
 71
     1
  0
GROUP
  5
242C3
102
{ACAD_REACTORS
330
D
102
}
330
D
100
AcDbGroup
300

 70
     1
 71
     1
  0
GROUP
  5
242C4
102
{ACAD_REACTORS
330
D
102
}
330
D
100
AcDbGroup
300

 70
     1
 71
     1
  0
GROUP
  5
2472C
102
{ACAD_REACTORS
330
D
102
}
330
D
100
AcDbGroup
300

 70
     1
 71
     1
  0
GROUP
  5
24AD4
102
{ACAD_REACTORS
330
D
102
}
330
D
100
AcDbGroup
300

 70
     1
 71
     1
  0
GROUP
  5
240F0
102
{ACAD_REACTORS
330
D
102
}
330
D
100
AcDbGroup
300

 70
     1
 71
     1
  0
GROUP
  5
1F90E
102
{ACAD_REACTORS
330
D
102
}
330
D
100
AcDbGroup
300

 70
     1
 71
     1
  0
GROUP
  5
24730
102
{ACAD_REACTORS
330
D
102
}
330
D
100
AcDbGroup
300

 70
     1
 71
     1
  0
GROUP
  5
232CA
102
{ACAD_REACTORS
330
D
102
}
330
D
100
AcDbGroup
300

 70
     1
 71
     1
  0
GROUP
  5
242CA
102
{ACAD_REACTORS
330
D
102
}
330
D
100
AcDbGroup
300

 70
     1
 71
     1
  0
GROUP
  5
FB6B
102
{ACAD_REACTORS
330
D
102
}
330
D
100
AcDbGroup
300

 70
     1
 71
     1
  0
GROUP
  5
20231
102
{ACAD_REACTORS
330
D
102
}
330
D
100
AcDbGroup
300

 70
     1
 71
     1
  0
GROUP
  5
1D6E8
102
{ACAD_REACTORS
330
D
102
}
330
D
100
AcDbGroup
300

 70
     1
 71
     1
  0
GROUP
  5
1F8F0
102
{ACAD_REACTORS
330
D
102
}
330
D
100
AcDbGroup
300

 70
     1
 71
     1
  0
GROUP
  5
20028
102
{ACAD_REACTORS
330
D
102
}
330
D
100
AcDbGroup
300

 70
     1
 71
     1
  0
GROUP
  5
20016
102
{ACAD_REACTORS
330
D
102
}
330
D
100
AcDbGroup
300

 70
     1
 71
     1
  0
GROUP
  5
ACA1
102
{ACAD_REACTORS
330
D
102
}
330
D
100
AcDbGroup
300

 70
     1
 71
     1
  0
GROUP
  5
1F913
102
{ACAD_REACTORS
330
D
102
}
330
D
100
AcDbGroup
300

 70
     1
 71
     1
  0
GROUP
  5
24B0A
102
{ACAD_REACTORS
330
D
102
}
330
D
100
AcDbGroup
300

 70
     1
 71
     1
  0
GROUP
  5
2471D
102
{ACAD_REACTORS
330
D
102
}
330
D
100
AcDbGroup
300

 70
     1
 71
     1
  0
GROUP
  5
240EF
102
{ACAD_REACTORS
330
D
102
}
330
D
100
AcDbGroup
300

 70
     1
 71
     1
  0
GROUP
  5
173BD
102
{ACAD_REACTORS
330
D
102
}
330
D
100
AcDbGroup
300

 70
     1
 71
     1
  0
GROUP
  5
2001C
102
{ACAD_REACTORS
330
D
102
}
330
D
100
AcDbGroup
300

 70
     1
 71
     1
  0
GROUP
  5
2021D
102
{ACAD_REACTORS
330
D
102
}
330
D
100
AcDbGroup
300

 70
     1
 71
     1
  0
GROUP
  5
24727
102
{ACAD_REACTORS
330
D
102
}
330
D
100
AcDbGroup
300

 70
     1
 71
     1
  0
GROUP
  5
FC95
102
{ACAD_REACTORS
330
D
102
}
330
D
100
AcDbGroup
300

 70
     1
 71
     1
  0
GROUP
  5
2471C
102
{ACAD_REACTORS
330
D
102
}
330
D
100
AcDbGroup
300

 70
     1
 71
     1
  0
GROUP
  5
24729
102
{ACAD_REACTORS
330
D
102
}
330
D
100
AcDbGroup
300

 70
     1
 71
     1
  0
GROUP
  5
24720
102
{ACAD_REACTORS
330
D
102
}
330
D
100
AcDbGroup
300

 70
     1
 71
     1
  0
GROUP
  5
1EB80
102
{ACAD_REACTORS
330
D
102
}
330
D
100
AcDbGroup
300

 70
     1
 71
     1
  0
GROUP
  5
24AC2
102
{ACAD_REACTORS
330
D
102
}
330
D
100
AcDbGroup
300

 70
     1
 71
     1
  0
GROUP
  5
1998A
102
{ACAD_REACTORS
330
D
102
}
330
D
100
AcDbGroup
300

 70
     1
 71
     1
  0
GROUP
  5
242CB
102
{ACAD_REACTORS
330
D
102
}
330
D
100
AcDbGroup
300

 70
     1
 71
     1
  0
GROUP
  5
24A5C
102
{ACAD_REACTORS
330
D
102
}
330
D
100
AcDbGroup
300

 70
     1
 71
     1
  0
GROUP
  5
22498
102
{ACAD_REACTORS
330
D
102
}
330
D
100
AcDbGroup
300

 70
     1
 71
     1
  0
GROUP
  5
19786
102
{ACAD_REACTORS
330
D
102
}
330
D
100
AcDbGroup
300

 70
     1
 71
     1
  0
GROUP
  5
106B3
102
{ACAD_REACTORS
330
D
102
}
330
D
100
AcDbGroup
300

 70
     1
 71
     1
  0
GROUP
  5
2002B
102
{ACAD_REACTORS
330
D
102
}
330
D
100
AcDbGroup
300

 70
     1
 71
     1
  0
GROUP
  5
17B11
102
{ACAD_REACTORS
330
D
102
}
330
D
100
AcDbGroup
300

 70
     1
 71
     1
  0
GROUP
  5
1D670
102
{ACAD_REACTORS
330
D
102
}
330
D
100
AcDbGroup
300

 70
     1
 71
     1
  0
GROUP
  5
17BFF
102
{ACAD_REACTORS
330
D
102
}
330
D
100
AcDbGroup
300

 70
     1
 71
     1
  0
GROUP
  5
242D1
102
{ACAD_REACTORS
330
D
102
}
330
D
100
AcDbGroup
300

 70
     1
 71
     1
  0
GROUP
  5
24ADA
102
{ACAD_REACTORS
330
D
102
}
330
D
100
AcDbGroup
300

 70
     1
 71
     1
  0
GROUP
  5
24AC8
102
{ACAD_REACTORS
330
D
102
}
330
D
100
AcDbGroup
300

 70
     1
 71
     1
  0
GROUP
  5
1D710
102
{ACAD_REACTORS
330
D
102
}
330
D
100
AcDbGroup
300

 70
     1
 71
     1
  0
GROUP
  5
2001F
102
{ACAD_REACTORS
330
D
102
}
330
D
100
AcDbGroup
300

 70
     1
 71
     1
  0
GROUP
  5
2471F
102
{ACAD_REACTORS
330
D
102
}
330
D
100
AcDbGroup
300

 70
     1
 71
     1
  0
GROUP
  5
24AF2
102
{ACAD_REACTORS
330
D
102
}
330
D
100
AcDbGroup
300

 70
     1
 71
     1
  0
GROUP
  5
1A691
102
{ACAD_REACTORS
330
D
102
}
330
D
100
AcDbGroup
300

 70
     1
 71
     1
  0
GROUP
  5
215A2
102
{ACAD_REACTORS
330
D
102
}
330
D
100
AcDbGroup
300

 70
     1
 71
     1
  0
GROUP
  5
1B732
102
{ACAD_REACTORS
330
D
102
}
330
D
100
AcDbGroup
300

 70
     1
 71
     1
  0
GROUP
  5
24A68
102
{ACAD_REACTORS
330
D
102
}
330
D
100
AcDbGroup
300

 70
     1
 71
     1
  0
GROUP
  5
20025
102
{ACAD_REACTORS
330
D
102
}
330
D
100
AcDbGroup
300

 70
     1
 71
     1
  0
GROUP
  5
24AE0
102
{ACAD_REACTORS
330
D
102
}
330
D
100
AcDbGroup
300

 70
     1
 71
     1
  0
GROUP
  5
1B720
102
{ACAD_REACTORS
330
D
102
}
330
D
100
AcDbGroup
300

 70
     1
 71
     1
  0
GROUP
  5
24A6E
102
{ACAD_REACTORS
330
D
102
}
330
D
100
AcDbGroup
300

 70
     1
 71
     1
  0
GROUP
  5
24A74
102
{ACAD_REACTORS
330
D
102
}
330
D
100
AcDbGroup
300

 70
     1
 71
     1
  0
GROUP
  5
16069
102
{ACAD_REACTORS
330
D
102
}
330
D
100
AcDbGroup
300

 70
     1
 71
     1
  0
GROUP
  5
24A7A
102
{ACAD_REACTORS
330
D
102
}
330
D
100
AcDbGroup
300

 70
     1
 71
     1
  0
GROUP
  5
20218
102
{ACAD_REACTORS
330
D
102
}
330
D
100
AcDbGroup
300

 70
     1
 71
     1
  0
GROUP
  5
169DA
102
{ACAD_REACTORS
330
D
102
}
330
D
100
AcDbGroup
300

 70
     1
 71
     1
  0
GROUP
  5
1F918
102
{ACAD_REACTORS
330
D
102
}
330
D
100
AcDbGroup
300

 70
     1
 71
     1
  0
GROUP
  5
19881
102
{ACAD_REACTORS
330
D
102
}
330
D
100
AcDbGroup
300

 70
     1
 71
     1
  0
GROUP
  5
1D6FC
102
{ACAD_REACTORS
330
D
102
}
330
D
100
AcDbGroup
300

 70
     1
 71
     1
  0
GROUP
  5
24B10
102
{ACAD_REACTORS
330
D
102
}
330
D
100
AcDbGroup
300

 70
     1
 71
     1
  0
GROUP
  5
227B1
102
{ACAD_REACTORS
330
D
102
}
330
D
100
AcDbGroup
300

 70
     1
 71
     1
  0
GROUP
  5
FBFF
102
{ACAD_REACTORS
330
D
102
}
330
D
100
AcDbGroup
300

 70
     1
 71
     1
  0
GROUP
  5
1EB7F
102
{ACAD_REACTORS
330
D
102
}
330
D
100
AcDbGroup
300

 70
     1
 71
     1
  0
GROUP
  5
242D9
102
{ACAD_REACTORS
330
D
102
}
330
D
100
AcDbGroup
300

 70
     1
 71
     1
  0
GROUP
  5
23CC2
102
{ACAD_REACTORS
330
D
102
}
330
D
100
AcDbGroup
300

 70
     1
 71
     1
  0
GROUP
  5
2472D
102
{ACAD_REACTORS
330
D
102
}
330
D
100
AcDbGroup
300

 70
     1
 71
     1
  0
GROUP
  5
1F8F5
102
{ACAD_REACTORS
330
D
102
}
330
D
100
AcDbGroup
300

 70
     1
 71
     1
  0
GROUP
  5
24A80
102
{ACAD_REACTORS
330
D
102
}
330
D
100
AcDbGroup
300

 70
     1
 71
     1
  0
GROUP
  5
24AE6
102
{ACAD_REACTORS
330
D
102
}
330
D
100
AcDbGroup
300

 70
     1
 71
     1
  0
GROUP
  5
1B73B
102
{ACAD_REACTORS
330
D
102
}
330
D
100
AcDbGroup
300

 70
     1
 71
     1
  0
GROUP
  5
24722
102
{ACAD_REACTORS
330
D
102
}
330
D
100
AcDbGroup
300

 70
     1
 71
     1
  0
GROUP
  5
24913
102
{ACAD_REACTORS
330
D
102
}
330
D
100
AcDbGroup
300

 70
     1
 71
     1
340
2486B
340
24869
340
24910
340
2490C
340
2490E
340
24912
340
24846
340
24861
340
24863
340
24847
340
2485F
340
24860
340
24865
340
24866
340
2490F
340
2490B
340
24843
340
2486A
340
24848
340
2484A
340
24849
340
2484C
340
24845
340
24854
340
2484F
340
2485E
340
24855
340
24856
340
24857
340
24858
340
2484D
340
24851
340
24852
340
24853
340
2485A
340
2484E
340
24850
340
24868
340
24867
340
2486C
340
24864
340
24862
340
2490D
340
24911
  0
GROUP
  5
ACB4
102
{ACAD_REACTORS
330
D
102
}
330
D
100
AcDbGroup
300

 70
     1
 71
     1
  0
GROUP
  5
23BB2
102
{ACAD_REACTORS
330
D
102
}
330
D
100
AcDbGroup
300

 70
     1
 71
     1
  0
GROUP
  5
ACBD
102
{ACAD_REACTORS
330
D
102
}
330
D
100
AcDbGroup
300

 70
     1
 71
     1
  0
GROUP
  5
20213
102
{ACAD_REACTORS
330
D
102
}
330
D
100
AcDbGroup
300

 70
     1
 71
     1
  0
GROUP
  5
240EE
102
{ACAD_REACTORS
330
D
102
}
330
D
100
AcDbGroup
300

 70
     1
 71
     1
  0
GROUP
  5
23CC3
102
{ACAD_REACTORS
330
D
102
}
330
D
100
AcDbGroup
300

 70
     1
 71
     1
  0
GROUP
  5
240F2
102
{ACAD_REACTORS
330
D
102
}
330
D
100
AcDbGroup
300

 70
     1
 71
     1
  0
GROUP
  5
1D698
102
{ACAD_REACTORS
330
D
102
}
330
D
100
AcDbGroup
300

 70
     1
 71
     1
  0
GROUP
  5
242D2
102
{ACAD_REACTORS
330
D
102
}
330
D
100
AcDbGroup
300

 70
     1
 71
     1
  0
GROUP
  5
22AAC
102
{ACAD_REACTORS
330
D
102
}
330
D
100
AcDbGroup
300

 70
     1
 71
     1
  0
GROUP
  5
18FA8
102
{ACAD_REACTORS
330
D
102
}
330
D
100
AcDbGroup
300

 70
     1
 71
     1
  0
GROUP
  5
ACA2
102
{ACAD_REACTORS
330
D
102
}
330
D
100
AcDbGroup
300

 70
     1
 71
     1
  0
GROUP
  5
1D684
102
{ACAD_REACTORS
330
D
102
}
330
D
100
AcDbGroup
300

 70
     1
 71
     1
  0
GROUP
  5
1A695
102
{ACAD_REACTORS
330
D
102
}
330
D
100
AcDbGroup
300

 70
     1
 71
     1
  0
GROUP
  5
242E0
102
{ACAD_REACTORS
330
D
102
}
330
D
100
AcDbGroup
300

 70
     1
 71
     1
  0
GROUP
  5
1A09A
102
{ACAD_REACTORS
330
D
102
}
330
D
100
AcDbGroup
300

 70
     1
 71
     1
  0
GROUP
  5
227B2
102
{ACAD_REACTORS
330
D
102
}
330
D
100
AcDbGroup
300

 70
     1
 71
     1
  0
GROUP
  5
24B04
102
{ACAD_REACTORS
330
D
102
}
330
D
100
AcDbGroup
300

 70
     1
 71
     1
  0
GROUP
  5
19794
102
{ACAD_REACTORS
330
D
102
}
330
D
100
AcDbGroup
300

 70
     1
 71
     1
  0
GROUP
  5
242D8
102
{ACAD_REACTORS
330
D
102
}
330
D
100
AcDbGroup
300

 70
     1
 71
     1
  0
GROUP
  5
1B744
102
{ACAD_REACTORS
330
D
102
}
330
D
100
AcDbGroup
300

 70
     1
 71
     1
  0
GROUP
  5
20013
102
{ACAD_REACTORS
330
D
102
}
330
D
100
AcDbGroup
300

 70
     1
 71
     1
  0
GROUP
  5
19988
102
{ACAD_REACTORS
330
D
102
}
330
D
100
AcDbGroup
300

 70
     1
 71
     1
  0
GROUP
  5
1B74D
102
{ACAD_REACTORS
330
D
102
}
330
D
100
AcDbGroup
300

 70
     1
 71
     1
  0
GROUP
  5
24725
102
{ACAD_REACTORS
330
D
102
}
330
D
100
AcDbGroup
300

 70
     1
 71
     1
  0
GROUP
  5
19729
102
{ACAD_REACTORS
330
D
102
}
330
D
100
AcDbGroup
300

 70
     1
 71
     1
  0
GROUP
  5
19989
102
{ACAD_REACTORS
330
D
102
}
330
D
100
AcDbGroup
300

 70
     1
 71
     1
  0
GROUP
  5
242A8
102
{ACAD_REACTORS
330
D
102
}
330
D
100
AcDbGroup
300

 70
     1
 71
     1
  0
GROUP
  5
2020E
102
{ACAD_REACTORS
330
D
102
}
330
D
100
AcDbGroup
300

 70
     1
 71
     1
  0
GROUP
  5
242B6
102
{ACAD_REACTORS
330
D
102
}
330
D
100
AcDbGroup
300

 70
     1
 71
     1
  0
GROUP
  5
20022
102
{ACAD_REACTORS
330
D
102
}
330
D
100
AcDbGroup
300

 70
     1
 71
     1
  0
GROUP
  5
2471A
102
{ACAD_REACTORS
330
D
102
}
330
D
100
AcDbGroup
300

 70
     1
 71
     1
340
24566
340
24576
340
24567
340
24565
340
2456F
  0
GROUP
  5
242E6
102
{ACAD_REACTORS
330
D
102
}
330
D
100
AcDbGroup
300

 70
     1
 71
     1
  0
GROUP
  5
1A692
102
{ACAD_REACTORS
330
D
102
}
330
D
100
AcDbGroup
300

 70
     1
 71
     1
  0
GROUP
  5
18F23
102
{ACAD_REACTORS
330
D
102
}
330
D
100
AcDbGroup
300

 70
     1
 71
     1
  0
GROUP
  5
24A86
102
{ACAD_REACTORS
330
D
102
}
330
D
100
AcDbGroup
300

 70
     1
 71
     1
  0
GROUP
  5
20236
102
{ACAD_REACTORS
330
D
102
}
330
D
100
AcDbGroup
300

 70
     1
 71
     1
  0
GROUP
  5
24A92
102
{ACAD_REACTORS
330
D
102
}
330
D
100
AcDbGroup
300

 70
     1
 71
     1
  0
GROUP
  5
20222
102
{ACAD_REACTORS
330
D
102
}
330
D
100
AcDbGroup
300

 70
     1
 71
     1
  0
GROUP
  5
20CA6
102
{ACAD_REACTORS
330
D
102
}
330
D
100
AcDbGroup
300

 70
     1
 71
     1
  0
GROUP
  5
24A9E
102
{ACAD_REACTORS
330
D
102
}
330
D
100
AcDbGroup
300

 70
     1
 71
     1
  0
LAYOUT
  5
FB5D
102
{ACAD_REACTORS
330
DB2
102
}
330
DB2
100
AcDbPlotSettings
  1

  2
\\HONAMI\LBP-910
  4
A3
  6

 40
5.873749732971191
 41
5.873747825622558
 42
5.873748779296875
 43
5.873748779296875
 44
296.9259948730469
 45
419.9466552734374
 46
0.0
 47
0.0
 48
-134.0496161171158
 49
-116.2294073187233
140
1105.745250909008
141
633.2284101676227
142
1.0
143
2.866823569012708
 70
 11952
 72
     1
 73
     1
 74
     1
  7
monochrome.ctb
 75
     0
147
0.3488181173089717
148
98.7130430422485
149
74.96499340265336
100
AcDbLayout
  1
Model
 70
     1
 71
     0
 10
0.0
 20
0.0
 11
12.0
 21
9.0
 12
0.0
 22
0.0
 32
0.0
 14
0.0
 24
0.0
 34
0.0
 15
0.0
 25
0.0
 35
0.0
146
0.0
 13
0.0
 23
0.0
 33
0.0
 16
1.0
 26
0.0
 36
0.0
 17
0.0
 27
1.0
 37
0.0
 76
     0
330
18
  0
LAYOUT
  5
FB5E
102
{ACAD_REACTORS
330
DB2
102
}
330
DB2
100
AcDbPlotSettings
  1

  2
HP 750C_aaa3.pc3
  4
User257
  6

 40
4.995333194732666
 41
9.990656852722167
 42
4.995330810546875
 43
9.99066162109375
 44
296.9683227539062
 45
419.9466552734374
 46
-1.27
 47
2.0
 48
0.0
 49
0.0
140
0.0
141
0.0
142
1.0
143
1.0
 70
   688
 72
     1
 73
     1
 74
     1
  7
monochrome.ctb
 75
    16
147
1.0
148
0.0069151357504325
149
1.504760646795716
100
AcDbLayout
  1
外形図
 70
     0
 71
     1
 10
-11.99757675684418
 20
-5.230093841528383
 11
407.9490785165932
 21
291.7382289123778
 12
0.0
 22
0.0
 32
0.0
 14
-0.0276607253074417
 24
-0.0054154686091579
 34
-0.0000000000112498
 15
400.0161272263867
 25
288.0089063324641
 35
0.0000000000002956
146
0.0
 13
0.0
 23
0.0
 33
0.0
 16
1.0
 26
0.0
 36
0.0
 17
0.0
 27
1.0
 37
0.0
 76
     0
330
15
331
23
  0
MLINESTYLE
  5
1C
102
{ACAD_REACTORS
330
1B
102
}
330
1B
100
AcDbMlineStyle
  2
STANDARD
 70
     0
  3

 62
   256
 51
90.0
 52
90.0
 71
     2
 49
0.5
 62
   256
  6
BYLAYER
 49
-0.5
 62
   256
  6
BYLAYER
  0
ACDBPLACEHOLDER
  5
FB5C
102
{ACAD_REACTORS
330
FB5B
102
}
330
FB5B
  0
DICTIONARYVAR
  5
106A7
102
{ACAD_REACTORS
330
106A6
102
}
330
106A6
100
DictionaryVariables
280
     0
  1
96
  0
XRECORD
  5
1A9A1
102
{ACAD_REACTORS
330
1A99F
102
}
330
1A99F
100
AcDbXrecord
280
     1
330
187D7
330
0
330
0
330
0
330
0
330
0
330
0
330
0
330
0
330
0
330
79
330
115F
330
0
330
0
330
0
330
0
330
0
330
0
330
0
330
0
330
0
330
0
330
0
330
0
330
0
330
0
330
0
330
0
330
0
330
0
330
0
330
0
330
0
330
0
330
0
330
0
330
0
330
0
330
0
330
0
330
0
330
0
330
0
330
0
  0
XRECORD
  5
2541B
102
{ACAD_REACTORS
330
2541A
102
}
330
2541A
100
AcDbXrecord
280
     1
  1
0
  1
*0
  1
*
  1
*
 70
     0
  1
*
  1
*
  0
XRECORD
  5
2541C
102
{ACAD_REACTORS
330
2541A
102
}
330
2541A
100
AcDbXrecord
280
     1
  1
11
  1
*11
  1
*
  1
*
 70
     0
  1
*
  1
*
  0
XRECORD
  5
2541D
102
{ACAD_REACTORS
330
2541A
102
}
330
2541A
100
AcDbXrecord
280
     1
  1
150_
  1
150_*
  1
*
  1
*
 70
     0
  1
*
  1
*
  0
XRECORD
  5
2541E
102
{ACAD_REACTORS
330
2541A
102
}
330
2541A
100
AcDbXrecord
280
     1
  1
160_
  1
160_*
  1
*
  1
*
 70
     0
  1
*
  1
*
  0
XRECORD
  5
2541F
102
{ACAD_REACTORS
330
2541A
102
}
330
2541A
100
AcDbXrecord
280
     1
  1
170_
  1
170_*
  1
*
  1
*
 70
     0
  1
*
  1
*
  0
XRECORD
  5
25420
102
{ACAD_REACTORS
330
2541A
102
}
330
2541A
100
AcDbXrecord
280
     1
  1
171_
  1
171_*
  1
*
  1
*
 70
     0
  1
*
  1
*
  0
XRECORD
  5
25421
102
{ACAD_REACTORS
330
2541A
102
}
330
2541A
100
AcDbXrecord
280
     1
  1
350_
  1
350_*
  1
*
  1
*
 70
     0
  1
*
  1
*
  0
XRECORD
  5
25422
102
{ACAD_REACTORS
330
2541A
102
}
330
2541A
100
AcDbXrecord
280
     1
  1
4
  1
*4
  1
*
  1
*
 70
     0
  1
*
  1
*
  0
XRECORD
  5
25423
102
{ACAD_REACTORS
330
2541A
102
}
330
2541A
100
AcDbXrecord
280
     1
  1
5
  1
*5
  1
*
  1
*
 70
     0
  1
*
  1
*
  0
XRECORD
  5
25424
102
{ACAD_REACTORS
330
2541A
102
}
330
2541A
100
AcDbXrecord
280
     1
  1
7
  1
*7
  1
*
  1
*
 70
     0
  1
*
  1
*
  0
XRECORD
  5
25425
102
{ACAD_REACTORS
330
2541A
102
}
330
2541A
100
AcDbXrecord
280
     1
  1
kiseki
  1
kiseki*
  1
*
  1
*
 70
     0
  1
*
  1
*
  0
ENDSEC
  0
EOF
