  0
SECTION
  2
HEADER
  9
$ACADVER
  1
AC1015
  9
$ACADMAINTVER
 70
    10
  9
$DWGCODEPAGE
  3
ANSI_932
  9
$INSBASE
 10
0.0
 20
0.0
 30
0.0
  9
$EXTMIN
 10
167.1825875009164
 20
-2122.280491227665
 30
0.0
  9
$EXTMAX
 10
1081.657905950984
 20
2218.451241203808
 30
137.5
  9
$LIMMIN
 10
0.0
 20
0.0
  9
$LIMMAX
 10
420.0
 20
297.0
  9
$ORTHOMODE
 70
     1
  9
$REGENMODE
 70
     1
  9
$FILLMODE
 70
     1
  9
$QTEXTMODE
 70
     0
  9
$MIRRTEXT
 70
     0
  9
$LTSCALE
 40
20.0
  9
$ATTMODE
 70
     2
  9
$TEXTSIZE
 40
2.5
  9
$TRACEWID
 40
1.0
  9
$TEXTSTYLE
  7
まこ
  9
$CLAYER
  8
dimension
  9
$CELTYPE
  6
BYLAYER
  9
$CECOLOR
 62
   256
  9
$CELTSCALE
 40
1.0
  9
$DISPSILH
 70
     0
  9
$DIMSCALE
 40
2.0
  9
$DIMASZ
 40
2.5
  9
$DIMEXO
 40
0.8
  9
$DIMDLI
 40
0.38
  9
$DIMRND
 40
0.0
  9
$DIMDLE
 40
0.0
  9
$DIMEXE
 40
0.18
  9
$DIMTP
 40
0.0
  9
$DIMTM
 40
0.0
  9
$DIMTXT
 40
3.0
  9
$DIMCEN
 40
0.0
  9
$DIMTSZ
 40
0.0
  9
$DIMTOL
 70
     0
  9
$DIMLIM
 70
     0
  9
$DIMTIH
 70
     0
  9
$DIMTOH
 70
     0
  9
$DIMSE1
 70
     0
  9
$DIMSE2
 70
     0
  9
$DIMTAD
 70
     3
  9
$DIMZIN
 70
     8
  9
$DIMBLK
  1
Open30
  9
$DIMASO
 70
     1
  9
$DIMSHO
 70
     1
  9
$DIMPOST
  1

  9
$DIMAPOST
  1

  9
$DIMALT
 70
     0
  9
$DIMALTD
 70
     2
  9
$DIMALTF
 40
25.4
  9
$DIMLFAC
 40
1.0
  9
$DIMTOFL
 70
     0
  9
$DIMTVP
 40
0.0
  9
$DIMTIX
 70
     0
  9
$DIMSOXD
 70
     0
  9
$DIMSAH
 70
     0
  9
$DIMBLK1
  1

  9
$DIMBLK2
  1

  9
$DIMSTYLE
  2
まこ
  9
$DIMCLRD
 70
     4
  9
$DIMCLRE
 70
     4
  9
$DIMCLRT
 70
   256
  9
$DIMTFAC
 40
1.0
  9
$DIMGAP
 40
0.5
  9
$DIMJUST
 70
     0
  9
$DIMSD1
 70
     0
  9
$DIMSD2
 70
     0
  9
$DIMTOLJ
 70
     1
  9
$DIMTZIN
 70
     0
  9
$DIMALTZ
 70
     0
  9
$DIMALTTZ
 70
     0
  9
$DIMUPT
 70
     0
  9
$DIMDEC
 70
     8
  9
$DIMTDEC
 70
     8
  9
$DIMALTU
 70
     2
  9
$DIMALTTD
 70
     2
  9
$DIMTXSTY
  7
まこ
  9
$DIMAUNIT
 70
     0
  9
$DIMADEC
 70
     0
  9
$DIMALTRND
 40
0.0
  9
$DIMAZIN
 70
     0
  9
$DIMDSEP
 70
    46
  9
$DIMATFIT
 70
     1
  9
$DIMFRAC
 70
     0
  9
$DIMLDRBLK
  1
Open30
  9
$DIMLUNIT
 70
     2
  9
$DIMLWD
 70
    13
  9
$DIMLWE
 70
    13
  9
$DIMTMOVE
 70
     0
  9
$LUNITS
 70
     2
  9
$LUPREC
 70
     4
  9
$SKETCHINC
 40
1.0
  9
$FILLETRAD
 40
2.0
  9
$AUNITS
 70
     0
  9
$AUPREC
 70
     0
  9
$MENU
  1
.
  9
$ELEVATION
 40
0.0
  9
$PELEVATION
 40
0.0
  9
$THICKNESS
 40
0.0
  9
$LIMCHECK
 70
     0
  9
$CHAMFERA
 40
0.5
  9
$CHAMFERB
 40
0.5
  9
$CHAMFERC
 40
20.0
  9
$CHAMFERD
 40
0.0
  9
$SKPOLY
 70
     0
  9
$TDCREATE
 40
2451224.660162384
  9
$TDUCREATE
 40
2451224.285162384
  9
$TDUPDATE
 40
2456589.397220405
  9
$TDUUPDATE
 40
2456589.022220405
  9
$TDINDWG
 40
16.6198273611
  9
$TDUSRTIMER
 40
16.6198273611
  9
$USRTIMER
 70
     1
  9
$ANGBASE
 50
0.0
  9
$ANGDIR
 70
     0
  9
$PDMODE
 70
     0
  9
$PDSIZE
 40
0.0
  9
$PLINEWID
 40
0.0
  9
$SPLFRAME
 70
     0
  9
$SPLINETYPE
 70
     6
  9
$SPLINESEGS
 70
     8
  9
$HANDSEED
  5
25E02
  9
$SURFTAB1
 70
     6
  9
$SURFTAB2
 70
     6
  9
$SURFTYPE
 70
     6
  9
$SURFU
 70
     6
  9
$SURFV
 70
     6
  9
$UCSBASE
  2

  9
$UCSNAME
  2

  9
$UCSORG
 10
0.0
 20
0.0
 30
0.0
  9
$UCSXDIR
 10
1.0
 20
0.0
 30
0.0
  9
$UCSYDIR
 10
0.0
 20
1.0
 30
0.0
  9
$UCSORTHOREF
  2

  9
$UCSORTHOVIEW
 70
     0
  9
$UCSORGTOP
 10
0.0
 20
0.0
 30
0.0
  9
$UCSORGBOTTOM
 10
0.0
 20
0.0
 30
0.0
  9
$UCSORGLEFT
 10
0.0
 20
0.0
 30
0.0
  9
$UCSORGRIGHT
 10
0.0
 20
0.0
 30
0.0
  9
$UCSORGFRONT
 10
0.0
 20
0.0
 30
0.0
  9
$UCSORGBACK
 10
0.0
 20
0.0
 30
0.0
  9
$PUCSBASE
  2

  9
$PUCSNAME
  2

  9
$PUCSORG
 10
0.0
 20
0.0
 30
0.0
  9
$PUCSXDIR
 10
1.0
 20
0.0
 30
0.0
  9
$PUCSYDIR
 10
0.0
 20
1.0
 30
0.0
  9
$PUCSORTHOREF
  2

  9
$PUCSORTHOVIEW
 70
     0
  9
$PUCSORGTOP
 10
0.0
 20
0.0
 30
0.0
  9
$PUCSORGBOTTOM
 10
0.0
 20
0.0
 30
0.0
  9
$PUCSORGLEFT
 10
0.0
 20
0.0
 30
0.0
  9
$PUCSORGRIGHT
 10
0.0
 20
0.0
 30
0.0
  9
$PUCSORGFRONT
 10
0.0
 20
0.0
 30
0.0
  9
$PUCSORGBACK
 10
0.0
 20
0.0
 30
0.0
  9
$USERI1
 70
     0
  9
$USERI2
 70
     0
  9
$USERI3
 70
     0
  9
$USERI4
 70
     0
  9
$USERI5
 70
     0
  9
$USERR1
 40
245.9999999999999
  9
$USERR2
 40
0.0
  9
$USERR3
 40
0.0
  9
$USERR4
 40
0.0
  9
$USERR5
 40
0.0
  9
$WORLDVIEW
 70
     1
  9
$SHADEDGE
 70
     3
  9
$SHADEDIF
 70
    70
  9
$TILEMODE
 70
     0
  9
$MAXACTVP
 70
    48
  9
$PINSBASE
 10
0.0
 20
0.0
 30
0.0
  9
$PLIMCHECK
 70
     0
  9
$PEXTMIN
 10
-0.0276607253074417
 20
-0.0054154686091579
 30
-0.0000000349181948
  9
$PEXTMAX
 10
400.0161272263867
 20
288.0089063324641
 30
0.0000000814935746
  9
$PLIMMIN
 10
-11.99757675684418
 20
-5.230093841528383
  9
$PLIMMAX
 10
407.9490785165932
 20
291.7382289123778
  9
$UNITMODE
 70
     0
  9
$VISRETAIN
 70
     1
  9
$PLINEGEN
 70
     0
  9
$PSLTSCALE
 70
     0
  9
$TREEDEPTH
 70
  3020
  9
$CMLSTYLE
  2
STANDARD
  9
$CMLJUST
 70
     0
  9
$CMLSCALE
 40
20.0
  9
$PROXYGRAPHICS
 70
     1
  9
$MEASUREMENT
 70
     0
  9
$CELWEIGHT
370
    -1
  9
$ENDCAPS
280
     0
  9
$JOINSTYLE
280
     0
  9
$LWDISPLAY
290
     0
  9
$INSUNITS
 70
     0
  9
$HYPERLINKBASE
  1

  9
$STYLESHEET
  1
monochrome.ctb
  9
$XEDIT
290
     1
  9
$CEPSNTYPE
380
     0
  9
$PSTYLEMODE
290
     1
  9
$FINGERPRINTGUID
  2
{D14EE3FF-941A-415A-9907-344E0A80D794}
  9
$VERSIONGUID
  2
{D1103C67-88D0-4FC1-A2C0-A4E2C3CC7EBE}
  9
$EXTNAMES
290
     1
  9
$PSVPSCALE
 40
0.0
  9
$OLESTARTUP
290
     0
  0
ENDSEC
  0
SECTION
  2
CLASSES
  0
CLASS
  1
HATCH
  2
AcDbHatch
  3
AutoCAD 2000
 90
    32768
280
     0
281
     1
  0
CLASS
  1
LWPOLYLINE
  2
AcDbPolyline
  3
AutoCAD 2000
 90
    32768
280
     0
281
     1
  0
CLASS
  1
ACDBDICTIONARYWDFLT
  2
AcDbDictionaryWithDefault
  3
AutoCAD 2000
 90
        0
280
     0
281
     0
  0
CLASS
  1
ACDBPLACEHOLDER
  2
AcDbPlaceHolder
  3
AutoCAD 2000
 90
        0
280
     0
281
     0
  0
CLASS
  1
LAYOUT
  2
AcDbLayout
  3
AutoCAD 2000
 90
        0
280
     0
281
     0
  0
CLASS
  1
LONG_TRANSACTION
  2
AcDbLongTransaction
  3
AutoCAD 2000
 90
    32768
280
     0
281
     0
  0
CLASS
  1
LWPOLYLINE
  2
AcDbPolyline
  3
AutoCAD 2000
 90
    32768
280
     0
281
     1
  0
CLASS
  1
HATCH
  2
AcDbHatch
  3
AutoCAD 2000
 90
    32768
280
     0
281
     1
  0
CLASS
  1
XRECORD
  2
AcDbXrecord
  3
AutoCAD 2000
 90
    32768
280
     0
281
     0
  0
CLASS
  1
DICTIONARYVAR
  2
AcDbDictionaryVar
  3
AutoCAD 2000
 90
        0
280
     0
281
     0
  0
ENDSEC
  0
SECTION
  2
TABLES
  0
TABLE
  2
VPORT
  5
8
330
0
100
AcDbSymbolTable
 70
     2
  0
VPORT
  5
25E01
330
8
100
AcDbSymbolTableRecord
100
AcDbViewportTableRecord
  2
*Active
 70
     0
 10
0.0
 20
0.0
 11
1.0
 21
1.0
 12
695.1286276310061
 22
-1991.305035451708
 13
0.0
 23
0.0
 14
10.0
 24
10.0
 15
10.0
 25
10.0
 16
0.0
 26
0.0
 36
1.0
 17
0.0
 27
0.0
 37
0.0
 40
381.7724688224359
 41
1.992047713717694
 42
50.0
 43
0.0
 44
0.0
 50
0.0
 51
0.0
 71
     0
 72
   100
 73
     1
 74
     0
 75
     0
 76
     0
 77
     0
 78
     0
281
     0
 65
     1
110
0.0
120
0.0
130
0.0
111
1.0
121
0.0
131
0.0
112
0.0
122
1.0
132
0.0
 79
     0
146
0.0
  0
ENDTAB
  0
TABLE
  2
LTYPE
  5
5
330
0
100
AcDbSymbolTable
 70
    10
  0
LTYPE
  5
12
330
5
100
AcDbSymbolTableRecord
100
AcDbLinetypeTableRecord
  2
BYBLOCK
 70
     0
  3

 72
    65
 73
     0
 40
0.0
  0
LTYPE
  5
13
330
5
100
AcDbSymbolTableRecord
100
AcDbLinetypeTableRecord
  2
BYLAYER
 70
     0
  3

 72
    65
 73
     0
 40
0.0
  0
LTYPE
  5
14
330
5
100
AcDbSymbolTableRecord
100
AcDbLinetypeTableRecord
  2
CONTINUOUS
 70
     0
  3
Solid line
 72
    65
 73
     0
 40
0.0
  0
LTYPE
  5
126C
330
5
100
AcDbSymbolTableRecord
100
AcDbLinetypeTableRecord
  2
CENTER
 70
     0
  3
____ _ ____ _ ____ _ ____ _ ____ _ ____ _ ____
 72
    65
 73
     4
 40
2.0
 49
1.25
 74
     0
 49
-0.25
 74
     0
 49
0.25
 74
     0
 49
-0.25
 74
     0
  0
LTYPE
  5
126E
330
5
100
AcDbSymbolTableRecord
100
AcDbLinetypeTableRecord
  2
DASHDOT
 70
     0
  3
__ . __ . __ . __ . __ . __ . __ . __ . __ . __
 72
    65
 73
     4
 40
1.0
 49
0.5
 74
     0
 49
-0.25
 74
     0
 49
0.0
 74
     0
 49
-0.25
 74
     0
  0
LTYPE
  5
1541F
330
5
100
AcDbSymbolTableRecord
100
AcDbLinetypeTableRecord
  2
HIDDEN
 70
     0
  3
_ _ _ _ _ _ _ _ _ _ _ _ _ _ _ _ _ _ _ _ _ _ _
 72
    65
 73
     2
 40
0.375
 49
0.25
 74
     0
 49
-0.125
 74
     0
  0
LTYPE
  5
1615D
330
5
100
AcDbSymbolTableRecord
100
AcDbLinetypeTableRecord
  2
PHANTOM
 70
     0
  3
Phantom ______  __  __  ______  __  __  ______
 72
    65
 73
     6
 40
2.5
 49
1.25
 74
     0
 49
-0.25
 74
     0
 49
0.25
 74
     0
 49
-0.25
 74
     0
 49
0.25
 74
     0
 49
-0.25
 74
     0
  0
ENDTAB
  0
TABLE
  2
LAYER
  5
2
102
{ACAD_XDICTIONARY
360
25504
102
}
330
0
100
AcDbSymbolTable
 70
    44
  0
LAYER
  5
E
330
2
100
AcDbSymbolTableRecord
100
AcDbLayerTableRecord
  2
0
 70
     2
 62
     7
  6
CONTINUOUS
370
    35
390
FB5C
  0
LAYER
  5
2C
330
2
100
AcDbSymbolTableRecord
100
AcDbLayerTableRecord
  2
M_VIEW
 70
     4
 62
    -1
  6
CONTINUOUS
370
    -3
390
FB5C
  0
LAYER
  5
30
330
2
100
AcDbSymbolTableRecord
100
AcDbLayerTableRecord
  2
FRAME025
 70
     0
 62
     7
  6
CONTINUOUS
370
    -3
390
FB5C
  0
LAYER
  5
12B
330
2
100
AcDbSymbolTableRecord
100
AcDbLayerTableRecord
  2
DEFPOINTS
 70
     4
 62
    -7
  6
CONTINUOUS
290
     0
370
    -3
390
FB5C
  0
LAYER
  5
651
330
2
100
AcDbSymbolTableRecord
100
AcDbLayerTableRecord
  2
FRAME020
 70
     0
 62
     7
  6
CONTINUOUS
370
    -3
390
FB5C
  0
LAYER
  5
1271
330
2
100
AcDbSymbolTableRecord
100
AcDbLayerTableRecord
  2
A
 70
     0
 62
     7
  6
CONTINUOUS
370
    -3
390
FB5C
  0
LAYER
  5
A9BB
330
2
100
AcDbSymbolTableRecord
100
AcDbLayerTableRecord
  2
文字
 70
     0
 62
     2
  6
CONTINUOUS
370
    13
390
FB5C
  0
LAYER
  5
122DE
330
2
100
AcDbSymbolTableRecord
100
AcDbLayerTableRecord
  2
dimension
 70
     0
 62
     4
  6
CONTINUOUS
370
    13
390
FB5C
  0
LAYER
  5
15422
330
2
100
AcDbSymbolTableRecord
100
AcDbLayerTableRecord
  2
細線
 70
     0
 62
     4
  6
CONTINUOUS
370
    13
390
FB5C
  0
LAYER
  5
1A846
330
2
100
AcDbSymbolTableRecord
100
AcDbLayerTableRecord
  2
実線
 70
     0
 62
     3
  6
CONTINUOUS
370
    40
390
FB5C
  0
LAYER
  5
1BB4F
330
2
100
AcDbSymbolTableRecord
100
AcDbLayerTableRecord
  2
隠れ線
 70
     0
 62
   252
  6
HIDDEN
370
     9
390
FB5C
  0
LAYER
  5
1F118
330
2
100
AcDbSymbolTableRecord
100
AcDbLayerTableRecord
  2
wakumoji
 70
     0
 62
     7
  6
CONTINUOUS
370
    -3
390
FB5C
  0
ENDTAB
  0
TABLE
  2
STYLE
  5
3
330
0
100
AcDbSymbolTable
 70
    15
  0
STYLE
  5
F
330
3
100
AcDbSymbolTableRecord
100
AcDbTextStyleTableRecord
  2
STANDARD
 70
     0
 40
0.0
 41
1.0
 50
0.0
 71
     0
 42
2.5
  3
MS Gothic.ttf
  4

1001
ACAD
1000
MS Gothic
1071
    32817
  0
STYLE
  5
34
330
3
100
AcDbSymbolTableRecord
100
AcDbTextStyleTableRecord
  2
TIMESNR
 70
     0
 40
0.0
 41
1.0
 50
0.0
 71
     0
 42
2.0
  3
MS Gothic.ttf
  4

1001
ACAD
1000
MS Gothic
1071
    32817
  0
STYLE
  5
35
330
3
100
AcDbSymbolTableRecord
100
AcDbTextStyleTableRecord
  2
MSｺﾞｼｯｸ
 70
     0
 40
0.0
 41
1.0
 50
0.0
 71
     0
 42
5.0
  3
MS Gothic.ttf
  4

1001
ACAD
1000
MS Gothic
1071
    32817
  0
STYLE
  5
1275
330
3
100
AcDbSymbolTableRecord
100
AcDbTextStyleTableRecord
  2
BIGFONT
 70
     0
 40
2.0
 41
1.0
 50
0.0
 71
     0
 42
2.0
  3
MS Gothic.ttf
  4

1001
ACAD
1000
MS Gothic
1071
    32817
  0
STYLE
  5
1A849
330
3
100
AcDbSymbolTableRecord
100
AcDbTextStyleTableRecord
  2
まこ
 70
     0
 40
0.0
 41
1.0
 50
0.0
 71
     0
 42
2.5
  3
MS Gothic.ttf
  4

1001
ACAD
1000
MS Gothic
1071
    32817
  0
STYLE
  5
1A84A
330
3
100
AcDbSymbolTableRecord
100
AcDbTextStyleTableRecord
  2
ｽﾀｲﾙ3
 70
     0
 40
10.0
 41
1.0
 50
0.0
 71
     0
 42
10.0
  3
MS Gothic.ttf
  4

1001
ACAD
1000
MS Gothic
1071
    32817
  0
STYLE
  5
1F8B3
330
3
100
AcDbSymbolTableRecord
100
AcDbTextStyleTableRecord
  2
MSｺﾞｼｯｸN
 70
     0
 40
0.0
 41
1.0
 50
0.0
 71
     0
 42
5.0
  3
MS Gothic.ttf
  4

1001
ACAD
1000
MS Gothic
1071
    32817
  0
STYLE
  5
1FA56
330
3
100
AcDbSymbolTableRecord
100
AcDbTextStyleTableRecord
  2
MSゴシックN
 70
     0
 40
0.0
 41
1.0
 50
0.0
 71
     0
 42
5.0
  3
MS Gothic.ttf
  4

1001
ACAD
1000
MS Gothic
1071
    32817
  0
ENDTAB
  0
TABLE
  2
VIEW
  5
6
330
0
100
AcDbSymbolTable
 70
     0
  0
ENDTAB
  0
TABLE
  2
UCS
  5
7
330
0
100
AcDbSymbolTable
 70
     0
  0
ENDTAB
  0
TABLE
  2
APPID
  5
9
330
0
100
AcDbSymbolTable
 70
     4
  0
APPID
  5
10
330
9
100
AcDbSymbolTableRecord
100
AcDbRegAppTableRecord
  2
ACAD
 70
     0
  0
APPID
  5
F013
330
9
100
AcDbSymbolTableRecord
100
AcDbRegAppTableRecord
  2
CONTENTBLOCKDESCRIPTION
 70
     0
  0
APPID
  5
F014
330
9
100
AcDbSymbolTableRecord
100
AcDbRegAppTableRecord
  2
CONTENTBLOCKICON
 70
     0
  0
APPID
  5
1A9A0
330
9
100
AcDbSymbolTableRecord
100
AcDbRegAppTableRecord
  2
DCO15
 70
     0
  0
ENDTAB
  0
TABLE
  2
DIMSTYLE
  5
A
330
0
100
AcDbSymbolTable
 70
    13
100
AcDbDimStyleTable
 71
     2
340
1A84D
340
1D
  0
DIMSTYLE
105
1D
330
A
100
AcDbSymbolTableRecord
100
AcDbDimStyleTableRecord
  2
STANDARD
 70
     0
340
F
  0
DIMSTYLE
105
1A84D
102
{ACAD_REACTORS
330
23DC8
330
23EE6
330
23DDC
330
23DC7
330
23E13
330
23DCF
330
23E48
330
23DD0
330
23E42
330
23DAF
330
23DDD
330
23F24
330
258FD
330
25925
330
25924
330
25922
330
2592D
330
258FE
330
258F0
330
258ED
330
25900
330
25937
330
25933
330
25932
102
}
330
A
100
AcDbSymbolTableRecord
100
AcDbDimStyleTableRecord
  2
まこ
 70
     0
 40
2.0
 41
2.5
 42
0.8
 73
     0
 74
     0
 77
     3
 78
     8
140
3.0
141
0.0
147
0.5
176
     4
177
     4
178
   256
271
     8
272
     8
289
     1
340
1A849
341
1215D
342
1215D
371
    13
372
    13
  0
ENDTAB
  0
TABLE
  2
BLOCK_RECORD
  5
1
330
0
100
AcDbSymbolTable
 70
    70
  0
BLOCK_RECORD
  5
18
102
{ACAD_XDICTIONARY
360
EFC6
102
}
330
1
100
AcDbSymbolTableRecord
100
AcDbBlockTableRecord
  2
*MODEL_SPACE
340
FB5D
  0
BLOCK_RECORD
  5
15
102
{ACAD_XDICTIONARY
360
EFC4
102
}
330
1
100
AcDbSymbolTableRecord
100
AcDbBlockTableRecord
  2
*PAPER_SPACE
340
FB5E
  0
BLOCK_RECORD
  5
115C
330
1
100
AcDbSymbolTableRecord
100
AcDbBlockTableRecord
  2
機械A4横_LBP
340
0
102
{BLKREFS
331
115F
331
187D7
102
}
  0
BLOCK_RECORD
  5
1215D
330
1
100
AcDbSymbolTableRecord
100
AcDbBlockTableRecord
  2
_Open30
340
0
102
{BLKREFS
331
25278
331
25279
331
25281
331
25282
331
2528A
331
2528B
331
25293
331
25294
331
25355
331
25356
331
2535E
331
2535F
331
25374
331
25375
331
2537E
331
2537F
331
25495
331
25496
331
2549F
331
254A0
331
254A8
331
254A9
331
254B2
331
254B3
331
254BB
331
254BC
331
254C6
331
254C7
331
254CF
331
254D0
331
254D8
331
254D9
331
254E1
331
254E2
331
254EB
331
254EC
331
254F3
331
254F4
331
254FD
331
254FE
331
2553A
331
2553B
331
25521
331
25522
331
255AD
331
255AE
331
2557B
331
2557C
331
2556F
331
25570
331
25563
331
25564
331
255A0
331
255A1
331
25594
331
25595
331
25588
331
25589
331
2552F
331
25547
331
25548
331
25558
331
259D9
331
259DA
331
259EC
331
259ED
331
259F6
331
259F7
331
259FF
331
25A00
331
25A08
331
25A09
331
25A12
331
25A13
331
25A1A
331
25A1B
331
25A23
331
25A24
331
25A72
331
25A73
331
25B3C
331
25B3D
331
25C1B
331
25C30
331
25CB1
331
25CB2
102
}
  0
BLOCK_RECORD
  5
153E2
330
1
100
AcDbSymbolTableRecord
100
AcDbBlockTableRecord
  2
_DotSmall
340
0
102
{BLKREFS
331
25530
331
25557
331
25C1C
331
25C2F
102
}
  0
BLOCK_RECORD
  5
23F50
330
1
100
AcDbSymbolTableRecord
100
AcDbBlockTableRecord
  2
*D22
340
0
  0
BLOCK_RECORD
  5
23F5C
330
1
100
AcDbSymbolTableRecord
100
AcDbBlockTableRecord
  2
*D23
340
0
  0
BLOCK_RECORD
  5
23F69
330
1
100
AcDbSymbolTableRecord
100
AcDbBlockTableRecord
  2
*D24
340
0
  0
BLOCK_RECORD
  5
23F76
330
1
100
AcDbSymbolTableRecord
100
AcDbBlockTableRecord
  2
*D25
340
0
  0
BLOCK_RECORD
  5
23F82
330
1
100
AcDbSymbolTableRecord
100
AcDbBlockTableRecord
  2
*D26
340
0
  0
BLOCK_RECORD
  5
23F9A
330
1
100
AcDbSymbolTableRecord
100
AcDbBlockTableRecord
  2
*D27
340
0
  0
BLOCK_RECORD
  5
23FA6
330
1
100
AcDbSymbolTableRecord
100
AcDbBlockTableRecord
  2
*D28
340
0
  0
BLOCK_RECORD
  5
23FB2
330
1
100
AcDbSymbolTableRecord
100
AcDbBlockTableRecord
  2
*D29
340
0
  0
BLOCK_RECORD
  5
23FBE
330
1
100
AcDbSymbolTableRecord
100
AcDbBlockTableRecord
  2
*D30
340
0
  0
BLOCK_RECORD
  5
25940
330
1
100
AcDbSymbolTableRecord
100
AcDbBlockTableRecord
  2
*D57
340
0
  0
BLOCK_RECORD
  5
2594D
330
1
100
AcDbSymbolTableRecord
100
AcDbBlockTableRecord
  2
*D58
340
0
  0
BLOCK_RECORD
  5
2595A
330
1
100
AcDbSymbolTableRecord
100
AcDbBlockTableRecord
  2
*D59
340
0
  0
BLOCK_RECORD
  5
25966
330
1
100
AcDbSymbolTableRecord
100
AcDbBlockTableRecord
  2
*D60
340
0
  0
BLOCK_RECORD
  5
25973
330
1
100
AcDbSymbolTableRecord
100
AcDbBlockTableRecord
  2
*D61
340
0
  0
BLOCK_RECORD
  5
2597F
330
1
100
AcDbSymbolTableRecord
100
AcDbBlockTableRecord
  2
*D62
340
0
  0
BLOCK_RECORD
  5
2598B
330
1
100
AcDbSymbolTableRecord
100
AcDbBlockTableRecord
  2
*D63
340
0
  0
BLOCK_RECORD
  5
25997
330
1
100
AcDbSymbolTableRecord
100
AcDbBlockTableRecord
  2
*D64
340
0
  0
BLOCK_RECORD
  5
259A3
330
1
100
AcDbSymbolTableRecord
100
AcDbBlockTableRecord
  2
*D65
340
0
  0
BLOCK_RECORD
  5
259AF
330
1
100
AcDbSymbolTableRecord
100
AcDbBlockTableRecord
  2
*D66
340
0
  0
BLOCK_RECORD
  5
259BC
330
1
100
AcDbSymbolTableRecord
100
AcDbBlockTableRecord
  2
*D67
340
0
  0
BLOCK_RECORD
  5
259C9
330
1
100
AcDbSymbolTableRecord
100
AcDbBlockTableRecord
  2
*D68
340
0
  0
ENDTAB
  0
ENDSEC
  0
SECTION
  2
BLOCKS
  0
BLOCK
  5
19
330
18
100
AcDbEntity
  8
0
100
AcDbBlockBegin
  2
*MODEL_SPACE
 70
     0
 10
0.0
 20
0.0
 30
0.0
  3
*MODEL_SPACE
  1

  0
ENDBLK
  5
1A
330
18
100
AcDbEntity
  8
0
100
AcDbBlockEnd
  0
BLOCK
  5
16
330
15
100
AcDbEntity
 67
     1
  8
0
100
AcDbBlockBegin
  2
*PAPER_SPACE
 70
     0
 10
0.0
 20
0.0
 30
0.0
  3
*PAPER_SPACE
  1

  0
ENDBLK
  5
17
330
15
100
AcDbEntity
 67
     1
  8
0
100
AcDbBlockEnd
  0
BLOCK
  5
115D
330
115C
100
AcDbEntity
  8
0
100
AcDbBlockBegin
  2
機械A4横_LBP
 70
     0
 10
0.0
 20
0.0
 30
0.0
  3
機械A4横_LBP
  1

  0
ENDBLK
  5
115E
330
115C
100
AcDbEntity
  8
0
100
AcDbBlockEnd
  0
BLOCK
  5
12161
330
1215D
100
AcDbEntity
  8
0
100
AcDbBlockBegin
  2
_Open30
 70
     0
 10
0.0
 20
0.0
 30
0.0
  3
_Open30
  1

  0
LINE
  5
1215E
330
1215D
100
AcDbEntity
  8
0
  6
ByBlock
 62
     0
370
    -2
100
AcDbLine
 10
-1.0
 20
0.26794919
 30
0.0
 11
0.0
 21
0.0
 31
0.0
  0
LINE
  5
1215F
330
1215D
100
AcDbEntity
  8
0
  6
ByBlock
 62
     0
370
    -2
100
AcDbLine
 10
0.0
 20
0.0
 30
0.0
 11
-1.0
 21
-0.26794919
 31
0.0
  0
LINE
  5
12160
330
1215D
100
AcDbEntity
  8
0
  6
ByBlock
 62
     0
370
    -2
100
AcDbLine
 10
0.0
 20
0.0
 30
0.0
 11
-1.0
 21
0.0
 31
0.0
  0
ENDBLK
  5
12162
330
1215D
100
AcDbEntity
  8
0
100
AcDbBlockEnd
  0
BLOCK
  5
153E4
330
153E2
100
AcDbEntity
  8
0
100
AcDbBlockBegin
  2
_DotSmall
 70
     0
 10
0.0
 20
0.0
 30
0.0
  3
_DotSmall
  1

  0
LWPOLYLINE
  5
153E3
330
153E2
100
AcDbEntity
  8
0
  6
ByBlock
 62
     0
100
AcDbPolyline
 90
        2
 70
     1
 43
0.5
 10
-0.0625
 20
0.0
 42
1.0
 10
0.0625
 20
0.0
 42
1.0
  0
ENDBLK
  5
153E5
330
153E2
100
AcDbEntity
  8
0
100
AcDbBlockEnd
  0
BLOCK
  5
23F5A
330
23F50
100
AcDbEntity
  8
0
370
    50
100
AcDbBlockBegin
  2
*D22
 70
     1
 10
0.0
 20
0.0
 30
0.0
  3
*D22
  1

  0
LINE
  5
25352
330
23F50
100
AcDbEntity
  8
文字
 62
     4
370
    13
100
AcDbLine
 10
487.4760306610381
 20
-1937.071362882769
 30
0.0
 11
438.6036442285591
 21
-1937.071362882769
 31
0.0
  0
LINE
  5
25353
330
23F50
100
AcDbEntity
  8
文字
 62
     4
370
    13
100
AcDbLine
 10
503.4729726427503
 20
-2002.071362882769
 30
0.0
 11
438.6036442285591
 21
-2002.071362882769
 31
0.0
  0
LINE
  5
25354
330
23F50
100
AcDbEntity
  8
文字
 62
     4
370
    13
100
AcDbLine
 10
438.9636442285591
 20
-1942.071362882768
 30
0.0
 11
438.9636442285591
 21
-1997.071362882769
 31
0.0
  0
INSERT
  5
25355
330
23F50
100
AcDbEntity
  8
文字
 62
     4
370
    13
100
AcDbBlockReference
  2
_Open30
 10
438.9636442285591
 20
-1937.071362882769
 30
0.0
 41
5.0
 42
5.0
 43
5.0
 50
90.0
  0
INSERT
  5
25356
330
23F50
100
AcDbEntity
  8
文字
 62
     4
370
    13
100
AcDbBlockReference
  2
_Open30
 10
438.9636442285591
 20
-2002.071362882769
 30
0.0
 41
5.0
 42
5.0
 43
5.0
 50
270.0
  0
MTEXT
  5
25357
330
23F50
100
AcDbEntity
  8
文字
370
    13
100
AcDbMText
 10
434.9636442285595
 20
-1969.571362882769
 30
0.0
 40
6.0
 41
0.0
 71
     5
 72
     1
  1
\A1;65
  7
まこ
 11
0.0000000000000001
 21
1.0
 31
0.0
 73
     1
 44
1.0
  0
POINT
  5
25358
330
23F50
100
AcDbEntity
  8
DEFPOINTS
 62
     0
370
    30
100
AcDbPoint
 10
489.0760306610381
 20
-1937.071362882769
 30
0.0
  0
POINT
  5
25359
330
23F50
100
AcDbEntity
  8
DEFPOINTS
 62
     0
370
    30
100
AcDbPoint
 10
505.0729726427503
 20
-2002.071362882769
 30
0.0
  0
POINT
  5
2535A
330
23F50
100
AcDbEntity
  8
DEFPOINTS
 62
     0
370
    30
100
AcDbPoint
 10
438.9636442285591
 20
-2002.071362882769
 30
0.0
  0
ENDBLK
  5
23F5B
330
23F50
100
AcDbEntity
  8
0
370
    50
100
AcDbBlockEnd
  0
BLOCK
  5
23F67
330
23F5C
100
AcDbEntity
  8
0
370
    50
100
AcDbBlockBegin
  2
*D23
 70
     1
 10
0.0
 20
0.0
 30
0.0
  3
*D23
  1

  0
LINE
  5
25370
330
23F5C
100
AcDbEntity
  8
文字
 62
     4
370
    13
100
AcDbLine
 10
503.4729726427503
 20
-1937.071362882769
 30
0.0
 11
438.6036442285591
 21
-1937.071362882769
 31
0.0
  0
LINE
  5
25371
330
23F5C
100
AcDbEntity
  8
文字
 62
     4
370
    13
100
AcDbLine
 10
461.7212781866896
 20
-1929.571362882768
 30
0.0
 11
438.6036442285591
 21
-1929.571362882768
 31
0.0
  0
LINE
  5
25372
330
23F5C
100
AcDbEntity
  8
文字
 62
     4
370
    13
100
AcDbLine
 10
438.9636442285591
 20
-1942.071362882768
 30
0.0
 11
438.9636442285591
 21
-1947.071362882768
 31
0.0
  0
LINE
  5
25373
330
23F5C
100
AcDbEntity
  8
文字
 62
     4
370
    13
100
AcDbLine
 10
438.9636442285591
 20
-1924.571362882769
 30
0.0
 11
438.9636442285591
 21
-1892.828505739911
 31
0.0
  0
INSERT
  5
25374
330
23F5C
100
AcDbEntity
  8
文字
 62
     4
370
    13
100
AcDbBlockReference
  2
_Open30
 10
438.9636442285591
 20
-1937.071362882769
 30
0.0
 41
5.0
 42
5.0
 43
5.0
 50
90.0
  0
INSERT
  5
25375
330
23F5C
100
AcDbEntity
  8
文字
 62
     4
370
    13
100
AcDbBlockReference
  2
_Open30
 10
438.9636442285591
 20
-1929.571362882768
 30
0.0
 41
5.0
 42
5.0
 43
5.0
 50
270.0
  0
MTEXT
  5
25376
330
23F5C
100
AcDbEntity
  8
文字
370
    13
100
AcDbMText
 10
434.9636442285595
 20
-1906.19993431134
 30
0.0
 40
6.0
 41
0.0
 71
     5
 72
     1
  1
\A1;（7.5）
  7
まこ
 11
0.0000000000000001
 21
1.0
 31
0.0
 73
     1
 44
1.0
  0
POINT
  5
25377
330
23F5C
100
AcDbEntity
  8
DEFPOINTS
 62
     0
370
    30
100
AcDbPoint
 10
505.0729726427503
 20
-1937.071362882769
 30
0.0
  0
POINT
  5
25378
330
23F5C
100
AcDbEntity
  8
DEFPOINTS
 62
     0
370
    30
100
AcDbPoint
 10
463.3212781866896
 20
-1929.571362882768
 30
0.0
  0
POINT
  5
25379
330
23F5C
100
AcDbEntity
  8
DEFPOINTS
 62
     0
370
    30
100
AcDbPoint
 10
438.9636442285591
 20
-1929.571362882768
 30
0.0
  0
ENDBLK
  5
23F68
330
23F5C
100
AcDbEntity
  8
0
370
    50
100
AcDbBlockEnd
  0
BLOCK
  5
23F74
330
23F69
100
AcDbEntity
  8
0
370
    50
100
AcDbBlockBegin
  2
*D24
 70
     1
 10
0.0
 20
0.0
 30
0.0
  3
*D24
  1

  0
LINE
  5
2537A
330
23F69
100
AcDbEntity
  8
文字
 62
     4
370
    13
100
AcDbLine
 10
503.4729726427503
 20
-2002.071362882769
 30
0.0
 11
438.6036442285591
 21
-2002.071362882769
 31
0.0
  0
LINE
  5
2537B
330
23F69
100
AcDbEntity
  8
文字
 62
     4
370
    13
100
AcDbLine
 10
461.7212781866895
 20
-2009.571362882769
 30
0.0
 11
438.6036442285591
 21
-2009.571362882769
 31
0.0
  0
LINE
  5
2537C
330
23F69
100
AcDbEntity
  8
文字
 62
     4
370
    13
100
AcDbLine
 10
438.9636442285591
 20
-1997.071362882769
 30
0.0
 11
438.9636442285591
 21
-1992.071362882769
 31
0.0
  0
LINE
  5
2537D
330
23F69
100
AcDbEntity
  8
文字
 62
     4
370
    13
100
AcDbLine
 10
438.9636442285591
 20
-2014.571362882769
 30
0.0
 11
438.9636442285591
 21
-2046.314220025626
 31
0.0
  0
INSERT
  5
2537E
330
23F69
100
AcDbEntity
  8
文字
 62
     4
370
    13
100
AcDbBlockReference
  2
_Open30
 10
438.9636442285591
 20
-2002.071362882769
 30
0.0
 41
5.0
 42
5.0
 43
5.0
 50
270.0
  0
INSERT
  5
2537F
330
23F69
100
AcDbEntity
  8
文字
 62
     4
370
    13
100
AcDbBlockReference
  2
_Open30
 10
438.9636442285591
 20
-2009.571362882769
 30
0.0
 41
5.0
 42
5.0
 43
5.0
 50
90.0
  0
MTEXT
  5
25380
330
23F69
100
AcDbEntity
  8
文字
370
    13
100
AcDbMText
 10
434.9636442285595
 20
-2032.942791454197
 30
0.0
 40
6.0
 41
0.0
 71
     5
 72
     1
  1
\A1;（7.5）
  7
まこ
 11
0.0000000000000001
 21
1.0
 31
0.0
 73
     1
 44
1.0
  0
POINT
  5
25381
330
23F69
100
AcDbEntity
  8
DEFPOINTS
 62
     0
370
    30
100
AcDbPoint
 10
505.0729726427503
 20
-2002.071362882769
 30
0.0
  0
POINT
  5
25382
330
23F69
100
AcDbEntity
  8
DEFPOINTS
 62
     0
370
    30
100
AcDbPoint
 10
463.3212781866896
 20
-2009.571362882769
 30
0.0
  0
POINT
  5
25383
330
23F69
100
AcDbEntity
  8
DEFPOINTS
 62
     0
370
    30
100
AcDbPoint
 10
438.9636442285591
 20
-2009.571362882769
 30
0.0
  0
ENDBLK
  5
23F75
330
23F69
100
AcDbEntity
  8
0
370
    50
100
AcDbBlockEnd
  0
BLOCK
  5
23F80
330
23F76
100
AcDbEntity
  8
0
370
    50
100
AcDbBlockBegin
  2
*D25
 70
     1
 10
0.0
 20
0.0
 30
0.0
  3
*D25
  1

  0
LINE
  5
2535B
330
23F76
100
AcDbEntity
  8
文字
 62
     4
370
    13
100
AcDbLine
 10
461.7212781866896
 20
-1929.571362882768
 30
0.0
 11
428.352871411928
 21
-1929.571362882768
 31
0.0
  0
LINE
  5
2535C
330
23F76
100
AcDbEntity
  8
文字
 62
     4
370
    13
100
AcDbLine
 10
461.7212781866895
 20
-2009.571362882769
 30
0.0
 11
428.352871411928
 21
-2009.571362882769
 31
0.0
  0
LINE
  5
2535D
330
23F76
100
AcDbEntity
  8
文字
 62
     4
370
    13
100
AcDbLine
 10
428.7128714119281
 20
-1934.571362882769
 30
0.0
 11
428.7128714119281
 21
-2004.571362882769
 31
0.0
  0
INSERT
  5
2535E
330
23F76
100
AcDbEntity
  8
文字
 62
     4
370
    13
100
AcDbBlockReference
  2
_Open30
 10
428.7128714119281
 20
-1929.571362882768
 30
0.0
 41
5.0
 42
5.0
 43
5.0
 50
90.0
  0
INSERT
  5
2535F
330
23F76
100
AcDbEntity
  8
文字
 62
     4
370
    13
100
AcDbBlockReference
  2
_Open30
 10
428.7128714119281
 20
-2009.571362882769
 30
0.0
 41
5.0
 42
5.0
 43
5.0
 50
270.0
  0
MTEXT
  5
25360
330
23F76
100
AcDbEntity
  8
文字
370
    13
100
AcDbMText
 10
424.7128714119283
 20
-1969.571362882769
 30
0.0
 40
6.0
 41
0.0
 71
     5
 72
     1
  1
\A1;80
  7
まこ
 11
0.0000000000000001
 21
1.0
 31
0.0
 73
     1
 44
1.0
  0
POINT
  5
25361
330
23F76
100
AcDbEntity
  8
DEFPOINTS
 62
     0
370
    30
100
AcDbPoint
 10
463.3212781866896
 20
-1929.571362882768
 30
0.0
  0
POINT
  5
25362
330
23F76
100
AcDbEntity
  8
DEFPOINTS
 62
     0
370
    30
100
AcDbPoint
 10
463.3212781866896
 20
-2009.571362882769
 30
0.0
  0
POINT
  5
25363
330
23F76
100
AcDbEntity
  8
DEFPOINTS
 62
     0
370
    30
100
AcDbPoint
 10
428.7128714119281
 20
-2009.571362882769
 30
0.0
  0
ENDBLK
  5
23F81
330
23F76
100
AcDbEntity
  8
0
370
    50
100
AcDbBlockEnd
  0
BLOCK
  5
23F8C
330
23F82
100
AcDbEntity
  8
0
370
    50
100
AcDbBlockBegin
  2
*D26
 70
     1
 10
0.0
 20
0.0
 30
0.0
  3
*D26
  1

  0
LINE
  5
25275
330
23F82
100
AcDbEntity
  8
文字
 62
     4
370
    13
100
AcDbLine
 10
463.3212781866896
 20
-2011.157380196948
 30
0.0
 11
463.3212781866896
 21
-2040.498135824629
 31
0.0
  0
LINE
  5
25276
330
23F82
100
AcDbEntity
  8
文字
 62
     4
370
    13
100
AcDbLine
 10
509.3212781866896
 20
-2007.337467827907
 30
0.0
 11
509.3212781866896
 21
-2040.498135824629
 31
0.0
  0
LINE
  5
25277
330
23F82
100
AcDbEntity
  8
文字
 62
     4
370
    13
100
AcDbLine
 10
468.3212781866895
 20
-2040.138135824629
 30
0.0
 11
504.3212781866897
 21
-2040.138135824629
 31
0.0
  0
INSERT
  5
25278
330
23F82
100
AcDbEntity
  8
文字
 62
     4
370
    13
100
AcDbBlockReference
  2
_Open30
 10
463.3212781866896
 20
-2040.138135824629
 30
0.0
 41
5.0
 42
5.0
 43
5.0
 50
180.0
  0
INSERT
  5
25279
330
23F82
100
AcDbEntity
  8
文字
 62
     4
370
    13
100
AcDbBlockReference
  2
_Open30
 10
509.3212781866896
 20
-2040.138135824629
 30
0.0
 41
5.0
 42
5.0
 43
5.0
  0
MTEXT
  5
2527A
330
23F82
100
AcDbEntity
  8
文字
370
    13
100
AcDbMText
 10
486.3212781866896
 20
-2036.138135824629
 30
0.0
 40
6.0
 41
0.0
 71
     5
 72
     1
  1
\A1;46
  7
まこ
 73
     1
 44
1.0
  0
POINT
  5
2527B
330
23F82
100
AcDbEntity
  8
DEFPOINTS
 62
     0
370
    30
100
AcDbPoint
 10
463.3212781866896
 20
-2009.557380196949
 30
0.0
  0
POINT
  5
2527C
330
23F82
100
AcDbEntity
  8
DEFPOINTS
 62
     0
370
    30
100
AcDbPoint
 10
509.3212781866896
 20
-2005.737467827907
 30
0.0
  0
POINT
  5
2527D
330
23F82
100
AcDbEntity
  8
DEFPOINTS
 62
     0
370
    30
100
AcDbPoint
 10
509.3212781866896
 20
-2040.138135824629
 30
0.0
  0
ENDBLK
  5
23F8D
330
23F82
100
AcDbEntity
  8
0
370
    50
100
AcDbBlockEnd
  0
BLOCK
  5
23FA4
330
23F9A
100
AcDbEntity
  8
0
370
    50
100
AcDbBlockBegin
  2
*D27
 70
     1
 10
0.0
 20
0.0
 30
0.0
  3
*D27
  1

  0
LINE
  5
2527E
330
23F9A
100
AcDbEntity
  8
文字
 62
     4
370
    13
100
AcDbLine
 10
509.3212781866896
 20
-2007.337467827907
 30
0.0
 11
509.3212781866896
 21
-2040.49813582463
 31
0.0
  0
LINE
  5
2527F
330
23F9A
100
AcDbEntity
  8
文字
 62
     4
370
    13
100
AcDbLine
 10
765.3212781866896
 20
-2007.269204186346
 30
0.0
 11
765.3212781866896
 21
-2040.49813582463
 31
0.0
  0
LINE
  5
25280
330
23F9A
100
AcDbEntity
  8
文字
 62
     4
370
    13
100
AcDbLine
 10
514.3212781866895
 20
-2040.138135824629
 30
0.0
 11
760.3212781866895
 21
-2040.138135824629
 31
0.0
  0
INSERT
  5
25281
330
23F9A
100
AcDbEntity
  8
文字
 62
     4
370
    13
100
AcDbBlockReference
  2
_Open30
 10
509.3212781866896
 20
-2040.138135824629
 30
0.0
 41
5.0
 42
5.0
 43
5.0
 50
180.0
  0
INSERT
  5
25282
330
23F9A
100
AcDbEntity
  8
文字
 62
     4
370
    13
100
AcDbBlockReference
  2
_Open30
 10
765.3212781866896
 20
-2040.138135824629
 30
0.0
 41
5.0
 42
5.0
 43
5.0
  0
MTEXT
  5
25283
330
23F9A
100
AcDbEntity
  8
文字
370
    13
100
AcDbMText
 10
637.3212781866896
 20
-2036.138135824629
 30
0.0
 40
6.0
 41
0.0
 71
     5
 72
     1
  1
\A1;4xP64=256
  7
まこ
 73
     1
 44
1.0
  0
POINT
  5
25284
330
23F9A
100
AcDbEntity
  8
DEFPOINTS
 62
     0
370
    30
100
AcDbPoint
 10
509.3212781866896
 20
-2005.737467827907
 30
0.0
  0
POINT
  5
25285
330
23F9A
100
AcDbEntity
  8
DEFPOINTS
 62
     0
370
    30
100
AcDbPoint
 10
765.3212781866896
 20
-2005.669204186346
 30
0.0
  0
POINT
  5
25286
330
23F9A
100
AcDbEntity
  8
DEFPOINTS
 62
     0
370
    30
100
AcDbPoint
 10
765.3212781866896
 20
-2040.138135824629
 30
0.0
  0
ENDBLK
  5
23FA5
330
23F9A
100
AcDbEntity
  8
0
370
    50
100
AcDbBlockEnd
  0
BLOCK
  5
23FB0
330
23FA6
100
AcDbEntity
  8
0
370
    50
100
AcDbBlockBegin
  2
*D28
 70
     1
 10
0.0
 20
0.0
 30
0.0
  3
*D28
  1

  0
LINE
  5
25287
330
23FA6
100
AcDbEntity
  8
文字
 62
     4
370
    13
100
AcDbLine
 10
765.3212781866896
 20
-2007.269204186346
 30
0.0
 11
765.3212781866896
 21
-2040.49813582463
 31
0.0
  0
LINE
  5
25288
330
23FA6
100
AcDbEntity
  8
文字
 62
     4
370
    13
100
AcDbLine
 10
811.3212781866895
 20
-2011.157380196949
 30
0.0
 11
811.3212781866895
 21
-2040.49813582463
 31
0.0
  0
LINE
  5
25289
330
23FA6
100
AcDbEntity
  8
文字
 62
     4
370
    13
100
AcDbLine
 10
770.3212781866896
 20
-2040.138135824629
 30
0.0
 11
806.3212781866896
 21
-2040.138135824629
 31
0.0
  0
INSERT
  5
2528A
330
23FA6
100
AcDbEntity
  8
文字
 62
     4
370
    13
100
AcDbBlockReference
  2
_Open30
 10
765.3212781866896
 20
-2040.138135824629
 30
0.0
 41
5.0
 42
5.0
 43
5.0
 50
180.0
  0
INSERT
  5
2528B
330
23FA6
100
AcDbEntity
  8
文字
 62
     4
370
    13
100
AcDbBlockReference
  2
_Open30
 10
811.3212781866895
 20
-2040.138135824629
 30
0.0
 41
5.0
 42
5.0
 43
5.0
  0
MTEXT
  5
2528C
330
23FA6
100
AcDbEntity
  8
文字
370
    13
100
AcDbMText
 10
788.3212781866896
 20
-2036.138135824629
 30
0.0
 40
6.0
 41
0.0
 71
     5
 72
     1
  1
\A1;（46）
  7
まこ
 73
     1
 44
1.0
  0
POINT
  5
2528D
330
23FA6
100
AcDbEntity
  8
DEFPOINTS
 62
     0
370
    30
100
AcDbPoint
 10
765.3212781866896
 20
-2005.669204186346
 30
0.0
  0
POINT
  5
2528E
330
23FA6
100
AcDbEntity
  8
DEFPOINTS
 62
     0
370
    30
100
AcDbPoint
 10
811.3212781866895
 20
-2009.557380196949
 30
0.0
  0
POINT
  5
2528F
330
23FA6
100
AcDbEntity
  8
DEFPOINTS
 62
     0
370
    30
100
AcDbPoint
 10
811.3212781866895
 20
-2040.138135824629
 30
0.0
  0
ENDBLK
  5
23FB1
330
23FA6
100
AcDbEntity
  8
0
370
    50
100
AcDbBlockEnd
  0
BLOCK
  5
23FBC
330
23FB2
100
AcDbEntity
  8
0
370
    50
100
AcDbBlockBegin
  2
*D29
 70
     1
 10
0.0
 20
0.0
 30
0.0
  3
*D29
  1

  0
LINE
  5
25290
330
23FB2
100
AcDbEntity
  8
文字
 62
     4
370
    13
100
AcDbLine
 10
463.3212781866896
 20
-2011.157380196948
 30
0.0
 11
463.3212781866896
 21
-2051.133897808044
 31
0.0
  0
LINE
  5
25291
330
23FB2
100
AcDbEntity
  8
文字
 62
     4
370
    13
100
AcDbLine
 10
811.3212781866895
 20
-2011.157380196949
 30
0.0
 11
811.3212781866895
 21
-2051.133897808044
 31
0.0
  0
LINE
  5
25292
330
23FB2
100
AcDbEntity
  8
文字
 62
     4
370
    13
100
AcDbLine
 10
468.3212781866895
 20
-2050.773897808044
 30
0.0
 11
806.3212781866896
 21
-2050.773897808044
 31
0.0
  0
INSERT
  5
25293
330
23FB2
100
AcDbEntity
  8
文字
 62
     4
370
    13
100
AcDbBlockReference
  2
_Open30
 10
463.3212781866896
 20
-2050.773897808044
 30
0.0
 41
5.0
 42
5.0
 43
5.0
 50
180.0
  0
INSERT
  5
25294
330
23FB2
100
AcDbEntity
  8
文字
 62
     4
370
    13
100
AcDbBlockReference
  2
_Open30
 10
811.3212781866895
 20
-2050.773897808044
 30
0.0
 41
5.0
 42
5.0
 43
5.0
  0
MTEXT
  5
25295
330
23FB2
100
AcDbEntity
  8
文字
370
    13
100
AcDbMText
 10
637.3212781866896
 20
-2046.773897808044
 30
0.0
 40
6.0
 41
0.0
 71
     5
 72
     1
  1
\A1;348
  7
まこ
 73
     1
 44
1.0
  0
POINT
  5
25296
330
23FB2
100
AcDbEntity
  8
DEFPOINTS
 62
     0
370
    30
100
AcDbPoint
 10
463.3212781866896
 20
-2009.557380196949
 30
0.0
  0
POINT
  5
25297
330
23FB2
100
AcDbEntity
  8
DEFPOINTS
 62
     0
370
    30
100
AcDbPoint
 10
811.3212781866895
 20
-2009.557380196949
 30
0.0
  0
POINT
  5
25298
330
23FB2
100
AcDbEntity
  8
DEFPOINTS
 62
     0
370
    30
100
AcDbPoint
 10
811.3212781866895
 20
-2050.773897808044
 30
0.0
  0
ENDBLK
  5
23FBD
330
23FB2
100
AcDbEntity
  8
0
370
    50
100
AcDbBlockEnd
  0
BLOCK
  5
23FC8
330
23FBE
100
AcDbEntity
  8
0
370
    50
100
AcDbBlockBegin
  2
*D30
 70
     1
 10
0.0
 20
0.0
 30
0.0
  3
*D30
  1

  0
LINE
  5
25CAE
330
23FBE
100
AcDbEntity
  8
文字
 62
     4
370
    13
100
AcDbLine
 10
811.3212781866895
 20
-2011.157380196949
 30
0.0
 11
811.3212781866895
 21
-2051.133897808044
 31
0.0
  0
LINE
  5
25CAF
330
23FBE
100
AcDbEntity
  8
文字
 62
     4
370
    13
100
AcDbLine
 10
879.5154869656794
 20
-2013.539397173031
 30
0.0
 11
879.5154869656794
 21
-2051.133897808044
 31
0.0
  0
LINE
  5
25CB0
330
23FBE
100
AcDbEntity
  8
文字
 62
     4
370
    13
100
AcDbLine
 10
816.3212781866896
 20
-2050.773897808044
 30
0.0
 11
874.5154869656794
 21
-2050.773897808044
 31
0.0
  0
INSERT
  5
25CB1
330
23FBE
100
AcDbEntity
  8
文字
 62
     4
370
    13
100
AcDbBlockReference
  2
_Open30
 10
811.3212781866895
 20
-2050.773897808044
 30
0.0
 41
5.0
 42
5.0
 43
5.0
 50
180.0
  0
INSERT
  5
25CB2
330
23FBE
100
AcDbEntity
  8
文字
 62
     4
370
    13
100
AcDbBlockReference
  2
_Open30
 10
879.5154869656794
 20
-2050.773897808044
 30
0.0
 41
5.0
 42
5.0
 43
5.0
  0
MTEXT
  5
25CB3
330
23FBE
100
AcDbEntity
  8
文字
370
    13
100
AcDbMText
 10
845.4183825761845
 20
-2046.773897808044
 30
0.0
 40
6.0
 41
0.0
 71
     5
 72
     1
  1
\A1;（200）
  7
まこ
 73
     1
 44
1.0
  0
POINT
  5
25CB4
330
23FBE
100
AcDbEntity
  8
DEFPOINTS
 62
     0
100
AcDbPoint
 10
811.3212781866895
 20
-2009.557380196949
 30
0.0
  0
POINT
  5
25CB5
330
23FBE
100
AcDbEntity
  8
DEFPOINTS
 62
     0
100
AcDbPoint
 10
879.5154869656794
 20
-2011.939397173031
 30
0.0
  0
POINT
  5
25CB6
330
23FBE
100
AcDbEntity
  8
DEFPOINTS
 62
     0
100
AcDbPoint
 10
879.5154869656794
 20
-2050.773897808044
 30
0.0
  0
ENDBLK
  5
23FC9
330
23FBE
100
AcDbEntity
  8
0
370
    50
100
AcDbBlockEnd
  0
BLOCK
  5
2594B
330
25940
100
AcDbEntity
  8
0
370
    30
100
AcDbBlockBegin
  2
*D57
 70
     1
 10
0.0
 20
0.0
 30
0.0
  3
*D57
  1

  0
LINE
  5
259D5
330
25940
100
AcDbEntity
  8
0
 62
     4
370
    13
100
AcDbLine
 10
947.4202641403728
 20
-2011.171362882768
 30
0.0
 11
947.4202641403728
 21
-2045.272599500099
 31
0.0
  0
LINE
  5
259D6
330
25940
100
AcDbEntity
  8
0
 62
     4
370
    13
100
AcDbLine
 10
955.4202641403728
 20
-1999.248257177123
 30
0.0
 11
955.4202641403728
 21
-2045.272599500099
 31
0.0
  0
LINE
  5
259D7
330
25940
100
AcDbEntity
  8
0
 62
     4
370
    13
100
AcDbLine
 10
942.4202641403727
 20
-2044.912599500098
 30
0.0
 11
937.4202641403726
 21
-2044.912599500098
 31
0.0
  0
LINE
  5
259D8
330
25940
100
AcDbEntity
  8
0
 62
     4
370
    13
100
AcDbLine
 10
960.4202641403727
 20
-2044.912599500098
 30
0.0
 11
965.4202641403728
 21
-2044.912599500098
 31
0.0
  0
INSERT
  5
259D9
330
25940
100
AcDbEntity
  8
0
 62
     4
370
    13
100
AcDbBlockReference
  2
_Open30
 10
947.4202641403728
 20
-2044.912599500098
 30
0.0
 41
5.0
 42
5.0
 43
5.0
  0
INSERT
  5
259DA
330
25940
100
AcDbEntity
  8
0
 62
     4
370
    13
100
AcDbBlockReference
  2
_Open30
 10
955.4202641403728
 20
-2044.912599500098
 30
0.0
 41
5.0
 42
5.0
 43
5.0
 50
180.0
  0
MTEXT
  5
259DB
330
25940
100
AcDbEntity
  8
0
370
    13
100
AcDbMText
 10
951.4202641403727
 20
-2040.912599500098
 30
0.0
 40
6.0
 41
0.0
 71
     5
 72
     1
  1
\A1;8
  7
まこ
 73
     1
 44
1.0
  0
POINT
  5
259DC
330
25940
100
AcDbEntity
  8
DEFPOINTS
 62
     0
370
    30
100
AcDbPoint
 10
947.4202641403728
 20
-2009.571362882768
 30
0.0
  0
POINT
  5
259DD
330
25940
100
AcDbEntity
  8
DEFPOINTS
 62
     0
370
    30
100
AcDbPoint
 10
955.4202641403728
 20
-1997.648257177123
 30
0.0
  0
POINT
  5
259DE
330
25940
100
AcDbEntity
  8
DEFPOINTS
 62
     0
370
    30
100
AcDbPoint
 10
955.4202641403728
 20
-2044.912599500098
 30
0.0
  0
ENDBLK
  5
2594C
330
25940
100
AcDbEntity
  8
0
370
    30
100
AcDbBlockEnd
  0
BLOCK
  5
25958
330
2594D
100
AcDbEntity
  8
0
370
    30
100
AcDbBlockBegin
  2
*D58
 70
     1
 10
0.0
 20
0.0
 30
0.0
  3
*D58
  1

  0
LINE
  5
25B39
330
2594D
100
AcDbEntity
  8
文字
 62
     4
370
    13
100
AcDbLine
 10
947.4202641403728
 20
-1927.971406747023
 30
0.0
 11
947.4202641403728
 21
-1867.016641522335
 31
0.0
  0
LINE
  5
25B3A
330
2594D
100
AcDbEntity
  8
文字
 62
     4
370
    13
100
AcDbLine
 10
1001.420264140372
 20
-1927.971406747023
 30
0.0
 11
1001.420264140372
 21
-1867.016641522335
 31
0.0
  0
LINE
  5
25B3B
330
2594D
100
AcDbEntity
  8
文字
 62
     4
370
    13
100
AcDbLine
 10
952.4202641403727
 20
-1867.376641522335
 30
0.0
 11
996.4202641403728
 21
-1867.376641522335
 31
0.0
  0
INSERT
  5
25B3C
330
2594D
100
AcDbEntity
  8
文字
 62
     4
370
    13
100
AcDbBlockReference
  2
_Open30
 10
947.4202641403728
 20
-1867.376641522335
 30
0.0
 41
5.0
 42
5.0
 43
5.0
 50
180.0
  0
INSERT
  5
25B3D
330
2594D
100
AcDbEntity
  8
文字
 62
     4
370
    13
100
AcDbBlockReference
  2
_Open30
 10
1001.420264140372
 20
-1867.376641522335
 30
0.0
 41
5.0
 42
5.0
 43
5.0
  0
MTEXT
  5
25B3E
330
2594D
100
AcDbEntity
  8
文字
370
    13
100
AcDbMText
 10
974.4202641403727
 20
-1863.376641522334
 30
0.0
 40
6.0
 41
0.0
 71
     5
 72
     1
  1
\A1;54（取付寸法）
  7
まこ
 73
     1
 44
1.0
  0
POINT
  5
25B3F
330
2594D
100
AcDbEntity
  8
DEFPOINTS
 62
     0
370
    30
100
AcDbPoint
 10
947.4202641403728
 20
-1929.571406747023
 30
0.0
  0
POINT
  5
25B40
330
2594D
100
AcDbEntity
  8
DEFPOINTS
 62
     0
370
    30
100
AcDbPoint
 10
1001.420264140372
 20
-1929.571406747023
 30
0.0
  0
POINT
  5
25B41
330
2594D
100
AcDbEntity
  8
DEFPOINTS
 62
     0
370
    30
100
AcDbPoint
 10
1001.420264140372
 20
-1867.376641522335
 30
0.0
  0
ENDBLK
  5
25959
330
2594D
100
AcDbEntity
  8
0
370
    30
100
AcDbBlockEnd
  0
BLOCK
  5
25964
330
2595A
100
AcDbEntity
  8
0
370
    30
100
AcDbBlockBegin
  2
*D59
 70
     1
 10
0.0
 20
0.0
 30
0.0
  3
*D59
  1

  0
LINE
  5
259E9
330
2595A
100
AcDbEntity
  8
文字
 62
     4
370
    13
100
AcDbLine
 10
947.4202641403728
 20
-1927.971406747023
 30
0.0
 11
947.4202641403728
 21
-1893.200757503225
 31
0.0
  0
LINE
  5
259EA
330
2595A
100
AcDbEntity
  8
文字
 62
     4
370
    13
100
AcDbLine
 10
987.4202641403726
 20
-1927.971406747023
 30
0.0
 11
987.4202641403726
 21
-1893.200757503225
 31
0.0
  0
LINE
  5
259EB
330
2595A
100
AcDbEntity
  8
文字
 62
     4
370
    13
100
AcDbLine
 10
952.4202641403727
 20
-1893.560757503226
 30
0.0
 11
982.4202641403728
 21
-1893.560757503226
 31
0.0
  0
INSERT
  5
259EC
330
2595A
100
AcDbEntity
  8
文字
 62
     4
370
    13
100
AcDbBlockReference
  2
_Open30
 10
947.4202641403728
 20
-1893.560757503226
 30
0.0
 41
5.0
 42
5.0
 43
5.0
 50
180.0
  0
INSERT
  5
259ED
330
2595A
100
AcDbEntity
  8
文字
 62
     4
370
    13
100
AcDbBlockReference
  2
_Open30
 10
987.4202641403726
 20
-1893.560757503226
 30
0.0
 41
5.0
 42
5.0
 43
5.0
  0
MTEXT
  5
259EE
330
2595A
100
AcDbEntity
  8
文字
370
    13
100
AcDbMText
 10
967.4202641403727
 20
-1889.560757503225
 30
0.0
 40
6.0
 41
0.0
 71
     5
 72
     1
  1
\A1;40
  7
まこ
 73
     1
 44
1.0
  0
POINT
  5
259EF
330
2595A
100
AcDbEntity
  8
DEFPOINTS
 62
     0
370
    30
100
AcDbPoint
 10
947.4202641403728
 20
-1929.571406747023
 30
0.0
  0
POINT
  5
259F0
330
2595A
100
AcDbEntity
  8
DEFPOINTS
 62
     0
370
    30
100
AcDbPoint
 10
987.4202641403726
 20
-1929.571406747023
 30
0.0
  0
POINT
  5
259F1
330
2595A
100
AcDbEntity
  8
DEFPOINTS
 62
     0
370
    30
100
AcDbPoint
 10
987.4202641403726
 20
-1893.560757503226
 30
0.0
  0
ENDBLK
  5
25965
330
2595A
100
AcDbEntity
  8
0
370
    30
100
AcDbBlockEnd
  0
BLOCK
  5
25971
330
25966
100
AcDbEntity
  8
0
370
    30
100
AcDbBlockBegin
  2
*D60
 70
     1
 10
0.0
 20
0.0
 30
0.0
  3
*D60
  1

  0
LINE
  5
259F2
330
25966
100
AcDbEntity
  8
文字
 62
     4
370
    13
100
AcDbLine
 10
947.4202641403726
 20
-1949.182608025075
 30
0.0
 11
947.4202641403726
 21
-1961.006859127236
 31
0.0
  0
LINE
  5
259F3
330
25966
100
AcDbEntity
  8
文字
 62
     4
370
    13
100
AcDbLine
 10
947.9202641403727
 20
-1949.182608025075
 30
0.0
 11
947.9202641403727
 21
-1961.006859127236
 31
0.0
  0
LINE
  5
259F4
330
25966
100
AcDbEntity
  8
文字
 62
     4
370
    13
100
AcDbLine
 10
952.9202641403728
 20
-1960.646859127236
 30
0.0
 11
957.9202641403727
 21
-1960.646859127236
 31
0.0
  0
LINE
  5
259F5
330
25966
100
AcDbEntity
  8
文字
 62
     4
370
    13
100
AcDbLine
 10
942.4202641403725
 20
-1960.646859127236
 30
0.0
 11
922.8488355689441
 21
-1960.646859127236
 31
0.0
  0
INSERT
  5
259F6
330
25966
100
AcDbEntity
  8
文字
 62
     4
370
    13
100
AcDbBlockReference
  2
_Open30
 10
947.9202641403727
 20
-1960.646859127236
 30
0.0
 41
5.0
 42
5.0
 43
5.0
 50
180.0
  0
INSERT
  5
259F7
330
25966
100
AcDbEntity
  8
文字
 62
     4
370
    13
100
AcDbBlockReference
  2
_Open30
 10
947.4202641403726
 20
-1960.646859127236
 30
0.0
 41
5.0
 42
5.0
 43
5.0
  0
MTEXT
  5
259F8
330
25966
100
AcDbEntity
  8
文字
370
    13
100
AcDbMText
 10
930.1345498546583
 20
-1956.646859127237
 30
0.0
 40
6.0
 41
0.0
 71
     5
 72
     1
  1
\A1;0.5
  7
まこ
 73
     1
 44
1.0
  0
POINT
  5
259F9
330
25966
100
AcDbEntity
  8
DEFPOINTS
 62
     0
370
    30
100
AcDbPoint
 10
947.4202641403726
 20
-1947.582608025075
 30
0.0
  0
POINT
  5
259FA
330
25966
100
AcDbEntity
  8
DEFPOINTS
 62
     0
370
    30
100
AcDbPoint
 10
947.9202641403727
 20
-1947.582608025075
 30
0.0
  0
POINT
  5
259FB
330
25966
100
AcDbEntity
  8
DEFPOINTS
 62
     0
370
    30
100
AcDbPoint
 10
947.9202641403727
 20
-1960.646859127236
 30
0.0
  0
ENDBLK
  5
25972
330
25966
100
AcDbEntity
  8
0
370
    30
100
AcDbBlockEnd
  0
BLOCK
  5
2597D
330
25973
100
AcDbEntity
  8
0
370
    30
100
AcDbBlockBegin
  2
*D61
 70
     1
 10
0.0
 20
0.0
 30
0.0
  3
*D61
  1

  0
LINE
  5
259FC
330
25973
100
AcDbEntity
  8
文字
 62
     4
370
    13
100
AcDbLine
 10
945.8202641403728
 20
-1929.571362882768
 30
0.0
 11
919.7756786758862
 21
-1929.571362882768
 31
0.0
  0
LINE
  5
259FD
330
25973
100
AcDbEntity
  8
文字
 62
     4
370
    13
100
AcDbLine
 10
945.8202553558466
 20
-1947.571362882768
 30
0.0
 11
919.7756786758862
 21
-1947.571362882768
 31
0.0
  0
LINE
  5
259FE
330
25973
100
AcDbEntity
  8
文字
 62
     4
370
    13
100
AcDbLine
 10
920.1356786758863
 20
-1934.571362882769
 30
0.0
 11
920.1356786758863
 21
-1942.571362882769
 31
0.0
  0
INSERT
  5
259FF
330
25973
100
AcDbEntity
  8
文字
 62
     4
370
    13
100
AcDbBlockReference
  2
_Open30
 10
920.1356786758863
 20
-1929.571362882768
 30
0.0
 41
5.0
 42
5.0
 43
5.0
 50
90.0
  0
INSERT
  5
25A00
330
25973
100
AcDbEntity
  8
文字
 62
     4
370
    13
100
AcDbBlockReference
  2
_Open30
 10
920.1356786758863
 20
-1947.571362882768
 30
0.0
 41
5.0
 42
5.0
 43
5.0
 50
270.0
  0
MTEXT
  5
25A01
330
25973
100
AcDbEntity
  8
文字
370
    13
100
AcDbMText
 10
916.1356786758867
 20
-1938.571362882768
 30
0.0
 40
6.0
 41
0.0
 71
     5
 72
     1
  1
\A1;（18）
  7
まこ
 11
0.0000000000000001
 21
1.0
 31
0.0
 73
     1
 44
1.0
  0
POINT
  5
25A02
330
25973
100
AcDbEntity
  8
DEFPOINTS
 62
     0
370
    30
100
AcDbPoint
 10
947.4202641403728
 20
-1929.571362882768
 30
0.0
  0
POINT
  5
25A03
330
25973
100
AcDbEntity
  8
DEFPOINTS
 62
     0
370
    30
100
AcDbPoint
 10
947.4202553558468
 20
-1947.571362882768
 30
0.0
  0
POINT
  5
25A04
330
25973
100
AcDbEntity
  8
DEFPOINTS
 62
     0
370
    30
100
AcDbPoint
 10
920.1356786758863
 20
-1947.571362882768
 30
0.0
  0
ENDBLK
  5
2597E
330
25973
100
AcDbEntity
  8
0
370
    30
100
AcDbBlockEnd
  0
BLOCK
  5
25989
330
2597F
100
AcDbEntity
  8
0
370
    30
100
AcDbBlockBegin
  2
*D62
 70
     1
 10
0.0
 20
0.0
 30
0.0
  3
*D62
  1

  0
LINE
  5
25A05
330
2597F
100
AcDbEntity
  8
文字
 62
     4
370
    13
100
AcDbLine
 10
945.8202553558466
 20
-1991.571362882768
 30
0.0
 11
919.7756786758862
 21
-1991.571362882768
 31
0.0
  0
LINE
  5
25A06
330
2597F
100
AcDbEntity
  8
文字
 62
     4
370
    13
100
AcDbLine
 10
945.8202553558466
 20
-2009.571362882768
 30
0.0
 11
919.7756786758862
 21
-2009.571362882768
 31
0.0
  0
LINE
  5
25A07
330
2597F
100
AcDbEntity
  8
文字
 62
     4
370
    13
100
AcDbLine
 10
920.1356786758863
 20
-1996.571362882768
 30
0.0
 11
920.1356786758863
 21
-2004.571362882769
 31
0.0
  0
INSERT
  5
25A08
330
2597F
100
AcDbEntity
  8
文字
 62
     4
370
    13
100
AcDbBlockReference
  2
_Open30
 10
920.1356786758863
 20
-1991.571362882768
 30
0.0
 41
5.0
 42
5.0
 43
5.0
 50
90.0
  0
INSERT
  5
25A09
330
2597F
100
AcDbEntity
  8
文字
 62
     4
370
    13
100
AcDbBlockReference
  2
_Open30
 10
920.1356786758863
 20
-2009.571362882768
 30
0.0
 41
5.0
 42
5.0
 43
5.0
 50
270.0
  0
MTEXT
  5
25A0A
330
2597F
100
AcDbEntity
  8
文字
370
    13
100
AcDbMText
 10
916.1356786758867
 20
-2000.571362882769
 30
0.0
 40
6.0
 41
0.0
 71
     5
 72
     1
  1
\A1;（18）
  7
まこ
 11
0.0000000000000001
 21
1.0
 31
0.0
 73
     1
 44
1.0
  0
POINT
  5
25A0B
330
2597F
100
AcDbEntity
  8
DEFPOINTS
 62
     0
370
    30
100
AcDbPoint
 10
947.4202553558468
 20
-1991.571362882768
 30
0.0
  0
POINT
  5
25A0C
330
2597F
100
AcDbEntity
  8
DEFPOINTS
 62
     0
370
    30
100
AcDbPoint
 10
947.4202553558468
 20
-2009.571362882768
 30
0.0
  0
POINT
  5
25A0D
330
2597F
100
AcDbEntity
  8
DEFPOINTS
 62
     0
370
    30
100
AcDbPoint
 10
920.1356786758863
 20
-2009.571362882768
 30
0.0
  0
ENDBLK
  5
2598A
330
2597F
100
AcDbEntity
  8
0
370
    30
100
AcDbBlockEnd
  0
BLOCK
  5
25995
330
2598B
100
AcDbEntity
  8
0
370
    30
100
AcDbBlockBegin
  2
*D63
 70
     1
 10
0.0
 20
0.0
 30
0.0
  3
*D63
  1

  0
LINE
  5
25A0E
330
2598B
100
AcDbEntity
  8
文字
 62
     4
370
    13
100
AcDbLine
 10
945.8202555332077
 20
-1947.571362882633
 30
0.0
 11
919.7756786758862
 21
-1947.571362882633
 31
0.0
  0
LINE
  5
25A0F
330
2598B
100
AcDbEntity
  8
文字
 62
     4
370
    13
100
AcDbLine
 10
945.8202553558466
 20
-1991.571362882768
 30
0.0
 11
919.7756786758862
 21
-1991.571362882768
 31
0.0
  0
LINE
  5
25A10
330
2598B
100
AcDbEntity
  8
文字
 62
     4
370
    13
100
AcDbLine
 10
920.1356786758863
 20
-1952.571362882633
 30
0.0
 11
920.1356786758863
 21
-1986.571362882768
 31
0.0
  0
MTEXT
  5
25A11
330
2598B
100
AcDbEntity
  8
文字
370
    13
100
AcDbMText
 10
915.0518735737019
 20
-1969.442628593649
 30
0.0
 40
6.0
 41
0.0
 71
     5
 72
     1
  1
\A1;44
  7
まこ
 11
0.0000000000000001
 21
1.0
 31
0.0
 73
     1
 44
1.0
  0
INSERT
  5
25A12
330
2598B
100
AcDbEntity
  8
文字
 62
     4
370
    13
100
AcDbBlockReference
  2
_Open30
 10
920.1356786758863
 20
-1947.571362882633
 30
0.0
 41
5.0
 42
5.0
 43
5.0
 50
90.0
  0
INSERT
  5
25A13
330
2598B
100
AcDbEntity
  8
文字
 62
     4
370
    13
100
AcDbBlockReference
  2
_Open30
 10
920.1356786758863
 20
-1991.571362882768
 30
0.0
 41
5.0
 42
5.0
 43
5.0
 50
270.0
  0
POINT
  5
25A14
330
2598B
100
AcDbEntity
  8
DEFPOINTS
 62
     0
370
    30
100
AcDbPoint
 10
947.4202555332077
 20
-1947.571362882633
 30
0.0
  0
POINT
  5
25A15
330
2598B
100
AcDbEntity
  8
DEFPOINTS
 62
     0
370
    30
100
AcDbPoint
 10
947.4202553558468
 20
-1991.571362882768
 30
0.0
  0
POINT
  5
25A16
330
2598B
100
AcDbEntity
  8
DEFPOINTS
 62
     0
370
    30
100
AcDbPoint
 10
920.1356786758863
 20
-1991.571362882768
 30
0.0
  0
ENDBLK
  5
25996
330
2598B
100
AcDbEntity
  8
0
370
    30
100
AcDbBlockEnd
  0
BLOCK
  5
259A1
330
25997
100
AcDbEntity
  8
0
370
    30
100
AcDbBlockBegin
  2
*D64
 70
     1
 10
0.0
 20
0.0
 30
0.0
  3
*D64
  1

  0
LINE
  5
25A17
330
25997
100
AcDbEntity
  8
0
 62
     4
370
    13
100
AcDbLine
 10
945.8202553558466
 20
-1992.571397511129
 30
0.0
 11
930.2004907843265
 21
-1992.571397511129
 31
0.0
  0
LINE
  5
25A18
330
25997
100
AcDbEntity
  8
0
 62
     4
370
    13
100
AcDbLine
 10
945.8202553558466
 20
-1968.571397511129
 30
0.0
 11
930.2004907843265
 21
-1968.571397511129
 31
0.0
  0
LINE
  5
25A19
330
25997
100
AcDbEntity
  8
0
 62
     4
370
    13
100
AcDbLine
 10
930.5604907843264
 20
-1987.571397511129
 30
0.0
 11
930.5604907843264
 21
-1973.571397511129
 31
0.0
  0
INSERT
  5
25A1A
330
25997
100
AcDbEntity
  8
0
 62
     4
370
    13
100
AcDbBlockReference
  2
_Open30
 10
930.5604907843264
 20
-1992.571397511129
 30
0.0
 41
5.0
 42
5.0
 43
5.0
 50
270.0
  0
INSERT
  5
25A1B
330
25997
100
AcDbEntity
  8
0
 62
     4
370
    13
100
AcDbBlockReference
  2
_Open30
 10
930.5604907843264
 20
-1968.571397511129
 30
0.0
 41
5.0
 42
5.0
 43
5.0
 50
90.0
  0
MTEXT
  5
25A1C
330
25997
100
AcDbEntity
  8
0
370
    13
100
AcDbMText
 10
926.5604907843268
 20
-1980.571397511129
 30
0.0
 40
6.0
 41
0.0
 71
     5
 72
     1
  1
\A1;24
  7
まこ
 11
0.0000000000000001
 21
1.0
 31
0.0
 73
     1
 44
1.0
  0
POINT
  5
25A1D
330
25997
100
AcDbEntity
  8
DEFPOINTS
 62
     0
370
    30
100
AcDbPoint
 10
947.4202553558468
 20
-1992.571397511129
 30
0.0
  0
POINT
  5
25A1E
330
25997
100
AcDbEntity
  8
DEFPOINTS
 62
     0
370
    30
100
AcDbPoint
 10
947.4202553558468
 20
-1968.571397511129
 30
0.0
  0
POINT
  5
25A1F
330
25997
100
AcDbEntity
  8
DEFPOINTS
 62
     0
370
    30
100
AcDbPoint
 10
930.5604907843264
 20
-1968.571397511129
 30
0.0
  0
ENDBLK
  5
259A2
330
25997
100
AcDbEntity
  8
0
370
    30
100
AcDbBlockEnd
  0
BLOCK
  5
259AD
330
259A3
100
AcDbEntity
  8
0
370
    30
100
AcDbBlockBegin
  2
*D65
 70
     1
 10
0.0
 20
0.0
 30
0.0
  3
*D65
  1

  0
LINE
  5
25A20
330
259A3
100
AcDbEntity
  8
0
 62
     4
370
    13
100
AcDbLine
 10
945.8202553558466
 20
-2009.571397511129
 30
0.0
 11
930.2004907843265
 21
-2009.571397511129
 31
0.0
  0
LINE
  5
25A21
330
259A3
100
AcDbEntity
  8
0
 62
     4
370
    13
100
AcDbLine
 10
945.8202553558466
 20
-1992.571397511129
 30
0.0
 11
930.2004907843265
 21
-1992.571397511129
 31
0.0
  0
LINE
  5
25A22
330
259A3
100
AcDbEntity
  8
0
 62
     4
370
    13
100
AcDbLine
 10
930.5604907843264
 20
-2004.571397511129
 30
0.0
 11
930.5604907843264
 21
-1997.571397511129
 31
0.0
  0
INSERT
  5
25A23
330
259A3
100
AcDbEntity
  8
0
 62
     4
370
    13
100
AcDbBlockReference
  2
_Open30
 10
930.5604907843264
 20
-2009.571397511129
 30
0.0
 41
5.0
 42
5.0
 43
5.0
 50
270.0
  0
INSERT
  5
25A24
330
259A3
100
AcDbEntity
  8
0
 62
     4
370
    13
100
AcDbBlockReference
  2
_Open30
 10
930.5604907843264
 20
-1992.571397511129
 30
0.0
 41
5.0
 42
5.0
 43
5.0
 50
90.0
  0
MTEXT
  5
25A25
330
259A3
100
AcDbEntity
  8
0
370
    13
100
AcDbMText
 10
926.5604907843268
 20
-2001.071397511128
 30
0.0
 40
6.0
 41
0.0
 71
     5
 72
     1
  1
\A1;17
  7
まこ
 11
0.0000000000000001
 21
1.0
 31
0.0
 73
     1
 44
1.0
  0
POINT
  5
25A26
330
259A3
100
AcDbEntity
  8
DEFPOINTS
 62
     0
370
    30
100
AcDbPoint
 10
947.4202553558468
 20
-2009.571397511129
 30
0.0
  0
POINT
  5
25A27
330
259A3
100
AcDbEntity
  8
DEFPOINTS
 62
     0
370
    30
100
AcDbPoint
 10
947.4202553558468
 20
-1992.571397511129
 30
0.0
  0
POINT
  5
25A28
330
259A3
100
AcDbEntity
  8
DEFPOINTS
 62
     0
370
    30
100
AcDbPoint
 10
930.5604907843264
 20
-1992.571397511129
 30
0.0
  0
ENDBLK
  5
259AE
330
259A3
100
AcDbEntity
  8
0
370
    30
100
AcDbBlockEnd
  0
BLOCK
  5
259BA
330
259AF
100
AcDbEntity
  8
0
370
    30
100
AcDbBlockBegin
  2
*D66
 70
     1
 10
0.0
 20
0.0
 30
0.0
  3
*D66
  1

  0
LINE
  5
25A6E
330
259AF
100
AcDbEntity
  8
文字
 62
     4
370
    13
100
AcDbLine
 10
993.6202641403728
 20
-1927.971406747023
 30
0.0
 11
993.6202641403728
 21
-1905.688021535481
 31
0.0
  0
LINE
  5
25A6F
330
259AF
100
AcDbEntity
  8
文字
 62
     4
370
    13
100
AcDbLine
 10
1001.420264140372
 20
-1927.971406747023
 30
0.0
 11
1001.420264140372
 21
-1905.688021535481
 31
0.0
  0
LINE
  5
25A70
330
259AF
100
AcDbEntity
  8
文字
 62
     4
370
    13
100
AcDbLine
 10
988.6202641403727
 20
-1906.048021535481
 30
0.0
 11
983.6202641403728
 21
-1906.048021535481
 31
0.0
  0
LINE
  5
25A71
330
259AF
100
AcDbEntity
  8
文字
 62
     4
370
    13
100
AcDbLine
 10
1006.420264140372
 20
-1906.048021535481
 30
0.0
 11
1025.991692711801
 21
-1906.048021535481
 31
0.0
  0
INSERT
  5
25A72
330
259AF
100
AcDbEntity
  8
文字
 62
     4
370
    13
100
AcDbBlockReference
  2
_Open30
 10
993.6202641403728
 20
-1906.048021535481
 30
0.0
 41
5.0
 42
5.0
 43
5.0
  0
INSERT
  5
25A73
330
259AF
100
AcDbEntity
  8
文字
 62
     4
370
    13
100
AcDbBlockReference
  2
_Open30
 10
1001.420264140372
 20
-1906.048021535481
 30
0.0
 41
5.0
 42
5.0
 43
5.0
 50
180.0
  0
MTEXT
  5
25A74
330
259AF
100
AcDbEntity
  8
文字
370
    13
100
AcDbMText
 10
1018.705978426087
 20
-1902.048021535481
 30
0.0
 40
6.0
 41
0.0
 71
     5
 72
     1
  1
\A1;7.8
  7
まこ
 73
     1
 44
1.0
  0
POINT
  5
25A75
330
259AF
100
AcDbEntity
  8
DEFPOINTS
 62
     0
370
    30
100
AcDbPoint
 10
993.6202641403728
 20
-1929.571406747023
 30
0.0
  0
POINT
  5
25A76
330
259AF
100
AcDbEntity
  8
DEFPOINTS
 62
     0
370
    30
100
AcDbPoint
 10
1001.420264140372
 20
-1929.571406747023
 30
0.0
  0
POINT
  5
25A77
330
259AF
100
AcDbEntity
  8
DEFPOINTS
 62
     0
370
    30
100
AcDbPoint
 10
1001.420264140372
 20
-1906.048021535481
 30
0.0
  0
ENDBLK
  5
259BB
330
259AF
100
AcDbEntity
  8
0
370
    30
100
AcDbBlockEnd
  0
BLOCK
  5
259C7
330
259BC
100
AcDbEntity
  8
0
370
    30
100
AcDbBlockBegin
  2
*D67
 70
     1
 10
0.0
 20
0.0
 30
0.0
  3
*D67
  1

  0
LINE
  5
25C16
330
259BC
100
AcDbEntity
  8
文字
 62
     4
370
    13
100
AcDbLine
 10
987.4202641403726
 20
-1927.971406747023
 30
0.0
 11
987.4202641403726
 21
-1893.200757503225
 31
0.0
  0
LINE
  5
25C17
330
259BC
100
AcDbEntity
  8
文字
 62
     4
370
    13
100
AcDbLine
 10
988.6202641403727
 20
-1942.996451924673
 30
0.0
 11
988.6202641403727
 21
-1893.200757503225
 31
0.0
  0
LINE
  5
25C18
330
259BC
100
AcDbEntity
  8
文字
 62
     4
370
    13
100
AcDbLine
 10
982.4202641403728
 20
-1893.560757503226
 30
0.0
 11
977.4202641403727
 21
-1893.560757503226
 31
0.0
  0
LINE
  5
25C19
330
259BC
100
AcDbEntity
  8
文字
 62
     4
370
    13
100
AcDbLine
 10
988.6202641403727
 20
-1893.560757503226
 30
0.0
 11
993.6202641403728
 21
-1893.560757503226
 31
0.0
  0
MTEXT
  5
25C1A
330
259BC
100
AcDbEntity
  8
文字
370
    13
100
AcDbMText
 10
956.1312533418767
 20
-1879.631607550611
 30
0.0
 40
6.0
 41
0.0
 71
     5
 72
     1
  1
\A1;1.2
  7
まこ
 73
     1
 44
1.0
  0
INSERT
  5
25C1B
330
259BC
100
AcDbEntity
  8
文字
 62
     4
370
    13
100
AcDbBlockReference
  2
_Open30
 10
987.4202641403726
 20
-1893.560757503226
 30
0.0
 41
5.0
 42
5.0
 43
5.0
  0
INSERT
  5
25C1C
330
259BC
100
AcDbEntity
  8
文字
 62
     4
370
    13
100
AcDbBlockReference
  2
_DotSmall
 10
988.6202641403727
 20
-1893.560757503226
 30
0.0
 41
5.0
 42
5.0
 43
5.0
 50
180.0
  0
POINT
  5
25C1D
330
259BC
100
AcDbEntity
  8
DEFPOINTS
 62
     0
100
AcDbPoint
 10
987.4202641403726
 20
-1929.571406747023
 30
0.0
  0
POINT
  5
25C1E
330
259BC
100
AcDbEntity
  8
DEFPOINTS
 62
     0
100
AcDbPoint
 10
988.6202641403727
 20
-1944.596451924673
 30
0.0
  0
POINT
  5
25C1F
330
259BC
100
AcDbEntity
  8
DEFPOINTS
 62
     0
100
AcDbPoint
 10
988.6202641403727
 20
-1893.560757503226
 30
0.0
  0
ENDBLK
  5
259C8
330
259BC
100
AcDbEntity
  8
0
370
    30
100
AcDbBlockEnd
  0
BLOCK
  5
259D3
330
259C9
100
AcDbEntity
  8
0
370
    30
100
AcDbBlockBegin
  2
*D68
 70
     1
 10
0.0
 20
0.0
 30
0.0
  3
*D68
  1

  0
LINE
  5
25C2A
330
259C9
100
AcDbEntity
  8
文字
 62
     4
370
    13
100
AcDbLine
 10
988.6202641403727
 20
-1942.996451924673
 30
0.0
 11
988.6202641403727
 21
-1893.200757503225
 31
0.0
  0
LINE
  5
25C2B
330
259C9
100
AcDbEntity
  8
文字
 62
     4
370
    13
100
AcDbLine
 10
1001.420264140372
 20
-1927.971406747023
 30
0.0
 11
1001.420264140372
 21
-1893.200757503225
 31
0.0
  0
LINE
  5
25C2C
330
259C9
100
AcDbEntity
  8
文字
 62
     4
370
    13
100
AcDbLine
 10
988.6202641403727
 20
-1893.560757503226
 30
0.0
 11
983.6202641403728
 21
-1893.560757503226
 31
0.0
  0
LINE
  5
25C2D
330
259C9
100
AcDbEntity
  8
文字
 62
     4
370
    13
100
AcDbLine
 10
1006.420264140372
 20
-1893.560757503226
 30
0.0
 11
1030.56312128323
 21
-1893.560757503226
 31
0.0
  0
LINE
  5
25C2E
330
259C9
100
AcDbEntity
  8
文字
 62
     4
370
    13
100
AcDbLine
 10
988.6202641403727
 20
-1893.560757503226
 30
0.0
 11
1001.420264140372
 21
-1893.560757503226
 31
0.0
  0
INSERT
  5
25C2F
330
259C9
100
AcDbEntity
  8
文字
 62
     4
370
    13
100
AcDbBlockReference
  2
_DotSmall
 10
988.6202641403727
 20
-1893.560757503226
 30
0.0
 41
5.0
 42
5.0
 43
5.0
  0
INSERT
  5
25C30
330
259C9
100
AcDbEntity
  8
文字
 62
     4
370
    13
100
AcDbBlockReference
  2
_Open30
 10
1001.420264140372
 20
-1893.560757503226
 30
0.0
 41
5.0
 42
5.0
 43
5.0
 50
180.0
  0
MTEXT
  5
25C31
330
259C9
100
AcDbEntity
  8
文字
370
    13
100
AcDbMText
 10
1020.991692711801
 20
-1889.560757503225
 30
0.0
 40
6.0
 41
0.0
 71
     5
 72
     1
  1
\A1;12.8
  7
まこ
 73
     1
 44
1.0
  0
POINT
  5
25C32
330
259C9
100
AcDbEntity
  8
DEFPOINTS
 62
     0
100
AcDbPoint
 10
988.6202641403727
 20
-1944.596451924673
 30
0.0
  0
POINT
  5
25C33
330
259C9
100
AcDbEntity
  8
DEFPOINTS
 62
     0
100
AcDbPoint
 10
1001.420264140372
 20
-1929.571406747023
 30
0.0
  0
POINT
  5
25C34
330
259C9
100
AcDbEntity
  8
DEFPOINTS
 62
     0
100
AcDbPoint
 10
1001.420264140372
 20
-1893.560757503226
 30
0.0
  0
ENDBLK
  5
259D4
330
259C9
100
AcDbEntity
  8
0
370
    30
100
AcDbBlockEnd
  0
ENDSEC
  0
SECTION
  2
ENTITIES
  0
MTEXT
  5
176FC
330
18
100
AcDbEntity
  8
dimension
 62
     2
100
AcDbMText
 10
-100.7823601383244
 20
171.621314412839
 30
0.0
 40
8.0
 41
0.0
 71
     4
 72
     1
  1

 73
     1
 44
1.0
  0
TEXT
  5
187C8
330
18
100
AcDbEntity
  8
A
100
AcDbText
 10
27.08248755054501
 20
1784.547672862096
 30
0.0
 40
2.5
  1

  7
MSｺﾞｼｯｸ
100
AcDbText
  0
TEXT
  5
187C9
330
18
100
AcDbEntity
  8
A
100
AcDbText
 10
19.25748755054502
 20
1784.547672862096
 30
0.0
 40
2.5
  1

 41
0.5
  7
MSｺﾞｼｯｸ
100
AcDbText
  0
TEXT
  5
187CA
330
18
100
AcDbEntity
  8
A
100
AcDbText
 10
167.1825875009164
 20
2214.514692980458
 30
0.0
 40
3.524999999999999
  1
�    
100
AcDbText
  0
MTEXT
  5
187CB
330
18
100
AcDbEntity
  8
0
  6
ByBlock
100
AcDbMText
 10
325.4874764241681
 20
2232.511722574347
 30
0.0
 40
2.0
 41
0.0
 71
     4
 72
     5
  1

 11
-0.0000000000000002
 21
-1.0
 31
0.0
 73
     1
 44
1.0
1001
ACAD
1000
MTEXTBEGIN
1070
    73
1070
     1
1070
    44
1040
1.0
1070
    74
1070
     0
1000
MTEXTEND
  0
MTEXT
  5
187CC
330
18
100
AcDbEntity
  8
0
  6
ByBlock
100
AcDbMText
 10
360.9528647873208
 20
2221.718414215929
 30
0.0
 40
2.0
 41
0.0
 71
     7
 72
     5
  1

 11
0.0000000000000001
 21
1.0
 31
0.0
 73
     1
 44
1.0
1001
ACAD
1000
MTEXTBEGIN
1070
    73
1070
     1
1070
    44
1040
1.0
1070
    74
1070
     0
1000
MTEXTEND
  0
MTEXT
  5
187CD
330
18
100
AcDbEntity
  8
0
100
AcDbMText
 10
325.1733668026532
 20
2146.93890367364
 30
0.0
 40
2.0
 41
10.1453
 71
     1
 72
     5
  1

 11
-0.0000000000000002
 21
-1.0
 31
0.0
 73
     1
 44
1.0
1001
ACAD
1000
MTEXTBEGIN
1070
    73
1070
     1
1070
    44
1040
1.0
1070
    74
1070
     0
1000
MTEXTEND
  0
MTEXT
  5
187CE
330
18
100
AcDbEntity
  8
0
100
AcDbMText
 10
280.7738750495033
 20
2115.30742008065
 30
0.0
 40
2.0
 41
0.0
 71
     1
 72
     5
  1

 73
     1
 44
1.0
1001
ACAD
1000
MTEXTBEGIN
1070
    73
1070
     1
1070
    44
1040
1.0
1070
    74
1070
     0
1000
MTEXTEND
  0
MTEXT
  5
187CF
330
18
100
AcDbEntity
  8
0
  6
CENTER
100
AcDbMText
 10
606.3621522332663
 20
2216.239946825076
 30
0.0
 40
2.0
 41
15.6417
 71
     1
 72
     5
  1

  7
BIGFONT
 73
     1
 44
1.0
1001
ACAD
1000
MTEXTBEGIN
1070
    73
1070
     1
1070
    44
1040
1.0
1070
    74
1070
     0
1000
MTEXTEND
  0
MTEXT
  5
187D0
330
18
100
AcDbEntity
  8
0
  6
DASHDOT
100
AcDbMText
 10
368.6842112890944
 20
2323.029441652852
 30
0.0
 40
1.0
 41
2.0
 71
     1
 72
     5
  1

  7
BIGFONT
 73
     1
 44
1.0
1001
ACAD
1000
MTEXTBEGIN
1070
    73
1070
     1
1070
    44
1040
1.0
1070
    74
1070
     0
1000
MTEXTEND
  0
MTEXT
  5
187D1
330
18
100
AcDbEntity
  8
0
  6
ByBlock
100
AcDbMText
 10
325.4873894192178
 20
2232.511722574347
 30
0.0
 40
2.0
 41
0.0
 71
     4
 72
     5
  1

 11
-0.0000000000000002
 21
-1.0
 31
0.0
 73
     1
 44
1.0
1001
ACAD
1000
MTEXTBEGIN
1070
    73
1070
     1
1070
    44
1040
1.0
1070
    74
1070
     0
1000
MTEXTEND
  0
MTEXT
  5
187D2
330
18
100
AcDbEntity
  8
0
  6
ByBlock
100
AcDbMText
 10
360.9527777823707
 20
2221.718414215929
 30
0.0
 40
2.0
 41
0.0
 71
     7
 72
     5
  1

 11
0.0000000000000001
 21
1.0
 31
0.0
 73
     1
 44
1.0
1001
ACAD
1000
MTEXTBEGIN
1070
    73
1070
     1
1070
    44
1040
1.0
1070
    74
1070
     0
1000
MTEXTEND
  0
MTEXT
  5
187D3
330
18
100
AcDbEntity
  8
0
100
AcDbMText
 10
325.1732797977028
 20
2146.93890367364
 30
0.0
 40
2.0
 41
10.1453
 71
     1
 72
     5
  1

 11
-0.0000000000000002
 21
-1.0
 31
0.0
 73
     1
 44
1.0
1001
ACAD
1000
MTEXTBEGIN
1070
    73
1070
     1
1070
    44
1040
1.0
1070
    74
1070
     0
1000
MTEXTEND
  0
MTEXT
  5
187D4
330
18
100
AcDbEntity
  8
0
100
AcDbMText
 10
280.773788044553
 20
2115.30742008065
 30
0.0
 40
2.0
 41
0.0
 71
     1
 72
     5
  1

 73
     1
 44
1.0
1001
ACAD
1000
MTEXTBEGIN
1070
    73
1070
     1
1070
    44
1040
1.0
1070
    74
1070
     0
1000
MTEXTEND
  0
MTEXT
  5
187D5
330
18
100
AcDbEntity
  8
0
  6
CENTER
100
AcDbMText
 10
606.3620652283159
 20
2216.239946825076
 30
0.0
 40
2.0
 41
15.6417
 71
     1
 72
     5
  1

  7
BIGFONT
 73
     1
 44
1.0
1001
ACAD
1000
MTEXTBEGIN
1070
    73
1070
     1
1070
    44
1040
1.0
1070
    74
1070
     0
1000
MTEXTEND
  0
MTEXT
  5
187D6
330
18
100
AcDbEntity
  8
0
  6
DASHDOT
100
AcDbMText
 10
368.6841242841443
 20
2323.029441652852
 30
0.0
 40
1.0
 41
2.0
 71
     1
 72
     5
  1

  7
BIGFONT
 73
     1
 44
1.0
1001
ACAD
1000
MTEXTBEGIN
1070
    73
1070
     1
1070
    44
1040
1.0
1070
    74
1070
     0
1000
MTEXTEND
  0
INSERT
  5
187D7
330
18
100
AcDbEntity
  8
FRAME025
100
AcDbBlockReference
  2
機械A4横_LBP
 10
271.0019941658661
 20
2006.88884056487
 30
0.0
  0
TEXT
  5
216E7
330
18
100
AcDbEntity
  8
FRAME020
  6
Continuous
100
AcDbText
 10
1272.84444499335
 20
-2736.187561819853
 30
0.0
 40
3.0
  1

 50
270.0
100
AcDbText
  0
MTEXT
  5
21ACC
330
18
100
AcDbEntity
  8
0
100
AcDbMText
 10
62.91095225984048
 20
-1280.130762802907
 30
0.0
 40
2.5
 41
0.625
 71
     9
 72
     1
  1

 73
     1
 44
1.0
1001
ACAD
1000
MTEXTBEGIN
1070
    73
1070
     1
1070
    44
1040
1.0
1070
    74
1070
     0
1000
MTEXTEND
1000
MTEXTBEGIN
1070
    73
1070
     1
1070
    44
1040
1.0
1070
    74
1070
     0
1000
MTEXTEND
1000
MTEXTBEGIN
1070
    73
1070
     1
1070
    44
1040
1.0
1070
    74
1070
     0
1000
MTEXTEND
1000
MTEXTBEGIN
1070
    73
1070
     1
1070
    44
1040
1.0
1070
    74
1070
     0
1000
MTEXTEND
1000
MTEXTBEGIN
1070
    73
1070
     1
1070
    44
1040
1.0
1070
    74
1070
     0
1000
MTEXTEND
1000
MTEXTBEGIN
1070
    73
1070
     1
1070
    44
1040
1.0
1070
    74
1070
     0
1000
MTEXTEND
  0
TEXT
  5
23DAE
330
18
100
AcDbEntity
  8
0
 62
     2
100
AcDbText
 10
354.433975268759
 20
-1953.895372159942
 30
0.0
 40
2.6
  1
MODEL:CLM500MA
 50
270.0
 41
1.199999999999999
  7
MSゴシックN
 11
353.9588483652057
 21
-1953.895372159942
 31
0.0
100
AcDbText
 73
     1
  0
LEADER
  5
23DAF
330
18
100
AcDbEntity
  8
文字
370
    13
100
AcDbLeader
  3
まこ
 73
     0
 74
     0
 75
     1
 40
7.15736040609137
 41
15.04568527918781
 76
     3
 10
358.0510631210807
 20
-1969.571362882768
 30
0.0
 10
379.1764844406873
 20
-1952.88090995638
 30
0.0
 10
384.1764844406873
 20
-1952.88090995638
 30
0.0
340
23EE7
1001
ACAD
1000
DSTYLE
1002
{
1070
   147
1040
0.5
1070
    77
1070
     1
1002
}
  0
TEXT
  5
23DB0
330
18
100
AcDbEntity
  8
0
 62
     2
100
AcDbText
 10
348.6490830866516
 20
-1960.360960964682
 30
0.0
 40
1.44
  1
NIKKI
 50
270.0
 41
1.25
  7
TIMESNR
100
AcDbText
  0
TEXT
  5
23DB1
330
18
100
AcDbEntity
  8
0
 62
     2
100
AcDbText
 10
348.6490830866514
 20
-1960.36096096468
 30
0.0
 40
1.44
  1
NIKKI
 50
270.0
 41
1.25
  7
TIMESNR
100
AcDbText
  0
TEXT
  5
23DB2
330
18
100
AcDbEntity
  8
0
 62
     2
100
AcDbText
 10
351.6099419203276
 20
-1953.86824558713
 30
0.0
 40
2.0
  1
SER No.******
 50
270.0
 41
1.199999999999999
  7
MSｺﾞｼｯｸN
 11
351.2444596868251
 21
-1953.86824558713
 31
0.0
100
AcDbText
 73
     1
  0
TEXT
  5
23DB3
330
18
100
AcDbEntity
  8
0
 62
     2
100
AcDbText
 10
351.6099419203276
 20
-1953.86824558713
 30
0.0
 40
2.0
  1
SER No.******
 50
270.0
 41
1.199999999999999
  7
MSゴシックN
 11
351.2444596868251
 21
-1953.86824558713
 31
0.0
100
AcDbText
 73
     1
  0
LINE
  5
23DB4
330
18
100
AcDbEntity
  8
0
 62
     2
100
AcDbLine
 10
351.0510631210806
 20
-1952.071402129076
 30
0.0
 11
351.0510631210806
 21
-1987.071402129076
 31
0.0
  0
LINE
  5
23DB5
330
18
100
AcDbEntity
  8
0
 62
     2
100
AcDbLine
 10
358.0510631210807
 20
-1986.571402129076
 30
0.0
 11
358.0510631210807
 21
-1952.571402129076
 31
0.0
  0
LINE
  5
23DB6
330
18
100
AcDbEntity
  8
0
 62
     2
100
AcDbLine
 10
351.0510631210806
 20
-1952.071402129076
 30
0.0
 11
351.0510631210806
 21
-1987.071402129076
 31
0.0
  0
LINE
  5
23DB7
330
18
100
AcDbEntity
  8
0
 62
     2
100
AcDbLine
 10
358.0510631210807
 20
-1986.571402129076
 30
0.0
 11
358.0510631210807
 21
-1952.571402129076
 31
0.0
  0
LINE
  5
23DB8
330
18
100
AcDbEntity
  8
0
 62
     2
100
AcDbLine
 10
346.0510631210806
 20
-1952.571402129076
 30
0.0
 11
346.0510631210806
 21
-1986.571402129076
 31
0.0
  0
LINE
  5
23DB9
330
18
100
AcDbEntity
  8
0
 62
     2
100
AcDbLine
 10
346.0510631210806
 20
-1952.571402129076
 30
0.0
 11
346.0510631210806
 21
-1986.571402129076
 31
0.0
  0
TEXT
  5
23DBA
330
18
100
AcDbEntity
  8
0
 62
     2
100
AcDbText
 10
346.9523206776663
 20
-1960.239547854541
 30
0.0
 40
1.44
  1
DENSO
 50
270.0
 41
1.3
  7
TIMESNR
100
AcDbText
  0
TEXT
  5
23DBB
330
18
100
AcDbEntity
  8
0
 62
     2
100
AcDbText
 10
346.9523206776659
 20
-1960.239547854542
 30
0.0
 40
1.44
  1
DENSO
 50
270.0
 41
1.3
  7
TIMESNR
100
AcDbText
  0
LINE
  5
23DBC
330
18
100
AcDbEntity
  8
0
 48
0.3
370
    50
100
AcDbLine
 10
341.0510631210807
 20
-1929.571362882768
 30
0.0
 11
341.0510631210807
 21
-2009.571397511129
 31
0.0
  0
LWPOLYLINE
  5
23DBD
330
18
100
AcDbEntity
  8
0
  6
HIDDEN
 48
0.6
370
    13
100
AcDbPolyline
 90
        4
 70
     1
 43
0.0
 10
367.0510719056067
 20
-1933.599362882768
 10
379.0510719056066
 20
-1933.599362882768
 10
379.0510719056066
 20
-2005.599362882768
 10
367.0510719056067
 20
-2005.599362882768
  0
LINE
  5
23DBE
330
18
100
AcDbEntity
  8
0
 48
0.3
370
    50
100
AcDbLine
 10
380.5510631210806
 20
-1947.582608025075
 30
0.0
 11
380.5510631210806
 21
-1991.588152368822
 31
0.0
  0
LWPOLYLINE
  5
23DBF
102
{ACAD_REACTORS
330
240F0
102
}
330
18
100
AcDbEntity
  8
0
  6
PHANTOM
 48
0.6
370
     5
100
AcDbPolyline
 90
        4
 70
     1
 43
0.0
 10
339.8510631210807
 20
-1944.596451924673
 10
334.8510631210804
 20
-1944.596451924673
 10
334.8510631210804
 20
-1994.571935607677
 10
339.8510631210807
 20
-1994.571935607677
  0
LINE
  5
23DC0
102
{ACAD_REACTORS
330
240F0
102
}
330
18
100
AcDbEntity
  8
0
  6
PHANTOM
 48
0.6
370
     5
100
AcDbLine
 10
327.0510631210806
 20
-1929.571406747023
 30
0.0
 11
327.0510631210806
 21
-2009.571406747023
 31
0.0
  0
LINE
  5
23DC1
102
{ACAD_REACTORS
330
240F0
102
}
330
18
100
AcDbEntity
  8
0
  6
PHANTOM
 48
0.6
370
     5
100
AcDbLine
 10
334.8510631210804
 20
-2009.571406747023
 30
0.0
 11
334.8510631210804
 21
-1929.571406747023
 31
0.0
  0
DIMENSION
  5
23DC7
330
18
100
AcDbEntity
  8
文字
370
    13
100
AcDbDimension
  2
*D25
 10
428.7128714119281
 20
-2009.571362882769
 30
0.0
 11
424.7128714119283
 21
-1969.571362882769
 31
0.0
 70
    32
 71
     5
 42
80.00000000000023
  3
まこ
100
AcDbAlignedDimension
 13
463.3212781866896
 23
-1929.571362882768
 33
0.0
 14
463.3212781866896
 24
-2009.571362882769
 34
0.0
 50
90.0
100
AcDbRotatedDimension
1001
ACAD
1000
DSTYLE
1002
{
1070
   271
1070
     8
1002
}
  0
DIMENSION
  5
23DC8
330
18
100
AcDbEntity
  8
文字
370
    13
100
AcDbDimension
  2
*D22
 10
438.9636442285591
 20
-2002.071362882769
 30
0.0
 11
434.9636442285595
 21
-1969.571362882769
 31
0.0
 70
    32
 71
     5
 42
65.00000000000023
  3
まこ
100
AcDbAlignedDimension
 13
489.0760306610381
 23
-1937.071362882769
 33
0.0
 14
505.0729726427503
 24
-2002.071362882769
 34
0.0
 50
90.0
100
AcDbRotatedDimension
1001
ACAD
1000
DSTYLE
1002
{
1070
   271
1070
     8
1002
}
  0
LINE
  5
23DC9
330
18
100
AcDbEntity
  8
0
370
    50
100
AcDbLine
 10
811.3212781866895
 20
-2009.571362882769
 30
0.0
 11
811.3212781866897
 21
-1929.571362882768
 31
0.0
  0
LINE
  5
23DCA
330
18
100
AcDbEntity
  8
0
370
    50
100
AcDbLine
 10
463.3212781866896
 20
-2009.571362882769
 30
0.0
 11
463.3212781866896
 21
-1929.571362882768
 31
0.0
  0
LINE
  5
23DCC
330
18
100
AcDbEntity
  8
0
370
    50
100
AcDbLine
 10
811.3212781866895
 20
-2122.280491227665
 30
0.0
 11
463.3212781866896
 21
-2122.280491227665
 31
0.0
  0
LINE
  5
23DCD
330
18
100
AcDbEntity
  8
0
370
    50
100
AcDbLine
 10
463.3212781866896
 20
-2082.280491227665
 30
0.0
 11
811.3212781866895
 21
-2082.280491227665
 31
0.0
  0
LWPOLYLINE
  5
23DCE
330
18
100
AcDbEntity
  8
0
370
    50
100
AcDbPolyline
 90
        2
 70
     0
 43
0.0
 10
637.3434612064674
 20
-2082.280491227665
 10
797.3435005866897
 20
-2082.280491227665
  0
DIMENSION
  5
23DCF
330
18
100
AcDbEntity
  8
文字
370
    13
100
AcDbDimension
  2
*D27
 10
765.3212781866896
 20
-2040.138135824629
 30
0.0
 11
637.3212781866896
 21
-2036.138135824629
 31
0.0
 70
    32
  1
4xP64=<>
 71
     5
 42
255.9999999999999
  3
まこ
100
AcDbAlignedDimension
 13
509.3212781866896
 23
-2005.737467827907
 33
0.0
 14
765.3212781866896
 24
-2005.669204186346
 34
0.0
100
AcDbRotatedDimension
1001
ACAD
1000
DSTYLE
1002
{
1070
   271
1070
     6
1002
}
  0
DIMENSION
  5
23DD0
330
18
100
AcDbEntity
  8
文字
370
    13
100
AcDbDimension
  2
*D29
 10
811.3212781866895
 20
-2050.773897808044
 30
0.0
 11
637.3212781866896
 21
-2046.773897808044
 31
0.0
 70
    32
 71
     5
 42
348.0
  3
まこ
100
AcDbAlignedDimension
 13
463.3212781866896
 23
-2009.557380196949
 33
0.0
 14
811.3212781866895
 24
-2009.557380196949
 34
0.0
100
AcDbRotatedDimension
1001
ACAD
1000
DSTYLE
1002
{
1070
   271
1070
     6
1002
}
  0
LINE
  5
23DD1
330
18
100
AcDbEntity
  8
0
  6
CENTER
 62
     1
 48
0.6
370
    13
100
AcDbLine
 10
449.9054743276847
 20
-1969.571362882769
 30
0.0
 11
825.7510174175163
 21
-1969.571362882769
 31
0.0
  0
LWPOLYLINE
  5
23DD3
330
18
100
AcDbEntity
  8
0
370
    50
100
AcDbPolyline
 90
        2
 70
     0
 43
0.0
 10
797.3435005866897
 20
-1991.574135054642
 10
637.3434612064674
 20
-1991.574135054642
  0
LINE
  5
23DD4
330
18
100
AcDbEntity
  8
0
  6
CENTER
 62
     1
 48
0.6
370
    13
100
AcDbLine
 10
317.1731820099378
 20
-2002.072062882768
 30
0.0
 11
344.1334874790134
 21
-2002.072062882768
 31
0.0
  0
LINE
  5
23DD7
102
{ACAD_REACTORS
330
240F0
102
}
330
18
100
AcDbEntity
  8
0
  6
PHANTOM
 48
0.6
370
     5
100
AcDbLine
 10
327.0510631210806
 20
-2009.571406747023
 30
0.0
 11
334.8510631210804
 21
-2009.571406747023
 31
0.0
  0
LINE
  5
23DD8
330
18
100
AcDbEntity
  8
0
  6
CENTER
 62
     1
 48
0.6
370
    13
100
AcDbLine
 10
385.9737970943354
 20
-1969.571362882768
 30
0.0
 11
318.1584260474569
 21
-1969.571362882768
 31
0.0
  0
DIMENSION
  5
23DDC
330
18
100
AcDbEntity
  8
文字
370
    13
100
AcDbDimension
  2
*D24
 10
438.9636442285591
 20
-2009.571362882769
 30
0.0
 11
434.9636442285595
 21
-2032.942791454197
 31
0.0
 70
    32
  1
（<>）
 71
     5
 42
7.5
  3
まこ
100
AcDbAlignedDimension
 13
505.0729726427503
 23
-2002.071362882769
 33
0.0
 14
463.3212781866896
 24
-2009.571362882769
 34
0.0
 50
90.0
100
AcDbRotatedDimension
1001
ACAD
1000
DSTYLE
1002
{
1070
   271
1070
     8
1002
}
  0
LEADER
  5
23DDD
330
18
100
AcDbEntity
  8
文字
370
    13
100
AcDbLeader
  3
まこ
 73
     0
 74
     0
 75
     1
 40
7.005076142131978
 41
22.32487309644669
 76
     3
 10
357.0510631210804
 20
-1999.571402129076
 30
0.0
 10
380.147275877601
 20
-1978.794758835763
 30
0.0
 10
385.147275877601
 20
-1978.794758835763
 30
0.0
340
23E0D
1001
ACAD
1000
DSTYLE
1002
{
1070
   147
1040
0.5
1070
    77
1070
     1
1002
}
  0
LINE
  5
23DDE
330
18
100
AcDbEntity
  8
0
 62
     2
100
AcDbLine
 10
346.5510631210806
 20
-1987.071402129076
 30
0.0
 11
357.5510631210807
 21
-1987.071402129076
 31
0.0
  0
LINE
  5
23DDF
330
18
100
AcDbEntity
  8
0
 62
     2
100
AcDbLine
 10
346.5510631210806
 20
-1987.071402129076
 30
0.0
 11
357.5510631210807
 21
-1987.071402129076
 31
0.0
  0
LINE
  5
23DE0
330
18
100
AcDbEntity
  8
0
 48
0.3
370
    50
100
AcDbLine
 10
341.0510631210807
 20
-2009.571362882768
 30
0.0
 11
381.0510631210807
 21
-2009.571362882768
 31
0.0
  0
HATCH
  5
23DE1
330
18
100
AcDbEntity
  8
0
 62
     4
100
AcDbHatch
 10
0.0
 20
0.0
 30
0.0
210
0.0
220
0.0
230
1.0
  2
SOLID
 70
     1
 71
     1
 91
        2
 92
       16
 93
        1
 72
     2
 10
349.7513072016931
 20
-1995.731475530694
 40
0.6007500000000002
 50
0.0
 51
360.0
 73
     1
 97
        1
330
23DED
 92
        1
 93
        8
 72
     2
 10
349.7531699923915
 20
-1995.732406926042
 40
1.00311322310025
 50
23.58977727262236
 51
179.9468005913759
 73
     1
 72
     2
 10
349.5510572016932
 20
-1995.731475530694
 40
0.8009999999999999
 50
180.0
 51
360.0
 73
     1
 72
     1
 10
350.3520572016936
 20
-1995.731475530694
 11
350.3520572016936
 21
-1997.974275530694
 72
     1
 10
350.3520572016936
 20
-1997.974275530694
 11
348.349557201694
 21
-1997.733975530694
 72
     1
 10
348.349557201694
 20
-1997.733975530694
 11
348.349557201694
 21
-1993.328475530693
 72
     1
 10
348.349557201694
 20
-1993.328475530693
 11
351.5535572016938
 21
-1993.728975530695
 72
     1
 10
351.5535572016938
 20
-1993.728975530695
 11
351.5535572016938
 21
-1998.134475530694
 72
     1
 10
351.5535572016938
 20
-1998.134475530694
 11
350.6724572016933
 21
-1995.330975530694
 97
        8
330
23DEC
330
23DEE
330
23DE8
330
23DF2
330
23DE3
330
23DEA
330
23DE4
330
23DE7
 75
     0
 76
     1
 98
        1
 10
352.2307820174532
 20
-1794.253765436458
  0
LINE
  5
23DE2
330
18
100
AcDbEntity
  8
0
 62
     4
100
AcDbLine
 10
357.0510631210804
 20
-2006.571402129076
 30
0.0
 11
357.0510631210804
 21
-1992.571402129076
 31
0.0
  0
LINE
  5
23DE3
102
{ACAD_REACTORS
330
23DE1
102
}
330
18
100
AcDbEntity
  8
0
 62
     4
100
AcDbLine
 10
348.349557201694
 20
-1993.328475530693
 30
0.0
 11
348.349557201694
 21
-1997.733975530694
 31
0.0
  0
LINE
  5
23DE4
102
{ACAD_REACTORS
330
23DE1
102
}
330
18
100
AcDbEntity
  8
0
 62
     4
100
AcDbLine
 10
351.5535572016938
 20
-1993.728975530695
 30
0.0
 11
351.5535572016938
 21
-1998.134475530694
 31
0.0
  0
LINE
  5
23DE5
330
18
100
AcDbEntity
  8
0
 62
     4
100
AcDbLine
 10
347.0510631210809
 20
-1992.571402129076
 30
0.0
 11
347.0510631210804
 21
-2006.571402129076
 31
0.0
  0
LINE
  5
23DE6
330
18
100
AcDbEntity
  8
0
 62
     4
100
AcDbLine
 10
353.0510631210809
 20
-1992.071402129076
 30
0.0
 11
353.0510631210809
 21
-2007.071402129076
 31
0.0
  0
LINE
  5
23DE7
102
{ACAD_REACTORS
330
23DE1
102
}
330
18
100
AcDbEntity
  8
0
 62
     4
100
AcDbLine
 10
351.5535572016938
 20
-1998.134475530694
 30
0.0
 11
350.6724572016933
 21
-1995.330975530694
 31
0.0
  0
LINE
  5
23DE8
102
{ACAD_REACTORS
330
23DE1
102
}
330
18
100
AcDbEntity
  8
0
 62
     4
100
AcDbLine
 10
350.3520572016936
 20
-1995.731475530694
 30
0.0
 11
350.3520572016936
 21
-1997.974275530694
 31
0.0
  0
LINE
  5
23DE9
330
18
100
AcDbEntity
  8
0
 62
     4
100
AcDbLine
 10
356.5510631210804
 20
-1992.071402129076
 30
0.0
 11
347.5510631210809
 21
-1992.071402129076
 31
0.0
  0
LINE
  5
23DEA
102
{ACAD_REACTORS
330
23DE1
102
}
330
18
100
AcDbEntity
  8
0
 62
     4
100
AcDbLine
 10
348.349557201694
 20
-1993.328475530693
 30
0.0
 11
351.5535572016938
 21
-1993.728975530695
 31
0.0
  0
ARC
  5
23DEB
330
18
100
AcDbEntity
  8
0
 62
     4
100
AcDbCircle
 10
347.5510631210809
 20
-1992.571402129076
 30
0.0
 40
0.5
100
AcDbArc
 50
89.99999999999998
 51
180.0
  0
ARC
  5
23DEC
102
{ACAD_REACTORS
330
23DE1
102
}
330
18
100
AcDbEntity
  8
0
 62
     4
100
AcDbCircle
 10
349.7531699923915
 20
-1995.732406926042
 30
0.0
 40
1.00311322310025
100
AcDbArc
 50
23.58977727262236
 51
179.9468005913759
  0
CIRCLE
  5
23DED
102
{ACAD_REACTORS
330
23DE1
102
}
330
18
100
AcDbEntity
  8
0
 62
     4
100
AcDbCircle
 10
349.7513072016931
 20
-1995.731475530694
 30
0.0
 40
0.6007500000000002
  0
ARC
  5
23DEE
102
{ACAD_REACTORS
330
23DE1
102
}
330
18
100
AcDbEntity
  8
0
 62
     4
100
AcDbCircle
 10
349.5510572016932
 20
-1995.731475530694
 30
0.0
 40
0.8009999999999999
100
AcDbArc
 50
180.0
 51
0.0
  0
LINE
  5
23DEF
330
18
100
AcDbEntity
  8
0
 62
     4
100
AcDbLine
 10
347.5510631210804
 20
-2007.071402129076
 30
0.0
 11
356.5510631210804
 21
-2007.071402129076
 31
0.0
  0
TEXT
  5
23DF0
330
18
100
AcDbEntity
  8
0
 62
     4
100
AcDbText
 10
350.0940537492628
 20
-1999.071987865221
 30
0.0
 40
1.44
  1
NIKKI
 50
270.0
  7
TIMESNR
100
AcDbText
  0
TEXT
  5
23DF1
330
18
100
AcDbEntity
  8
0
 62
     4
100
AcDbText
 10
348.3972913402771
 20
-1998.950574755082
 30
0.0
 40
1.44
  1
DENSO
 50
270.0
  7
TIMESNR
100
AcDbText
  0
LINE
  5
23DF2
102
{ACAD_REACTORS
330
23DE1
102
}
330
18
100
AcDbEntity
  8
0
 62
     4
100
AcDbLine
 10
348.349557201694
 20
-1997.733975530694
 30
0.0
 11
350.3520572016936
 21
-1997.974275530694
 31
0.0
  0
ARC
  5
23DF3
330
18
100
AcDbEntity
  8
0
 62
     4
100
AcDbCircle
 10
347.5510631210803
 20
-2006.571402129076
 30
0.0
 40
0.5
100
AcDbArc
 50
180.0
 51
270.0
  0
TEXT
  5
23DF4
330
18
100
AcDbEntity
  8
0
 62
     4
100
AcDbText
 10
354.0096225720083
 20
-1993.286120608282
 30
0.0
 40
2.0
  1
Certificate
 50
270.0
  7
TIMESNR
 11
353.3708338193046
 21
-1993.286120608282
 31
0.0
100
AcDbText
 73
     1
  0
ARC
  5
23DF5
330
18
100
AcDbEntity
  8
0
 62
     4
100
AcDbCircle
 10
356.5510631210804
 20
-1992.571402129076
 30
0.0
 40
0.5
100
AcDbArc
 50
0.0
 51
89.99999999999998
  0
ARC
  5
23DF6
330
18
100
AcDbEntity
  8
0
 62
     4
100
AcDbCircle
 10
356.5510631210804
 20
-2006.571402129076
 30
0.0
 40
0.5
100
AcDbArc
 50
270.0
 51
0.0
  0
ARC
  5
23DF7
330
18
100
AcDbEntity
  8
0
 62
     2
100
AcDbCircle
 10
346.5510631210806
 20
-1986.571402129076
 30
0.0
 40
0.5
100
AcDbArc
 50
180.0
 51
270.0
  0
ARC
  5
23DF8
330
18
100
AcDbEntity
  8
0
 62
     2
100
AcDbCircle
 10
346.5510631210806
 20
-1986.571402129076
 30
0.0
 40
0.5
100
AcDbArc
 50
180.0
 51
270.0
  0
CIRCLE
  5
23DFB
330
18
100
AcDbEntity
  8
0
  6
HIDDEN
 48
0.6
370
    13
100
AcDbCircle
 10
373.0514433117493
 20
-1999.583489921597
 30
0.0
 40
4.0
  0
LINE
  5
23E01
330
18
100
AcDbEntity
  8
0
  6
CENTER
 62
     1
 48
0.6
370
    13
100
AcDbLine
 10
384.7307082043237
 20
-2002.067254637
 30
0.0
 11
362.0209099095311
 21
-2002.067254637
 31
0.0
  0
ARC
  5
23E02
330
18
100
AcDbEntity
  8
0
 62
     2
100
AcDbCircle
 10
357.5510631210806
 20
-1986.571402129076
 30
0.0
 40
0.5
100
AcDbArc
 50
270.0
 51
0.0
  0
ARC
  5
23E03
330
18
100
AcDbEntity
  8
0
 62
     2
100
AcDbCircle
 10
357.5510631210806
 20
-1986.571402129076
 30
0.0
 40
0.5
100
AcDbArc
 50
270.0
 51
0.0
  0
LINE
  5
23E0B
330
18
100
AcDbEntity
  8
0
 48
0.3
370
    50
100
AcDbLine
 10
380.5510631210807
 20
-1991.588152368822
 30
0.0
 11
381.0510719056066
 21
-1991.588152368822
 31
0.0
  0
MTEXT
  5
23E0D
102
{ACAD_REACTORS
330
23DDD
102
}
330
18
100
AcDbEntity
  8
文字
370
    13
100
AcDbMText
 10
386.147275877601
 20
-1977.794758835763
 30
0.0
 40
6.0
 41
0.0
 71
     7
 72
     1
  1
\A1;合格証
  7
まこ
 73
     1
 44
1.0
  0
LINE
  5
23E0E
330
18
100
AcDbEntity
  8
0
 62
     4
370
    13
100
AcDbLine
 10
438.9636442285591
 20
-2009.557380196949
 30
0.0
 11
438.9636442285591
 21
-2002.067254637
 31
0.0
  0
LINE
  5
23E11
330
18
100
AcDbEntity
  8
0
370
    50
100
AcDbLine
 10
463.3212781866896
 20
-2082.280491227665
 30
0.0
 11
463.3212781866896
 21
-2122.280491227665
 31
0.0
  0
DIMENSION
  5
23E13
330
18
100
AcDbEntity
  8
文字
370
    13
100
AcDbDimension
  2
*D26
 10
509.3212781866896
 20
-2040.138135824629
 30
0.0
 11
486.3212781866896
 21
-2036.138135824629
 31
0.0
 70
    32
 71
     5
 42
46.00000000000005
  3
まこ
100
AcDbAlignedDimension
 13
463.3212781866896
 23
-2009.557380196949
 33
0.0
 14
509.3212781866896
 24
-2005.737467827907
 34
0.0
100
AcDbRotatedDimension
1001
ACAD
1000
DSTYLE
1002
{
1070
   271
1070
     8
1002
}
  0
LINE
  5
23E14
330
18
100
AcDbEntity
  8
0
370
    50
100
AcDbLine
 10
463.3212781866896
 20
-2084.271898754525
 30
0.0
 11
478.3434612064674
 21
-2084.271898754525
 31
0.0
  0
LINE
  5
23E15
330
18
100
AcDbEntity
  8
0
370
    50
100
AcDbLine
 10
478.3434612064674
 20
-2082.280491227665
 30
0.0
 11
478.3434612064674
 21
-2108.280491227665
 31
0.0
  0
LINE
  5
23E16
330
18
100
AcDbEntity
  8
0
370
    50
100
AcDbLine
 10
463.3212781866896
 20
-2009.571362882769
 30
0.0
 11
811.3212781866895
 21
-2009.571362882769
 31
0.0
  0
LINE
  5
23E17
330
18
100
AcDbEntity
  8
0
370
    50
100
AcDbLine
 10
463.3212781866896
 20
-1991.574135054642
 30
0.0
 11
637.3434612064674
 21
-1991.574135054642
 31
0.0
  0
LINE
  5
23E18
330
18
100
AcDbEntity
  8
0
100
AcDbLine
 10
478.3434612064674
 20
-1991.574135054642
 30
0.0
 11
478.3434612064674
 21
-2009.571362882769
 31
0.0
  0
LINE
  5
23E1A
330
18
100
AcDbEntity
  8
0
  6
CENTER
 62
     1
 48
0.6
370
    13
100
AcDbLine
 10
509.3212781866896
 20
-2096.048025196433
 30
0.0
 11
509.3212781866896
 21
-2080.530178525523
 31
0.0
  0
LINE
  5
23E1B
330
18
100
AcDbEntity
  8
隠れ線
 48
0.6
370
    13
100
AcDbLine
 10
507.3205422668316
 20
-2092.280491227665
 30
0.0
 11
511.3130647576376
 21
-2092.280491227665
 31
0.0
  0
LINE
  5
23E1D
330
18
100
AcDbEntity
  8
隠れ線
 48
0.6
370
    13
100
AcDbLine
 10
507.8205422668316
 20
-2082.280491227665
 30
0.0
 11
507.8205422668316
 21
-2093.780491227664
 31
0.0
  0
LINE
  5
23E1E
330
18
100
AcDbEntity
  8
隠れ線
 48
0.6
370
    13
100
AcDbLine
 10
507.3205422668316
 20
-2082.280491227665
 30
0.0
 11
507.3205422668316
 21
-2092.280491227665
 31
0.0
  0
LINE
  5
23E20
330
18
100
AcDbEntity
  8
隠れ線
 48
0.6
370
    13
100
AcDbLine
 10
510.8205422668317
 20
-2082.280491227665
 30
0.0
 11
510.8205422668317
 21
-2093.780491227664
 31
0.0
  0
LINE
  5
23E21
330
18
100
AcDbEntity
  8
隠れ線
 48
0.6
370
    13
100
AcDbLine
 10
511.3130647576376
 20
-2092.280491227665
 30
0.0
 11
511.3130647576376
 21
-2082.280491227665
 31
0.0
  0
LINE
  5
23E23
330
18
100
AcDbEntity
  8
隠れ線
 48
0.6
370
    13
100
AcDbLine
 10
507.3205422668316
 20
-2092.280491227665
 30
0.0
 11
507.8205422668316
 21
-2092.969183881936
 31
0.0
  0
LINE
  5
23E24
330
18
100
AcDbEntity
  8
隠れ線
 48
0.6
370
    13
100
AcDbLine
 10
510.8205422668317
 20
-2092.969183881936
 30
0.0
 11
511.3130647576376
 21
-2092.280491227665
 31
0.0
  0
LINE
  5
23E27
330
18
100
AcDbEntity
  8
0
  6
CENTER
 62
     1
 48
0.3
370
    13
100
AcDbLine
 10
505.0729726427503
 20
-2002.071362882769
 30
0.0
 11
513.3599126147523
 21
-2002.071362882769
 31
0.0
  0
LINE
  5
23E28
330
18
100
AcDbEntity
  8
0
  6
CENTER
 62
     1
 48
0.3
370
    13
100
AcDbLine
 10
509.3212781866896
 20
-2005.741576073676
 30
0.0
 11
509.3212781866896
 21
-1998.638270909526
 31
0.0
  0
CIRCLE
  5
23E29
330
18
100
AcDbEntity
  8
0
370
     9
100
AcDbCircle
 10
509.3212781866896
 20
-2002.071362882769
 30
0.0
 40
2.5
  0
CIRCLE
  5
23E2A
330
18
100
AcDbEntity
  8
0
370
    20
100
AcDbCircle
 10
509.3212781866896
 20
-2002.079497678612
 30
0.0
 40
2.0
  0
DIMENSION
  5
23E42
330
18
100
AcDbEntity
  8
文字
370
    13
100
AcDbDimension
  2
*D30
 10
879.5154869656794
 20
-2050.773897808044
 30
0.0
 11
845.4183825761845
 21
-2046.773897808044
 31
0.0
 70
    32
  1
（200）
 71
     5
 42
68.19420877898983
  3
まこ
100
AcDbAlignedDimension
 13
811.3212781866895
 23
-2009.557380196949
 33
0.0
 14
879.5154869656794
 24
-2011.939397173031
 34
0.0
100
AcDbRotatedDimension
1001
ACAD
1000
DSTYLE
1002
{
1070
   271
1070
     8
1002
}
  0
DIMENSION
  5
23E48
330
18
100
AcDbEntity
  8
文字
370
    13
100
AcDbDimension
  2
*D28
 10
811.3212781866895
 20
-2040.138135824629
 30
0.0
 11
788.3212781866896
 21
-2036.138135824629
 31
0.0
 70
    32
  1
（<>）
 71
     5
 42
46.0
  3
まこ
100
AcDbAlignedDimension
 13
765.3212781866896
 23
-2005.669204186346
 33
0.0
 14
811.3212781866895
 24
-2009.557380196949
 34
0.0
100
AcDbRotatedDimension
1001
ACAD
1000
DSTYLE
1002
{
1070
   271
1070
     8
1002
}
  0
LINE
  5
23E5D
330
18
100
AcDbEntity
  8
0
370
    50
100
AcDbLine
 10
811.3212781866895
 20
-2082.280491227665
 30
0.0
 11
811.3212781866895
 21
-2122.280491227665
 31
0.0
  0
LINE
  5
23E5E
330
18
100
AcDbEntity
  8
0
370
    50
100
AcDbLine
 10
796.3435005866897
 20
-2084.271898754525
 30
0.0
 11
811.3212781866895
 21
-2084.271898754525
 31
0.0
  0
LINE
  5
23E5F
330
18
100
AcDbEntity
  8
0
370
    50
100
AcDbLine
 10
796.3435005866897
 20
-2082.280491227665
 30
0.0
 11
796.3435005866897
 21
-2108.280491227665
 31
0.0
  0
LINE
  5
23E61
330
18
100
AcDbEntity
  8
0
370
    50
100
AcDbLine
 10
797.3634612064675
 20
-1991.574135054642
 30
0.0
 11
811.3212781866897
 21
-1991.574135054642
 31
0.0
  0
LINE
  5
23E62
330
18
100
AcDbEntity
  8
0
100
AcDbLine
 10
796.3634612064675
 20
-1991.574135054642
 30
0.0
 11
796.3435005866897
 21
-2009.571362882769
 31
0.0
  0
TEXT
  5
23EDB
330
18
100
AcDbEntity
  8
0
 62
     7
100
AcDbText
 10
348.5556583975179
 20
-1971.693062523627
 30
137.5
 40
1.5
  1
SN-16140
 50
270.0
  7
MSゴシックN
 11
348.281546722391
 21
-1971.693062523627
 31
137.5
100
AcDbText
 73
     1
  0
TEXT
  5
23EDC
330
18
100
AcDbEntity
  8
0
 62
     7
100
AcDbText
 10
346.6858723471322
 20
-1971.693062523627
 30
137.5
 40
1.5
  1
MADE IN JAPAN
 50
270.0
  7
MSゴシックN
 11
346.4117606720053
 21
-1971.693062523627
 31
137.5
100
AcDbText
 73
     1
  0
LWPOLYLINE
  5
23EDE
330
18
100
AcDbEntity
  8
0
370
    50
100
AcDbPolyline
 90
        2
 70
     0
 43
0.0
 10
797.3435005866897
 20
-1947.568590710895
 10
637.3434612064674
 20
-1947.568590710895
  0
LINE
  5
23EDF
330
18
100
AcDbEntity
  8
0
  6
CENTER
 62
     1
 48
0.6
370
    13
100
AcDbLine
 10
317.1731820099378
 20
-1937.072062882768
 30
0.0
 11
344.0913433552202
 21
-1937.072062882768
 31
0.0
  0
LINE
  5
23EE2
102
{ACAD_REACTORS
330
240F0
102
}
330
18
100
AcDbEntity
  8
0
  6
PHANTOM
 48
0.6
370
     5
100
AcDbLine
 10
334.8510631210804
 20
-1929.571406747023
 30
0.0
 11
327.0510631210806
 21
-1929.571406747023
 31
0.0
  0
DIMENSION
  5
23EE6
330
18
100
AcDbEntity
  8
文字
370
    13
100
AcDbDimension
  2
*D23
 10
438.9636442285591
 20
-1929.571362882768
 30
0.0
 11
434.9636442285595
 21
-1906.19993431134
 31
0.0
 70
    32
  1
（<>）
 71
     5
 42
7.5
  3
まこ
100
AcDbAlignedDimension
 13
505.0729726427503
 23
-1937.071362882769
 33
0.0
 14
463.3212781866896
 24
-1929.571362882768
 34
0.0
 50
90.0
100
AcDbRotatedDimension
1001
ACAD
1000
DSTYLE
1002
{
1070
   271
1070
     6
1002
}
  0
MTEXT
  5
23EE7
102
{ACAD_REACTORS
330
23DAF
102
}
330
18
100
AcDbEntity
  8
文字
370
    13
100
AcDbMText
 10
385.1764844406872
 20
-1951.88090995638
 30
0.0
 40
6.0
 41
0.0
 71
     7
 72
     1
  1
\A1;銘板
  7
まこ
 73
     1
 44
1.0
  0
LINE
  5
23EE8
330
18
100
AcDbEntity
  8
0
 62
     2
100
AcDbLine
 10
357.5510631210807
 20
-1952.071402129076
 30
0.0
 11
346.5510631210806
 21
-1952.071402129076
 31
0.0
  0
LINE
  5
23EE9
330
18
100
AcDbEntity
  8
0
 62
     2
100
AcDbLine
 10
357.5510631210807
 20
-1952.071402129076
 30
0.0
 11
346.5510631210806
 21
-1952.071402129076
 31
0.0
  0
LINE
  5
23EEA
330
18
100
AcDbEntity
  8
0
 48
0.3
370
    50
100
AcDbLine
 10
381.0510631210806
 20
-1929.571362882768
 30
0.0
 11
341.0510631210807
 21
-1929.571362882768
 31
0.0
  0
HATCH
  5
23EEB
330
18
100
AcDbEntity
  8
0
 62
     2
100
AcDbHatch
 10
0.0
 20
0.0
 30
0.0
210
0.0
220
0.0
230
1.0
  2
SOLID
 70
     1
 71
     1
 91
        2
 92
       16
 93
        1
 72
     2
 10
348.3063365390823
 20
-1957.020448630155
 40
0.6007500000000002
 50
0.0
 51
360.0
 73
     1
 97
        1
330
23EF6
 92
        1
 93
        8
 72
     2
 10
348.3081993297798
 20
-1957.021380025503
 40
1.00311322310025
 50
23.58977727262236
 51
179.9468005913759
 73
     1
 72
     2
 10
348.1060865390824
 20
-1957.020448630155
 40
0.8009999999999999
 50
180.0
 51
360.0
 73
     1
 72
     1
 10
348.9070865390824
 20
-1957.020448630155
 11
348.9070865390824
 21
-1959.263248630155
 72
     1
 10
348.9070865390824
 20
-1959.263248630155
 11
346.9045865390824
 21
-1959.022948630155
 72
     1
 10
346.9045865390824
 20
-1959.022948630155
 11
346.9045865390824
 21
-1954.617448630155
 72
     1
 10
346.9045865390824
 20
-1954.617448630155
 11
350.1085865390821
 21
-1955.017948630154
 72
     1
 10
350.1085865390821
 20
-1955.017948630154
 11
350.1085865390821
 21
-1959.423448630155
 72
     1
 10
350.1085865390821
 20
-1959.423448630155
 11
349.2274865390825
 21
-1956.619948630155
 97
        8
330
23EF8
330
23EF5
330
23EF1
330
23EED
330
23EFD
330
23EF7
330
23EF0
330
23EEF
 75
     0
 76
     1
 98
        1
 10
350.7858113548416
 20
-1755.542738535919
  0
HATCH
  5
23EEC
330
18
100
AcDbEntity
  8
0
 62
     2
100
AcDbHatch
 10
0.0
 20
0.0
 30
0.0
210
0.0
220
0.0
230
1.0
  2
SOLID
 70
     1
 71
     1
 91
        2
 92
       16
 93
        1
 72
     2
 10
348.3063365390821
 20
-1957.020448630154
 40
0.6007500000000002
 50
0.0
 51
360.0
 73
     1
 97
        1
330
23EFA
 92
        1
 93
        8
 72
     2
 10
348.3081993297798
 20
-1957.021380025503
 40
1.00311322310025
 50
23.58977727261417
 51
179.946800591402
 73
     1
 72
     2
 10
348.1060865390822
 20
-1957.020448630154
 40
0.8009999999999999
 50
180.0
 51
360.0
 73
     1
 72
     1
 10
348.9070865390822
 20
-1957.020448630154
 11
348.9070865390822
 21
-1959.263248630154
 72
     1
 10
348.9070865390822
 20
-1959.263248630154
 11
346.9045865390821
 21
-1959.022948630154
 72
     1
 10
346.9045865390821
 20
-1959.022948630154
 11
346.9045865390821
 21
-1954.617448630154
 72
     1
 10
346.9045865390821
 20
-1954.617448630154
 11
350.1085865390821
 21
-1955.017948630154
 72
     1
 10
350.1085865390821
 20
-1955.017948630154
 11
350.1085865390821
 21
-1959.423448630154
 72
     1
 10
350.1085865390821
 20
-1959.423448630154
 11
349.2274865390823
 21
-1956.619948630154
 97
        8
330
23EFC
330
23EF9
330
23EF2
330
23EEE
330
23EFE
330
23EFB
330
23EF3
330
23EF4
 75
     0
 76
     1
 98
        1
 10
350.7858113548413
 20
-1755.542738535918
  0
LINE
  5
23EED
102
{ACAD_REACTORS
330
23EEB
102
}
330
18
100
AcDbEntity
  8
0
 62
     2
100
AcDbLine
 10
346.9045865390824
 20
-1959.022948630155
 30
0.0
 11
348.9070865390824
 21
-1959.263248630155
 31
0.0
  0
LINE
  5
23EEE
102
{ACAD_REACTORS
330
23EEC
102
}
330
18
100
AcDbEntity
  8
0
 62
     2
100
AcDbLine
 10
346.9045865390821
 20
-1959.022948630154
 30
0.0
 11
348.9070865390822
 21
-1959.263248630154
 31
0.0
  0
LINE
  5
23EEF
102
{ACAD_REACTORS
330
23EEB
102
}
330
18
100
AcDbEntity
  8
0
 62
     2
100
AcDbLine
 10
350.1085865390821
 20
-1959.423448630155
 30
0.0
 11
349.2274865390825
 21
-1956.619948630155
 31
0.0
  0
LINE
  5
23EF0
102
{ACAD_REACTORS
330
23EEB
102
}
330
18
100
AcDbEntity
  8
0
 62
     2
100
AcDbLine
 10
350.1085865390821
 20
-1955.017948630154
 30
0.0
 11
350.1085865390821
 21
-1959.423448630155
 31
0.0
  0
LINE
  5
23EF1
102
{ACAD_REACTORS
330
23EEB
102
}
330
18
100
AcDbEntity
  8
0
 62
     2
100
AcDbLine
 10
348.9070865390824
 20
-1957.020448630155
 30
0.0
 11
348.9070865390824
 21
-1959.263248630155
 31
0.0
  0
LINE
  5
23EF2
102
{ACAD_REACTORS
330
23EEC
102
}
330
18
100
AcDbEntity
  8
0
 62
     2
100
AcDbLine
 10
348.9070865390822
 20
-1957.020448630154
 30
0.0
 11
348.9070865390822
 21
-1959.263248630154
 31
0.0
  0
LINE
  5
23EF3
102
{ACAD_REACTORS
330
23EEC
102
}
330
18
100
AcDbEntity
  8
0
 62
     2
100
AcDbLine
 10
350.1085865390821
 20
-1955.017948630154
 30
0.0
 11
350.1085865390821
 21
-1959.423448630154
 31
0.0
  0
LINE
  5
23EF4
102
{ACAD_REACTORS
330
23EEC
102
}
330
18
100
AcDbEntity
  8
0
 62
     2
100
AcDbLine
 10
350.1085865390821
 20
-1959.423448630154
 30
0.0
 11
349.2274865390823
 21
-1956.619948630154
 31
0.0
  0
ARC
  5
23EF5
102
{ACAD_REACTORS
330
23EEB
102
}
330
18
100
AcDbEntity
  8
0
 62
     2
100
AcDbCircle
 10
348.1060865390824
 20
-1957.020448630155
 30
0.0
 40
0.8009999999999999
100
AcDbArc
 50
180.0
 51
0.0
  0
CIRCLE
  5
23EF6
102
{ACAD_REACTORS
330
23EEB
102
}
330
18
100
AcDbEntity
  8
0
 62
     2
100
AcDbCircle
 10
348.3063365390823
 20
-1957.020448630155
 30
0.0
 40
0.6007500000000002
  0
LINE
  5
23EF7
102
{ACAD_REACTORS
330
23EEB
102
}
330
18
100
AcDbEntity
  8
0
 62
     2
100
AcDbLine
 10
346.9045865390824
 20
-1954.617448630155
 30
0.0
 11
350.1085865390821
 21
-1955.017948630154
 31
0.0
  0
ARC
  5
23EF8
102
{ACAD_REACTORS
330
23EEB
102
}
330
18
100
AcDbEntity
  8
0
 62
     2
100
AcDbCircle
 10
348.3081993297798
 20
-1957.021380025503
 30
0.0
 40
1.00311322310025
100
AcDbArc
 50
23.58977727262236
 51
179.9468005913759
  0
ARC
  5
23EF9
102
{ACAD_REACTORS
330
23EEC
102
}
330
18
100
AcDbEntity
  8
0
 62
     2
100
AcDbCircle
 10
348.1060865390822
 20
-1957.020448630154
 30
0.0
 40
0.8009999999999999
100
AcDbArc
 50
180.0
 51
0.0
  0
CIRCLE
  5
23EFA
102
{ACAD_REACTORS
330
23EEC
102
}
330
18
100
AcDbEntity
  8
0
 62
     2
100
AcDbCircle
 10
348.3063365390821
 20
-1957.020448630154
 30
0.0
 40
0.6007500000000002
  0
LINE
  5
23EFB
102
{ACAD_REACTORS
330
23EEC
102
}
330
18
100
AcDbEntity
  8
0
 62
     2
100
AcDbLine
 10
346.9045865390821
 20
-1954.617448630154
 30
0.0
 11
350.1085865390821
 21
-1955.017948630154
 31
0.0
  0
ARC
  5
23EFC
102
{ACAD_REACTORS
330
23EEC
102
}
330
18
100
AcDbEntity
  8
0
 62
     2
100
AcDbCircle
 10
348.3081993297798
 20
-1957.021380025503
 30
0.0
 40
1.00311322310025
100
AcDbArc
 50
23.58977727261417
 51
179.946800591402
  0
LINE
  5
23EFD
102
{ACAD_REACTORS
330
23EEB
102
}
330
18
100
AcDbEntity
  8
0
 62
     2
100
AcDbLine
 10
346.9045865390824
 20
-1954.617448630155
 30
0.0
 11
346.9045865390824
 21
-1959.022948630155
 31
0.0
  0
LINE
  5
23EFE
102
{ACAD_REACTORS
330
23EEC
102
}
330
18
100
AcDbEntity
  8
0
 62
     2
100
AcDbLine
 10
346.9045865390821
 20
-1954.617448630154
 30
0.0
 11
346.9045865390821
 21
-1959.022948630154
 31
0.0
  0
ARC
  5
23EFF
330
18
100
AcDbEntity
  8
0
 62
     2
100
AcDbCircle
 10
346.5510631210806
 20
-1952.571402129076
 30
0.0
 40
0.5
100
AcDbArc
 50
89.99999999999998
 51
180.0
  0
ARC
  5
23F00
330
18
100
AcDbEntity
  8
0
 62
     2
100
AcDbCircle
 10
346.5510631210806
 20
-1952.571402129076
 30
0.0
 40
0.5
100
AcDbArc
 50
89.99999999999998
 51
180.0
  0
CIRCLE
  5
23F03
330
18
100
AcDbEntity
  8
0
  6
HIDDEN
 48
0.6
370
    13
100
AcDbCircle
 10
373.0514433117493
 20
-1939.583489921597
 30
0.0
 40
4.0
  0
LINE
  5
23F09
330
18
100
AcDbEntity
  8
0
  6
CENTER
 62
     1
 48
0.6
370
    13
100
AcDbLine
 10
384.7307082043237
 20
-1937.095389432843
 30
0.0
 11
362.7546562992459
 21
-1937.095389432843
 31
0.0
  0
ARC
  5
23F0A
330
18
100
AcDbEntity
  8
0
 62
     2
100
AcDbCircle
 10
357.5510631210806
 20
-1952.571402129076
 30
0.0
 40
0.5
100
AcDbArc
 50
0.0
 51
89.99999999999998
  0
ARC
  5
23F0B
330
18
100
AcDbEntity
  8
0
 62
     2
100
AcDbCircle
 10
357.5510631210806
 20
-1952.571402129076
 30
0.0
 40
0.5
100
AcDbArc
 50
0.0
 51
89.99999999999998
  0
LINE
  5
23F13
330
18
100
AcDbEntity
  8
0
 48
0.3
370
    50
100
AcDbLine
 10
381.0510719056066
 20
-1947.582608025075
 30
0.0
 11
380.5510631210806
 21
-1947.582608025076
 31
0.0
  0
LINE
  5
23F15
330
18
100
AcDbEntity
  8
0
 62
     4
370
    13
100
AcDbLine
 10
438.9636442285591
 20
-1929.585345568589
 30
0.0
 11
438.9636442285591
 21
-1937.075471128537
 31
0.0
  0
LINE
  5
23F16
330
18
100
AcDbEntity
  8
0
370
    50
100
AcDbLine
 10
463.3212781866896
 20
-1947.568590710895
 30
0.0
 11
637.3434612064674
 21
-1947.568590710895
 31
0.0
  0
LINE
  5
23F17
330
18
100
AcDbEntity
  8
0
370
    50
100
AcDbLine
 10
811.3212781866897
 20
-1929.571362882768
 30
0.0
 11
463.3212781866896
 21
-1929.571362882768
 31
0.0
  0
LINE
  5
23F18
330
18
100
AcDbEntity
  8
0
100
AcDbLine
 10
478.3434612064674
 20
-1929.585345568588
 30
0.0
 11
478.3434612064674
 21
-1947.568590710895
 31
0.0
  0
LINE
  5
23F19
330
18
100
AcDbEntity
  8
0
  6
CENTER
 62
     1
 48
0.3
370
    13
100
AcDbLine
 10
505.0729726427503
 20
-1937.071362882769
 30
0.0
 11
513.3599126147523
 21
-1937.071362882769
 31
0.0
  0
LINE
  5
23F1A
330
18
100
AcDbEntity
  8
0
  6
CENTER
 62
     1
 48
0.3
370
    13
100
AcDbLine
 10
509.3212781866896
 20
-1940.741576073676
 30
0.0
 11
509.3212781866896
 21
-1933.638270909526
 31
0.0
  0
CIRCLE
  5
23F1B
330
18
100
AcDbEntity
  8
0
370
     9
100
AcDbCircle
 10
509.3212781866896
 20
-1937.071362882769
 30
0.0
 40
2.5
  0
CIRCLE
  5
23F1C
330
18
100
AcDbEntity
  8
0
370
    20
100
AcDbCircle
 10
509.3212781866896
 20
-1937.091281187075
 30
0.0
 40
2.0
  0
LEADER
  5
23F24
330
18
100
AcDbEntity
  8
文字
370
    13
100
AcDbLeader
  3
まこ
 73
     0
 74
     0
 75
     1
 40
7.187817258883248
 41
73.30964467005076
 76
     3
 10
766.8090095863253
 20
-1935.119856928627
 30
0.0
 10
776.4670223272872
 20
-1920.402739339365
 30
0.0
 10
781.4670223272872
 20
-1920.402739339365
 30
0.0
340
23F2A
1001
ACAD
1000
DSTYLE
1002
{
1070
   147
1040
0.5
1070
    77
1070
     1
1002
}
  0
MTEXT
  5
23F2A
102
{ACAD_REACTORS
330
23F24
102
}
330
18
100
AcDbEntity
  8
文字
370
    13
100
AcDbMText
 10
782.4670223272873
 20
-1919.402739339364
 30
0.0
 40
6.0
 41
0.0
 71
     7
 72
     1
  1
取付穴10-M5ネジ深10
  7
まこ
 73
     1
 44
1.0
  0
LINE
  5
23F2C
330
18
100
AcDbEntity
  8
0
370
    50
100
AcDbLine
 10
797.3435005866897
 20
-1947.568590710895
 30
0.0
 11
811.3212781866895
 21
-1947.568590710895
 31
0.0
  0
LINE
  5
23F2D
330
18
100
AcDbEntity
  8
0
100
AcDbLine
 10
796.3435005866897
 20
-1929.585345568588
 30
0.0
 11
796.3435005866897
 21
-1947.568590710895
 31
0.0
  0
LINE
  5
2418A
330
18
100
AcDbEntity
  8
0
  6
CENTER
 62
     1
 48
0.3
370
    13
100
AcDbLine
 10
569.0729726427503
 20
-1937.071362882769
 30
0.0
 11
577.3599126147523
 21
-1937.071362882769
 31
0.0
  0
LINE
  5
2418B
330
18
100
AcDbEntity
  8
0
  6
CENTER
 62
     1
 48
0.3
370
    13
100
AcDbLine
 10
573.3212781866895
 20
-1940.741576073676
 30
0.0
 11
573.3212781866895
 21
-1933.638270909526
 31
0.0
  0
CIRCLE
  5
2418C
330
18
100
AcDbEntity
  8
0
370
     9
100
AcDbCircle
 10
573.3212781866895
 20
-1937.071362882769
 30
0.0
 40
2.5
  0
CIRCLE
  5
2418D
330
18
100
AcDbEntity
  8
0
370
    20
100
AcDbCircle
 10
573.3212781866895
 20
-1937.091281187075
 30
0.0
 40
2.0
  0
LINE
  5
2418E
330
18
100
AcDbEntity
  8
0
  6
CENTER
 62
     1
 48
0.3
370
    13
100
AcDbLine
 10
569.0729726427503
 20
-2002.071362882769
 30
0.0
 11
577.3599126147523
 21
-2002.071362882769
 31
0.0
  0
LINE
  5
2418F
330
18
100
AcDbEntity
  8
0
  6
CENTER
 62
     1
 48
0.3
370
    13
100
AcDbLine
 10
573.3212781866895
 20
-2005.741576073676
 30
0.0
 11
573.3212781866895
 21
-1998.638270909526
 31
0.0
  0
CIRCLE
  5
24190
330
18
100
AcDbEntity
  8
0
370
     9
100
AcDbCircle
 10
573.3212781866895
 20
-2002.071362882769
 30
0.0
 40
2.5
  0
CIRCLE
  5
24191
330
18
100
AcDbEntity
  8
0
370
    20
100
AcDbCircle
 10
573.3212781866895
 20
-2002.079497678612
 30
0.0
 40
2.0
  0
LINE
  5
24192
330
18
100
AcDbEntity
  8
0
  6
CENTER
 62
     1
 48
0.3
370
    13
100
AcDbLine
 10
633.0729726427502
 20
-1937.071362882769
 30
0.0
 11
641.3599126147524
 21
-1937.071362882769
 31
0.0
  0
LINE
  5
24193
330
18
100
AcDbEntity
  8
0
  6
CENTER
 62
     1
 48
0.3
370
    13
100
AcDbLine
 10
637.3212781866896
 20
-1940.741576073676
 30
0.0
 11
637.3212781866896
 21
-1933.638270909526
 31
0.0
  0
CIRCLE
  5
24194
330
18
100
AcDbEntity
  8
0
370
     9
100
AcDbCircle
 10
637.3212781866896
 20
-1937.071362882769
 30
0.0
 40
2.5
  0
CIRCLE
  5
24195
330
18
100
AcDbEntity
  8
0
370
    20
100
AcDbCircle
 10
637.3212781866896
 20
-1937.091281187075
 30
0.0
 40
2.0
  0
LINE
  5
24196
330
18
100
AcDbEntity
  8
0
  6
CENTER
 62
     1
 48
0.3
370
    13
100
AcDbLine
 10
633.0729726427502
 20
-2002.071362882769
 30
0.0
 11
641.3599126147524
 21
-2002.071362882769
 31
0.0
  0
LINE
  5
24197
330
18
100
AcDbEntity
  8
0
  6
CENTER
 62
     1
 48
0.3
370
    13
100
AcDbLine
 10
637.3212781866896
 20
-2005.741576073676
 30
0.0
 11
637.3212781866896
 21
-1998.638270909526
 31
0.0
  0
CIRCLE
  5
24198
330
18
100
AcDbEntity
  8
0
370
     9
100
AcDbCircle
 10
637.3212781866896
 20
-2002.071362882769
 30
0.0
 40
2.5
  0
CIRCLE
  5
24199
330
18
100
AcDbEntity
  8
0
370
    20
100
AcDbCircle
 10
637.3212781866896
 20
-2002.079497678612
 30
0.0
 40
2.0
  0
LINE
  5
2419A
330
18
100
AcDbEntity
  8
0
  6
CENTER
 62
     1
 48
0.3
370
    13
100
AcDbLine
 10
697.0729726427503
 20
-1937.071362882769
 30
0.0
 11
705.3599126147523
 21
-1937.071362882769
 31
0.0
  0
LINE
  5
2419B
330
18
100
AcDbEntity
  8
0
  6
CENTER
 62
     1
 48
0.3
370
    13
100
AcDbLine
 10
701.3212781866895
 20
-1940.741576073676
 30
0.0
 11
701.3212781866895
 21
-1933.638270909526
 31
0.0
  0
CIRCLE
  5
2419C
330
18
100
AcDbEntity
  8
0
370
     9
100
AcDbCircle
 10
701.3212781866895
 20
-1937.071362882769
 30
0.0
 40
2.5
  0
CIRCLE
  5
2419D
330
18
100
AcDbEntity
  8
0
370
    20
100
AcDbCircle
 10
701.3212781866895
 20
-1937.091281187075
 30
0.0
 40
2.0
  0
LINE
  5
2419E
330
18
100
AcDbEntity
  8
0
  6
CENTER
 62
     1
 48
0.3
370
    13
100
AcDbLine
 10
697.0729726427503
 20
-2002.071362882769
 30
0.0
 11
705.3599126147523
 21
-2002.071362882769
 31
0.0
  0
LINE
  5
2419F
330
18
100
AcDbEntity
  8
0
  6
CENTER
 62
     1
 48
0.3
370
    13
100
AcDbLine
 10
701.3212781866895
 20
-2005.741576073676
 30
0.0
 11
701.3212781866895
 21
-1998.638270909526
 31
0.0
  0
CIRCLE
  5
241A0
330
18
100
AcDbEntity
  8
0
370
     9
100
AcDbCircle
 10
701.3212781866895
 20
-2002.071362882769
 30
0.0
 40
2.5
  0
CIRCLE
  5
241A1
330
18
100
AcDbEntity
  8
0
370
    20
100
AcDbCircle
 10
701.3212781866895
 20
-2002.079497678612
 30
0.0
 40
2.0
  0
LINE
  5
241A2
330
18
100
AcDbEntity
  8
0
  6
CENTER
 62
     1
 48
0.3
370
    13
100
AcDbLine
 10
761.0729726427503
 20
-1937.071362882769
 30
0.0
 11
769.3599126147524
 21
-1937.071362882769
 31
0.0
  0
LINE
  5
241A3
330
18
100
AcDbEntity
  8
0
  6
CENTER
 62
     1
 48
0.3
370
    13
100
AcDbLine
 10
765.3212781866896
 20
-1940.741576073676
 30
0.0
 11
765.3212781866896
 21
-1933.638270909526
 31
0.0
  0
CIRCLE
  5
241A4
330
18
100
AcDbEntity
  8
0
370
     9
100
AcDbCircle
 10
765.3212781866896
 20
-1937.071362882769
 30
0.0
 40
2.5
  0
CIRCLE
  5
241A5
330
18
100
AcDbEntity
  8
0
370
    20
100
AcDbCircle
 10
765.3212781866896
 20
-1937.091281187075
 30
0.0
 40
2.0
  0
LINE
  5
241A6
330
18
100
AcDbEntity
  8
0
  6
CENTER
 62
     1
 48
0.3
370
    13
100
AcDbLine
 10
761.0729726427503
 20
-2002.071362882769
 30
0.0
 11
769.3599126147524
 21
-2002.071362882769
 31
0.0
  0
LINE
  5
241A7
330
18
100
AcDbEntity
  8
0
  6
CENTER
 62
     1
 48
0.3
370
    13
100
AcDbLine
 10
765.3212781866896
 20
-2005.741576073676
 30
0.0
 11
765.3212781866896
 21
-1998.638270909526
 31
0.0
  0
CIRCLE
  5
241A8
330
18
100
AcDbEntity
  8
0
370
     9
100
AcDbCircle
 10
765.3212781866896
 20
-2002.071362882769
 30
0.0
 40
2.5
  0
CIRCLE
  5
241A9
330
18
100
AcDbEntity
  8
0
370
    20
100
AcDbCircle
 10
765.3212781866896
 20
-2002.079497678612
 30
0.0
 40
2.0
  0
LINE
  5
241DB
330
18
100
AcDbEntity
  8
隠れ線
 48
0.6
370
    13
100
AcDbLine
 10
571.3205422668316
 20
-2082.280491227665
 30
0.0
 11
571.3205422668316
 21
-2092.280491227665
 31
0.0
  0
LINE
  5
241DC
330
18
100
AcDbEntity
  8
隠れ線
 48
0.6
370
    13
100
AcDbLine
 10
571.8205422668317
 20
-2082.280491227665
 30
0.0
 11
571.8205422668317
 21
-2093.780491227664
 31
0.0
  0
LINE
  5
241DD
330
18
100
AcDbEntity
  8
隠れ線
 48
0.6
370
    13
100
AcDbLine
 10
575.3130647576377
 20
-2092.280491227665
 30
0.0
 11
575.3130647576377
 21
-2082.280491227665
 31
0.0
  0
LINE
  5
241DE
330
18
100
AcDbEntity
  8
隠れ線
 48
0.6
370
    13
100
AcDbLine
 10
574.8205422668316
 20
-2082.280491227665
 30
0.0
 11
574.8205422668316
 21
-2093.780491227664
 31
0.0
  0
LINE
  5
241DF
330
18
100
AcDbEntity
  8
0
  6
CENTER
 62
     1
 48
0.6
370
    13
100
AcDbLine
 10
573.3212781866895
 20
-2096.048025196433
 30
0.0
 11
573.3212781866895
 21
-2080.530178525523
 31
0.0
  0
LINE
  5
241E2
330
18
100
AcDbEntity
  8
隠れ線
 48
0.6
370
    13
100
AcDbLine
 10
571.3205422668316
 20
-2092.280491227665
 30
0.0
 11
575.3130647576377
 21
-2092.280491227665
 31
0.0
  0
LINE
  5
241E3
330
18
100
AcDbEntity
  8
隠れ線
 48
0.6
370
    13
100
AcDbLine
 10
571.3205422668316
 20
-2092.280491227665
 30
0.0
 11
571.8205422668317
 21
-2092.969183881936
 31
0.0
  0
LINE
  5
241E4
330
18
100
AcDbEntity
  8
隠れ線
 48
0.6
370
    13
100
AcDbLine
 10
574.8205422668316
 20
-2092.969183881936
 30
0.0
 11
575.3130647576377
 21
-2092.280491227665
 31
0.0
  0
LINE
  5
241E7
330
18
100
AcDbEntity
  8
隠れ線
 48
0.6
370
    13
100
AcDbLine
 10
635.3205422668317
 20
-2082.280491227665
 30
0.0
 11
635.3205422668317
 21
-2092.280491227665
 31
0.0
  0
LINE
  5
241E8
330
18
100
AcDbEntity
  8
隠れ線
 48
0.6
370
    13
100
AcDbLine
 10
635.8205422668317
 20
-2082.280491227665
 30
0.0
 11
635.8205422668317
 21
-2093.780491227664
 31
0.0
  0
LINE
  5
241E9
330
18
100
AcDbEntity
  8
隠れ線
 48
0.6
370
    13
100
AcDbLine
 10
639.3130647576376
 20
-2092.280491227665
 30
0.0
 11
639.3130647576376
 21
-2082.280491227665
 31
0.0
  0
LINE
  5
241EA
330
18
100
AcDbEntity
  8
隠れ線
 48
0.6
370
    13
100
AcDbLine
 10
638.8205422668317
 20
-2082.280491227665
 30
0.0
 11
638.8205422668317
 21
-2093.780491227664
 31
0.0
  0
LINE
  5
241EB
330
18
100
AcDbEntity
  8
0
  6
CENTER
 62
     1
 48
0.6
370
    13
100
AcDbLine
 10
637.3212781866896
 20
-2096.048025196433
 30
0.0
 11
637.3212781866896
 21
-2080.530178525523
 31
0.0
  0
LINE
  5
241EE
330
18
100
AcDbEntity
  8
隠れ線
 48
0.6
370
    13
100
AcDbLine
 10
635.3205422668317
 20
-2092.280491227665
 30
0.0
 11
639.3130647576376
 21
-2092.280491227665
 31
0.0
  0
LINE
  5
241EF
330
18
100
AcDbEntity
  8
隠れ線
 48
0.6
370
    13
100
AcDbLine
 10
635.3205422668317
 20
-2092.280491227665
 30
0.0
 11
635.8205422668317
 21
-2092.969183881936
 31
0.0
  0
LINE
  5
241F0
330
18
100
AcDbEntity
  8
隠れ線
 48
0.6
370
    13
100
AcDbLine
 10
638.8205422668317
 20
-2092.969183881936
 30
0.0
 11
639.3130647576376
 21
-2092.280491227665
 31
0.0
  0
LINE
  5
241F3
330
18
100
AcDbEntity
  8
隠れ線
 48
0.6
370
    13
100
AcDbLine
 10
699.3205422668316
 20
-2082.280491227665
 30
0.0
 11
699.3205422668316
 21
-2092.280491227665
 31
0.0
  0
LINE
  5
241F4
330
18
100
AcDbEntity
  8
隠れ線
 48
0.6
370
    13
100
AcDbLine
 10
699.8205422668316
 20
-2082.280491227665
 30
0.0
 11
699.8205422668316
 21
-2093.780491227664
 31
0.0
  0
LINE
  5
241F5
330
18
100
AcDbEntity
  8
隠れ線
 48
0.6
370
    13
100
AcDbLine
 10
703.3130647576377
 20
-2092.280491227665
 30
0.0
 11
703.3130647576377
 21
-2082.280491227665
 31
0.0
  0
LINE
  5
241F6
330
18
100
AcDbEntity
  8
隠れ線
 48
0.6
370
    13
100
AcDbLine
 10
702.8205422668317
 20
-2082.280491227665
 30
0.0
 11
702.8205422668317
 21
-2093.780491227664
 31
0.0
  0
LINE
  5
241F7
330
18
100
AcDbEntity
  8
0
  6
CENTER
 62
     1
 48
0.6
370
    13
100
AcDbLine
 10
701.3212781866895
 20
-2096.048025196433
 30
0.0
 11
701.3212781866895
 21
-2080.530178525523
 31
0.0
  0
LINE
  5
241FA
330
18
100
AcDbEntity
  8
隠れ線
 48
0.6
370
    13
100
AcDbLine
 10
699.3205422668316
 20
-2092.280491227665
 30
0.0
 11
703.3130647576377
 21
-2092.280491227665
 31
0.0
  0
LINE
  5
241FB
330
18
100
AcDbEntity
  8
隠れ線
 48
0.6
370
    13
100
AcDbLine
 10
699.3205422668316
 20
-2092.280491227665
 30
0.0
 11
699.8205422668316
 21
-2092.969183881936
 31
0.0
  0
LINE
  5
241FC
330
18
100
AcDbEntity
  8
隠れ線
 48
0.6
370
    13
100
AcDbLine
 10
702.8205422668317
 20
-2092.969183881936
 30
0.0
 11
703.3130647576377
 21
-2092.280491227665
 31
0.0
  0
LINE
  5
241FF
330
18
100
AcDbEntity
  8
隠れ線
 48
0.6
370
    13
100
AcDbLine
 10
763.3205422668317
 20
-2082.280491227665
 30
0.0
 11
763.3205422668317
 21
-2092.280491227665
 31
0.0
  0
LINE
  5
24200
330
18
100
AcDbEntity
  8
隠れ線
 48
0.6
370
    13
100
AcDbLine
 10
763.8205422668317
 20
-2082.280491227665
 30
0.0
 11
763.8205422668317
 21
-2093.780491227664
 31
0.0
  0
LINE
  5
24201
330
18
100
AcDbEntity
  8
隠れ線
 48
0.6
370
    13
100
AcDbLine
 10
767.3130647576376
 20
-2092.280491227665
 30
0.0
 11
767.3130647576376
 21
-2082.280491227665
 31
0.0
  0
LINE
  5
24202
330
18
100
AcDbEntity
  8
隠れ線
 48
0.6
370
    13
100
AcDbLine
 10
766.8205422668316
 20
-2082.280491227665
 30
0.0
 11
766.8205422668316
 21
-2093.780491227664
 31
0.0
  0
LINE
  5
24203
330
18
100
AcDbEntity
  8
0
  6
CENTER
 62
     1
 48
0.6
370
    13
100
AcDbLine
 10
765.3212781866896
 20
-2096.048025196433
 30
0.0
 11
765.3212781866896
 21
-2080.530178525523
 31
0.0
  0
LINE
  5
24206
330
18
100
AcDbEntity
  8
隠れ線
 48
0.6
370
    13
100
AcDbLine
 10
763.3205422668317
 20
-2092.280491227665
 30
0.0
 11
767.3130647576376
 21
-2092.280491227665
 31
0.0
  0
LINE
  5
24207
330
18
100
AcDbEntity
  8
隠れ線
 48
0.6
370
    13
100
AcDbLine
 10
763.3205422668317
 20
-2092.280491227665
 30
0.0
 11
763.8205422668317
 21
-2092.969183881936
 31
0.0
  0
LINE
  5
24208
330
18
100
AcDbEntity
  8
隠れ線
 48
0.6
370
    13
100
AcDbLine
 10
766.8205422668316
 20
-2092.969183881936
 30
0.0
 11
767.3130647576376
 21
-2092.280491227665
 31
0.0
  0
LWPOLYLINE
  5
2428F
330
18
100
AcDbEntity
  8
0
370
    50
100
AcDbPolyline
 90
        2
 70
     0
 43
0.0
 10
796.3435005866897
 20
-2108.280491227665
 10
478.3434612064674
 20
-2108.280491227665
  0
LINE
  5
24290
330
18
100
AcDbEntity
  8
隠れ線
 48
0.6
370
    13
100
AcDbLine
 10
478.3434612064674
 20
-2084.280491227665
 30
0.0
 11
796.3435005866897
 21
-2084.280491227665
 31
0.0
  0
LINE
  5
24291
330
18
100
AcDbEntity
  8
隠れ線
 48
0.6
370
    13
100
AcDbLine
 10
478.3434612064674
 20
-2093.780491227664
 30
0.0
 11
796.3435005866897
 21
-2093.780491227664
 31
0.0
  0
CIRCLE
  5
242A3
330
18
100
AcDbEntity
  8
0
  6
HIDDEN
 48
0.6
370
    13
100
AcDbCircle
 10
628.4312781866897
 20
-2089.780491227665
 30
0.0
 40
6.0
  0
CIRCLE
  5
242AA
330
18
100
AcDbEntity
  8
0
  6
HIDDEN
 48
0.6
370
    13
100
AcDbCircle
 10
646.2112781866896
 20
-2089.780491227665
 30
0.0
 40
6.0
  0
CIRCLE
  5
242B1
330
18
100
AcDbEntity
  8
0
  6
HIDDEN
 48
0.6
370
    13
100
AcDbCircle
 10
592.8712781866896
 20
-2089.780491227665
 30
0.0
 40
6.0
  0
CIRCLE
  5
242B8
330
18
100
AcDbEntity
  8
0
  6
HIDDEN
 48
0.6
370
    13
100
AcDbCircle
 10
557.3112781866895
 20
-2089.780491227665
 30
0.0
 40
6.0
  0
CIRCLE
  5
242BF
330
18
100
AcDbEntity
  8
0
  6
HIDDEN
 48
0.6
370
    13
100
AcDbCircle
 10
521.7512781866896
 20
-2089.780491227665
 30
0.0
 40
6.0
  0
CIRCLE
  5
242C6
330
18
100
AcDbEntity
  8
0
  6
HIDDEN
 48
0.6
370
    13
100
AcDbCircle
 10
486.1912781866896
 20
-2089.780491227665
 30
0.0
 40
6.0
  0
CIRCLE
  5
242CD
330
18
100
AcDbEntity
  8
0
  6
HIDDEN
 48
0.6
370
    13
100
AcDbCircle
 10
681.7712781866896
 20
-2089.780491227665
 30
0.0
 40
6.0
  0
CIRCLE
  5
242D4
330
18
100
AcDbEntity
  8
0
  6
HIDDEN
 48
0.6
370
    13
100
AcDbCircle
 10
717.3312781866895
 20
-2089.780491227665
 30
0.0
 40
6.0
  0
CIRCLE
  5
242DB
330
18
100
AcDbEntity
  8
0
  6
HIDDEN
 48
0.6
370
    13
100
AcDbCircle
 10
752.8912781866896
 20
-2089.780491227665
 30
0.0
 40
6.0
  0
CIRCLE
  5
242E2
330
18
100
AcDbEntity
  8
0
  6
HIDDEN
 48
0.6
370
    13
100
AcDbCircle
 10
788.4512781866897
 20
-2089.780491227665
 30
0.0
 40
6.0
  0
LINE
  5
24DD6
330
18
100
AcDbEntity
  8
0
  6
CENTER
 62
     1
 48
0.6
370
    13
100
AcDbLine
 10
820.2972861819091
 20
-1992.571397511128
 30
0.0
 11
802.836211982265
 21
-1992.571397511128
 31
0.0
  0
LINE
  5
24DD7
330
18
100
AcDbEntity
  8
0
  6
CENTER
 62
     1
 48
0.6
370
    13
100
AcDbLine
 10
819.8063443911143
 20
-1968.571397511129
 30
0.0
 11
802.836211982265
 21
-1968.571397511129
 31
0.0
  0
LINE
  5
2531D
330
18
100
AcDbEntity
  8
0
 48
0.3
370
    50
100
AcDbLine
 10
381.0510631210806
 20
-1929.571362882768
 30
0.0
 11
381.0510631210806
 21
-1947.582608025075
 31
0.0
  0
LINE
  5
25321
330
18
100
AcDbEntity
  8
0
 48
0.3
370
    50
100
AcDbLine
 10
381.0510631210807
 20
-1991.588152368822
 30
0.0
 11
381.0510631210807
 21
-2009.571362882768
 31
0.0
  0
LINE
  5
258E7
102
{ACAD_REACTORS
330
25A46
102
}
330
18
100
AcDbEntity
  8
0
  6
PHANTOM
 48
0.6
370
     5
100
AcDbLine
 10
1001.420264140372
 20
-1929.571406747023
 30
0.0
 11
1001.420264140372
 21
-2009.571406747023
 31
0.0
  0
LINE
  5
258E8
330
18
100
AcDbEntity
  8
0
 48
0.3
370
    50
100
AcDbLine
 10
987.4202641403726
 20
-1929.571406747023
 30
0.0
 11
987.4202641403726
 21
-2009.571397511129
 31
0.0
  0
LWPOLYLINE
  5
258E9
102
{ACAD_REACTORS
330
25A46
102
}
330
18
100
AcDbEntity
  8
0
  6
PHANTOM
 48
0.6
370
     5
100
AcDbPolyline
 90
        4
 70
     1
 43
0.0
 10
988.6202641403727
 20
-1944.596451924673
 10
993.6202641403728
 20
-1944.596451924673
 10
993.6202641403728
 20
-1994.571935607677
 10
988.6202641403727
 20
-1994.571935607677
  0
LINE
  5
258EA
102
{ACAD_REACTORS
330
25A46
102
}
330
18
100
AcDbEntity
  8
0
  6
PHANTOM
 48
0.6
370
     5
100
AcDbLine
 10
993.6202641403728
 20
-2009.571406747023
 30
0.0
 11
993.6202641403728
 21
-1929.571406747023
 31
0.0
  0
LINE
  5
258EB
330
18
100
AcDbEntity
  8
0
  6
HIDDEN
 48
0.6
370
    13
100
AcDbLine
 10
961.4202553558467
 20
-2005.599362882768
 30
0.0
 11
961.4202553558467
 21
-1933.599362882768
 31
0.0
  0
LINE
  5
258EC
330
18
100
AcDbEntity
  8
0
  6
CENTER
 62
     1
 48
0.6
370
    13
100
AcDbLine
 10
955.4204433326857
 20
-1963.053413270642
 30
0.0
 11
955.420248608013
 21
-1997.648257177123
 31
0.0
  0
DIMENSION
  5
258ED
330
18
100
AcDbEntity
  8
0
370
    13
100
AcDbDimension
  2
*D64
 10
930.5604907843264
 20
-1968.571397511129
 30
0.0
 11
926.5604907843268
 21
-1980.571397511129
 31
0.0
 70
    32
 71
     5
 42
24.00000000000023
  3
まこ
100
AcDbAlignedDimension
 13
947.4202553558468
 23
-1992.571397511129
 33
0.0
 14
947.4202553558468
 24
-1968.571397511129
 34
0.0
 50
90.0
100
AcDbRotatedDimension
1001
ACAD
1000
DSTYLE
1002
{
1070
   271
1070
     6
1070
   279
1070
     1
1002
}
  0
LINE
  5
258EE
330
18
100
AcDbEntity
  8
0
  6
HIDDEN
 48
0.6
370
    13
100
AcDbLine
 10
949.4202553558467
 20
-1933.599362882768
 30
0.0
 11
949.4202553558467
 21
-2005.599362882768
 31
0.0
  0
LINE
  5
258EF
330
18
100
AcDbEntity
  8
0
 48
0.3
370
    50
100
AcDbLine
 10
947.9202641403727
 20
-1947.571362882768
 30
0.0
 11
947.9202729248987
 21
-1991.571362882768
 31
0.0
  0
DIMENSION
  5
258F0
330
18
100
AcDbEntity
  8
文字
370
    13
100
AcDbDimension
  2
*D63
 10
920.1356786758863
 20
-1991.571362882768
 30
0.0
 11
919.0518735737018
 21
-1969.442628593649
 31
0.0
 70
   160
 71
     5
 42
44.00000000013574
  3
まこ
100
AcDbAlignedDimension
 13
947.4202555332077
 23
-1947.571362882633
 33
0.0
 14
947.4202553558468
 24
-1991.571362882768
 34
0.0
 50
90.0
100
AcDbRotatedDimension
1001
ACAD
1000
DSTYLE
1002
{
1070
   271
1070
     6
1070
   279
1070
     1
1002
}
  0
LEADER
  5
258F1
330
18
100
AcDbEntity
  8
文字
370
    13
100
AcDbLeader
  3
まこ
 73
     0
 74
     0
 75
     1
 40
17.82741116751268
 41
85.21827411167512
 76
     3
 10
998.5202641403727
 20
-2009.571406747023
 30
0.0
 10
987.5243796934187
 20
-2041.584255253181
 30
0.0
 10
992.5243796934188
 20
-2041.584255253181
 30
0.0
340
258F2
213
-2.36702879563677
223
-3.351683380139775
233
0.0
1001
ACAD
1000
DSTYLE
1002
{
1070
   147
1040
0.5
1070
    77
1070
     1
1002
}
  0
MTEXT
  5
258F2
102
{ACAD_REACTORS
330
258F1
102
}
330
18
100
AcDbEntity
  8
文字
370
    13
100
AcDbMText
 10
995.8914084890555
 20
-2037.232571873042
 30
0.0
 40
6.0
 41
0.0
 71
     7
 72
     1
  1
組合せマグネットベース\PＭＢＭＡシリーズ
  7
まこ
 73
     1
 44
1.0
  0
LEADER
  5
258F3
330
18
100
AcDbEntity
  8
0
370
    30
100
AcDbLeader
  3
まこ
 73
     0
 75
     1
 40
17.15736040609137
 41
73.61421319796955
 76
     3
 10
955.4199121613661
 20
-1994.571397511097
 30
0.0
 10
950.7447400739053
 20
-2033.469404409009
 30
0.0
 10
945.7447400739054
 20
-2033.469404409009
 30
0.0
340
258FF
213
-1.14948256248499
223
-1.550246572719061
233
0.0
1001
ACAD
1000
DSTYLE
1002
{
1070
   147
1040
0.5
1070
    77
1070
     1
1002
}
  0
LEADER
  5
258F4
330
18
100
AcDbEntity
  8
0
370
    13
100
AcDbLeader
  3
まこ
 73
     0
 75
     1
 40
7.279187817258882
 41
45.59390862944161
 76
     3
 10
967.7600957282741
 20
-2007.682440805786
 30
0.0
 10
995.6626769380202
 20
-2058.876764973109
 30
0.0
 10
990.6626769380201
 20
-2058.876764973109
 30
0.0
340
25908
213
3.880946547140524
223
-0.3494591469520856
233
0.0
1001
ACAD
1000
DSTYLE
1002
{
1070
   147
1040
0.5
1070
    77
1070
     1
1002
}
  0
LINE
  5
258F5
330
18
100
AcDbEntity
  8
0
  6
CENTER
 62
     1
 48
0.3
370
    13
100
AcDbLine
 10
943.7406190571294
 20
-2002.067254637
 30
0.0
 11
960.60131392654
 21
-2002.067254637
 31
0.0
  0
LINE
  5
258F6
330
18
100
AcDbEntity
  8
0
 48
0.3
370
    50
100
AcDbLine
 10
987.4202641403726
 20
-2009.571362882768
 30
0.0
 11
947.4202641403728
 21
-2009.571362882768
 31
0.0
  0
CIRCLE
  5
258F7
330
18
100
AcDbEntity
  8
0
  6
HIDDEN
 48
0.6
370
    13
100
AcDbCircle
 10
955.4198839497038
 20
-1999.583489921597
 30
0.0
 40
4.0
  0
LINE
  5
258F8
330
18
100
AcDbEntity
  8
0
  6
CENTER
 62
     1
 48
0.6
370
    13
100
AcDbLine
 10
943.7406190571294
 20
-2002.067254637
 30
0.0
 11
960.60131392654
 21
-2002.067254637
 31
0.0
  0
LINE
  5
258F9
330
18
100
AcDbEntity
  8
0
  6
HIDDEN
 48
0.6
370
    13
100
AcDbLine
 10
949.4202553558467
 20
-2005.599362882768
 30
0.0
 11
961.4202553558467
 21
-2005.599362882768
 31
0.0
  0
LINE
  5
258FA
330
18
100
AcDbEntity
  8
0
  6
CENTER
 62
     1
 48
0.6
370
    13
100
AcDbLine
 10
964.8813295554907
 20
-1992.571362882769
 30
0.0
 11
947.4202553558466
 21
-1992.571362882769
 31
0.0
  0
CIRCLE
  5
258FB
330
18
100
AcDbEntity
  8
0
370
     9
100
AcDbCircle
 10
955.4202771842319
 20
-1992.571362882769
 30
0.0
 40
2.0
  0
CIRCLE
  5
258FC
330
18
100
AcDbEntity
  8
0
370
    20
100
AcDbCircle
 10
955.4202771842319
 20
-1992.571362882769
 30
0.0
 40
1.6
  0
DIMENSION
  5
258FD
330
18
100
AcDbEntity
  8
0
370
    13
100
AcDbDimension
  2
*D57
 10
955.4202641403728
 20
-2044.912599500098
 30
0.0
 11
951.4202641403727
 21
-2040.912599500098
 31
0.0
 70
    32
 71
     5
 42
8.0
  3
まこ
100
AcDbAlignedDimension
 13
947.4202641403728
 23
-2009.571362882768
 33
0.0
 14
955.4202641403728
 24
-1997.648257177123
 34
0.0
100
AcDbRotatedDimension
1001
ACAD
1000
DSTYLE
1002
{
1070
   271
1070
     8
1002
}
  0
DIMENSION
  5
258FE
330
18
100
AcDbEntity
  8
文字
370
    13
100
AcDbDimension
  2
*D62
 10
920.1356786758863
 20
-2009.571362882768
 30
0.0
 11
920.1356786758866
 21
-2000.571362882769
 31
0.0
 70
   160
  1
（<>）
 71
     5
 42
18.0
  3
まこ
100
AcDbAlignedDimension
 13
947.4202553558468
 23
-1991.571362882768
 33
0.0
 14
947.4202553558468
 24
-2009.571362882768
 34
0.0
 50
90.0
100
AcDbRotatedDimension
1001
ACAD
1000
DSTYLE
1002
{
1070
   271
1070
     8
1002
}
  0
MTEXT
  5
258FF
102
{ACAD_REACTORS
330
258F3
102
}
330
18
100
AcDbEntity
  8
0
370
    13
100
AcDbMText
 10
945.8942226363904
 20
-2030.91915783629
 30
0.0
 40
6.0
 41
0.0
 71
     9
 72
     1
  1
\A1;2-M4ﾈｼﾞ深10\Pｵﾌﾟｼｮﾝ磁極ｾﾝｻ取付用
  7
まこ
 73
     1
 44
1.0
  0
DIMENSION
  5
25900
330
18
100
AcDbEntity
  8
0
370
    13
100
AcDbDimension
  2
*D65
 10
930.5604907843264
 20
-1992.571397511129
 30
0.0
 11
926.5604907843268
 21
-2001.071397511128
 31
0.0
 70
    32
 71
     5
 42
16.99999999999977
  3
まこ
100
AcDbAlignedDimension
 13
947.4202553558468
 23
-2009.571397511129
 33
0.0
 14
947.4202553558468
 24
-1992.571397511129
 34
0.0
 50
90.0
100
AcDbRotatedDimension
1001
ACAD
1000
DSTYLE
1002
{
1070
   271
1070
     6
1002
}
  0
LINE
  5
25901
330
18
100
AcDbEntity
  8
0
 62
     4
370
    13
100
AcDbLine
 10
947.4202553558468
 20
-2044.912599500098
 30
0.0
 11
955.4198948425861
 21
-2044.912599500098
 31
0.0
  0
LINE
  5
25902
330
18
100
AcDbEntity
  8
0
 48
0.3
370
    50
100
AcDbLine
 10
947.9202729248987
 20
-1991.571362882768
 30
0.0
 11
947.4202641403728
 21
-1991.571362882768
 31
0.0
  0
LINE
  5
25903
330
18
100
AcDbEntity
  8
0
 48
0.3
370
    50
100
AcDbLine
 10
947.4202641403728
 20
-1991.571362882768
 30
0.0
 11
947.4202641403728
 21
-2009.571362882768
 31
0.0
  0
LINE
  5
25904
330
18
100
AcDbEntity
  8
0
  6
CENTER
 62
     1
 48
0.6
370
    13
100
AcDbLine
 10
1011.298145251515
 20
-2002.072062882768
 30
0.0
 11
984.33783978244
 21
-2002.072062882768
 31
0.0
  0
LINE
  5
25907
102
{ACAD_REACTORS
330
25A46
102
}
330
18
100
AcDbEntity
  8
0
  6
PHANTOM
 48
0.6
370
     5
100
AcDbLine
 10
1001.420264140372
 20
-2009.571406747023
 30
0.0
 11
993.6202641403728
 21
-2009.571406747023
 31
0.0
  0
MTEXT
  5
25908
102
{ACAD_REACTORS
330
258F4
102
}
330
18
100
AcDbEntity
  8
0
 62
     2
370
    13
100
AcDbMText
 10
940.1878217614379
 20
-2057.527305826158
 30
0.0
 40
6.0
 41
0.0
 71
     7
 72
     1
  1
\A1;ケーブル位置
  7
まこ
 73
     1
 44
1.0
  0
LINE
  5
25921
330
18
100
AcDbEntity
  8
0
  6
CENTER
 62
     1
 48
0.6
370
    13
100
AcDbLine
 10
935.5776686414305
 20
-1969.571362882768
 30
0.0
 11
1012.635777979242
 21
-1969.571362882768
 31
0.0
  0
DIMENSION
  5
25922
330
18
100
AcDbEntity
  8
文字
370
    13
100
AcDbDimension
  2
*D60
 10
947.9202641403727
 20
-1960.646859127236
 30
0.0
 11
930.1345498546583
 21
-1960.646859127236
 31
0.0
 70
   160
 71
     5
 42
0.5000000000001137
  3
まこ
100
AcDbAlignedDimension
 13
947.4202641403726
 23
-1947.582608025075
 33
0.0
 14
947.9202641403727
 24
-1947.582608025075
 34
0.0
100
AcDbRotatedDimension
1001
ACAD
1000
DSTYLE
1002
{
1070
   271
1070
     8
1002
}
  0
LINE
  5
25923
330
18
100
AcDbEntity
  8
0
 48
0.3
370
    50
100
AcDbLine
 10
947.4202641403728
 20
-1929.571362882768
 30
0.0
 11
987.4202641403726
 21
-1929.571362882768
 31
0.0
  0
DIMENSION
  5
25924
330
18
100
AcDbEntity
  8
文字
370
    13
100
AcDbDimension
  2
*D59
 10
987.4202641403726
 20
-1893.560757503226
 30
0.0
 11
967.4202641403727
 21
-1889.560757503225
 31
0.0
 70
    32
 71
     5
 42
40.0
  3
まこ
100
AcDbAlignedDimension
 13
947.4202641403728
 23
-1929.571406747023
 33
0.0
 14
987.4202641403726
 24
-1929.571406747023
 34
0.0
100
AcDbRotatedDimension
1001
ACAD
1000
DSTYLE
1002
{
1070
   271
1070
     8
1002
}
  0
DIMENSION
  5
25925
330
18
100
AcDbEntity
  8
文字
370
    13
100
AcDbDimension
  2
*D58
 10
1001.420264140372
 20
-1867.376641522335
 30
0.0
 11
974.4202641403727
 21
-1867.376641522335
 31
0.0
 70
   160
  1
<>（取付寸法）
 71
     5
 42
54.0
  3
まこ
100
AcDbAlignedDimension
 13
947.4202641403728
 23
-1929.571406747023
 33
0.0
 14
1001.420264140372
 24
-1929.571406747023
 34
0.0
100
AcDbRotatedDimension
1001
ACAD
1000
DSTYLE
1002
{
1070
   271
1070
     8
1002
}
  0
CIRCLE
  5
25926
330
18
100
AcDbEntity
  8
0
  6
HIDDEN
 48
0.6
370
    13
100
AcDbCircle
 10
955.4198839497038
 20
-1939.583489921597
 30
0.0
 40
4.0
  0
LINE
  5
25927
330
18
100
AcDbEntity
  8
0
  6
CENTER
 62
     1
 48
0.6
370
    13
100
AcDbLine
 10
943.7406190571294
 20
-1937.095389432843
 30
0.0
 11
965.7166709622073
 21
-1937.095389432843
 31
0.0
  0
LINE
  5
25928
330
18
100
AcDbEntity
  8
0
 62
     4
370
    13
100
AcDbLine
 10
947.4202553558468
 20
-1867.376641522335
 30
0.0
 11
1001.420264140372
 21
-1867.376641522335
 31
0.0
  0
LINE
  5
25929
330
18
100
AcDbEntity
  8
0
  6
HIDDEN
 48
0.6
370
    13
100
AcDbLine
 10
961.4202553558467
 20
-1933.599362882768
 30
0.0
 11
949.4202553558467
 21
-1933.599362882768
 31
0.0
  0
LINE
  5
2592A
330
18
100
AcDbEntity
  8
0
  6
CENTER
 62
     1
 48
0.6
370
    13
100
AcDbLine
 10
964.3907284860686
 20
-1968.571362882769
 30
0.0
 11
947.4205960772193
 21
-1968.571362882769
 31
0.0
  0
CIRCLE
  5
2592B
330
18
100
AcDbEntity
  8
0
370
    20
100
AcDbCircle
 10
955.4202771842318
 20
-1968.571362882769
 30
0.0
 40
1.6
  0
CIRCLE
  5
2592C
330
18
100
AcDbEntity
  8
0
370
     9
100
AcDbCircle
 10
955.4202771842318
 20
-1968.571362882769
 30
0.0
 40
2.0
  0
DIMENSION
  5
2592D
330
18
100
AcDbEntity
  8
文字
370
    13
100
AcDbDimension
  2
*D61
 10
920.1356786758863
 20
-1947.571362882768
 30
0.0
 11
920.1356786758866
 21
-1938.571362882768
 31
0.0
 70
   160
  1
（<>）
 71
     5
 42
18.0
  3
まこ
100
AcDbAlignedDimension
 13
947.4202641403728
 23
-1929.571362882768
 33
0.0
 14
947.4202553558468
 24
-1947.571362882768
 34
0.0
 50
90.0
100
AcDbRotatedDimension
1001
ACAD
1000
DSTYLE
1002
{
1070
   271
1070
     6
1002
}
  0
LINE
  5
2592E
330
18
100
AcDbEntity
  8
0
 48
0.3
370
    50
100
AcDbLine
 10
947.4202641403728
 20
-1929.571362882768
 30
0.0
 11
947.4202641403726
 21
-1947.571362882768
 31
0.0
  0
LINE
  5
2592F
330
18
100
AcDbEntity
  8
0
 48
0.3
370
    50
100
AcDbLine
 10
947.4202641403728
 20
-1947.571362882768
 30
0.0
 11
947.9202641403743
 21
-1947.571370768877
 31
0.0
  0
LINE
  5
25930
330
18
100
AcDbEntity
  8
0
 62
     4
370
    13
100
AcDbLine
 10
947.4202553558468
 20
-1960.646859127236
 30
0.0
 11
947.9210957970675
 21
-1960.646859127236
 31
0.0
  0
LINE
  5
25931
330
18
100
AcDbEntity
  8
0
  6
CENTER
 62
     1
 48
0.6
370
    13
100
AcDbLine
 10
1011.298145251515
 20
-1937.072062882768
 30
0.0
 11
984.3799839062331
 21
-1937.072062882768
 31
0.0
  0
DIMENSION
  5
25932
330
18
100
AcDbEntity
  8
文字
370
    13
100
AcDbDimension
  2
*D68
 10
1001.420264140372
 20
-1893.560757503226
 30
0.0
 11
1020.991692711801
 21
-1889.560757503225
 31
0.0
 70
    32
 71
     5
 42
12.79999999999995
  3
まこ
100
AcDbAlignedDimension
 13
988.6202641403727
 23
-1944.596451924673
 33
0.0
 14
1001.420264140372
 24
-1929.571406747023
 34
0.0
100
AcDbRotatedDimension
1001
ACAD
1000
DSTYLE
1002
{
1070
   172
1070
     1
1070
   343
1005
153E2
1070
   342
1005
0
1070
   173
1070
     1
1070
   344
1005
1215D
1002
}
  0
DIMENSION
  5
25933
330
18
100
AcDbEntity
  8
文字
370
    13
100
AcDbDimension
  2
*D67
 10
988.6202641403727
 20
-1893.560757503226
 30
0.0
 11
956.1312533418767
 21
-1879.631607550611
 31
0.0
 70
   160
 71
     5
 42
1.200000000000045
  3
まこ
100
AcDbAlignedDimension
 13
987.4202641403726
 23
-1929.571406747023
 33
0.0
 14
988.6202641403727
 24
-1944.596451924673
 34
0.0
100
AcDbRotatedDimension
1001
ACAD
1000
DSTYLE
1002
{
1070
   344
1005
153E2
1070
   342
1005
0
1070
   173
1070
     1
1070
   343
1005
1215D
1070
   271
1070
     8
1070
   279
1070
     2
1002
}
  0
LINE
  5
25936
102
{ACAD_REACTORS
330
25A46
102
}
330
18
100
AcDbEntity
  8
0
  6
PHANTOM
 48
0.6
370
     5
100
AcDbLine
 10
993.6202641403728
 20
-1929.571406747023
 30
0.0
 11
1001.420264140372
 21
-1929.571406747023
 31
0.0
  0
DIMENSION
  5
25937
330
18
100
AcDbEntity
  8
文字
370
    13
100
AcDbDimension
  2
*D66
 10
1001.420264140372
 20
-1906.048021535481
 30
0.0
 11
1018.705978426087
 21
-1902.048021535481
 31
0.0
 70
    32
 71
     5
 42
7.799999999999954
  3
まこ
100
AcDbAlignedDimension
 13
993.6202641403728
 23
-1929.571406747023
 33
0.0
 14
1001.420264140372
 24
-1929.571406747023
 34
0.0
100
AcDbRotatedDimension
1001
ACAD
1000
DSTYLE
1002
{
1070
   271
1070
     8
1002
}
  0
LINE
  5
25938
330
18
100
AcDbEntity
  8
0
 62
     4
370
    13
100
AcDbLine
 10
951.4035103577986
 20
-1883.204164858209
 30
0.0
 11
986.666085822452
 21
-1883.204164858209
 31
0.0
  0
LINE
  5
25939
330
18
100
AcDbEntity
  8
0
 62
     4
370
    13
100
AcDbLine
 10
993.6202641403728
 20
-1906.048021535481
 30
0.0
 11
1001.420264140372
 21
-1906.048021535481
 31
0.0
  0
LINE
  5
2593A
330
18
100
AcDbEntity
  8
0
 62
     4
370
    13
100
AcDbLine
 10
987.4202641403726
 20
-1893.560757503226
 30
0.0
 11
988.4202641403728
 21
-1893.560757503226
 31
0.0
  0
LINE
  5
2593B
330
18
100
AcDbEntity
  8
0
 62
     4
370
    13
100
AcDbLine
 10
987.9202641403727
 20
-1893.560757503226
 30
0.0
 11
986.666085822452
 21
-1883.204164858209
 31
0.0
  0
TEXT
  5
2593C
330
18
100
AcDbEntity
  8
文字
370
    13
100
AcDbText
 10
961.702953623317
 20
-1882.485252843404
 30
0.0
 40
6.0
  1
（ギャップ）
 41
0.6
  7
ｽﾀｲﾙ3
100
AcDbText
  0
TEXT
  5
25B0F
330
18
100
AcDbEntity
  8
文字
370
    13
100
AcDbText
 10
1033.34326830596
 20
-1890.739678549202
 30
0.0
 40
6.0
  1
注：1
 41
0.6
  7
ｽﾀｲﾙ3
100
AcDbText
  0
TEXT
  5
25B13
330
18
100
AcDbEntity
  8
文字
370
    13
100
AcDbText
 10
988.293475397757
 20
-1882.873737169945
 30
0.0
 40
6.0
  1
注：1
 41
0.6
  7
ｽﾀｲﾙ3
100
AcDbText
  0
LINE
  5
25B1E
330
18
100
AcDbEntity
  8
隠れ線
  6
HIDDEN
 48
0.6
370
     5
100
AcDbLine
 10
1001.420264140372
 20
-1934.072062882768
 30
0.0
 11
993.6202641403728
 21
-1934.072062882768
 31
0.0
  0
LINE
  5
25B1F
330
18
100
AcDbEntity
  8
隠れ線
  6
HIDDEN
 48
0.6
370
     5
100
AcDbLine
 10
1001.420264140372
 20
-1940.072062882769
 30
0.0
 11
993.6202641403728
 21
-1940.072062882769
 31
0.0
  0
LINE
  5
25B20
330
18
100
AcDbEntity
  8
隠れ線
  6
HIDDEN
 48
0.6
370
     5
100
AcDbLine
 10
1001.420264140372
 20
-1999.072062882768
 30
0.0
 11
993.6202641403729
 21
-1999.072062882768
 31
0.0
  0
LINE
  5
25B21
330
18
100
AcDbEntity
  8
隠れ線
  6
HIDDEN
 48
0.6
370
     5
100
AcDbLine
 10
1001.420264140372
 20
-2005.072062882768
 30
0.0
 11
993.6202641403729
 21
-2005.072062882768
 31
0.0
  0
LINE
  5
25B42
330
18
100
AcDbEntity
  8
隠れ線
 48
0.6
370
     5
100
AcDbLine
 10
327.0510631210806
 20
-1934.072062882768
 30
0.0
 11
334.8510631210804
 21
-1934.072062882768
 31
0.0
  0
LINE
  5
25B43
330
18
100
AcDbEntity
  8
隠れ線
 48
0.6
370
     5
100
AcDbLine
 10
327.0510631210806
 20
-1940.072062882769
 30
0.0
 11
334.8510631210804
 21
-1940.072062882768
 31
0.0
  0
LINE
  5
25B44
330
18
100
AcDbEntity
  8
隠れ線
 48
0.6
370
     5
100
AcDbLine
 10
327.0510631210806
 20
-1999.072062882768
 30
0.0
 11
334.8510631210804
 21
-1999.072062882768
 31
0.0
  0
LINE
  5
25B45
330
18
100
AcDbEntity
  8
隠れ線
 48
0.6
370
     5
100
AcDbLine
 10
327.0510631210806
 20
-2005.072062882768
 30
0.0
 11
334.8510631210804
 21
-2005.072062882768
 31
0.0
  0
LINE
  5
25C82
330
18
100
AcDbEntity
  8
0
370
    50
100
AcDbLine
 10
880.5211941032947
 20
-1998.629469325068
 30
0.0
 11
891.3711265714447
 21
-1998.629469325068
 31
0.0
  0
LINE
  5
25C83
330
18
100
AcDbEntity
  8
0
370
    50
100
AcDbLine
 10
880.5211941032947
 20
-2008.626555839091
 30
0.0
 11
893.5154893565968
 21
-2008.626555839091
 31
0.0
  0
LINE
  5
25C84
330
18
100
AcDbEntity
  8
0
 48
10.0
370
    50
100
AcDbLine
 10
831.3212805776069
 20
-2008.071359569187
 30
0.0
 11
811.321280577607
 21
-2008.071359569187
 31
0.0
  0
LINE
  5
25C85
330
18
100
AcDbEntity
  8
0
 48
10.0
370
    50
100
AcDbLine
 10
811.321280577607
 20
-1999.071359569187
 30
0.0
 11
831.3212805776069
 21
-1999.071359569187
 31
0.0
  0
LINE
  5
25C86
330
18
100
AcDbEntity
  8
0
  6
CENTER
 62
     1
 48
0.45
370
    13
100
AcDbLine
 10
807.189853062578
 20
-2003.571359569187
 30
0.0
 11
875.3517629060565
 21
-2003.571359569187
 31
0.0
  0
LINE
  5
25C87
330
18
100
AcDbEntity
  8
0
370
    50
100
AcDbLine
 10
831.3212805776069
 20
-1999.821359569187
 30
0.0
 11
857.1661216737309
 21
-1999.821359569187
 31
0.0
  0
LINE
  5
25C88
330
18
100
AcDbEntity
  8
0
370
    50
100
AcDbLine
 10
854.8322771849075
 20
-2007.321359569187
 30
0.0
 11
831.3212805776069
 21
-2007.321359569187
 31
0.0
  0
LINE
  5
25C8B
330
18
100
AcDbEntity
  8
0
370
    50
100
AcDbLine
 10
831.3212805776069
 20
-2007.310068443613
 30
0.0
 11
831.3212805776069
 21
-1999.832650694761
 31
0.0
  0
LINE
  5
25C8C
330
18
100
AcDbEntity
  8
0
370
    50
100
AcDbLine
 10
831.3212805776069
 20
-1999.071359569187
 30
0.0
 11
831.3212805776069
 21
-2008.071359569187
 31
0.0
  0
LINE
  5
25C8D
330
18
100
AcDbEntity
  8
0
370
    50
100
AcDbLine
 10
874.4948200376267
 20
-2007.321359569187
 30
0.0
 11
859.5260999335296
 21
-2007.321359569187
 31
0.0
  0
LINE
  5
25C8E
330
18
100
AcDbEntity
  8
0
370
    50
100
AcDbLine
 10
861.859944422353
 20
-1999.821359569187
 30
0.0
 11
874.4948200376265
 21
-1999.821359569187
 31
0.0
  0
LINE
  5
25C8F
330
18
100
AcDbEntity
  8
0
  6
CENTER
 62
     1
 48
0.45
370
    13
100
AcDbLine
 10
864.8193738781378
 20
-1990.350917680786
 30
0.0
 11
856.2256675614417
 21
-2017.884342657734
 31
0.0
  0
LINE
  5
25C90
330
18
100
AcDbEntity
  8
0
  6
CENTER
 62
     1
 48
0.45
370
    13
100
AcDbLine
 10
860.1255511295157
 20
-1990.350917680786
 30
0.0
 11
851.5318448128196
 21
-2017.884342657734
 31
0.0
  0
LINE
  5
25C91
330
18
100
AcDbEntity
  8
0
370
    50
100
AcDbLine
 10
874.4948200376265
 20
-2002.299968788249
 30
0.0
 11
879.5154893565968
 21
-2002.299968788249
 31
0.0
  0
LINE
  5
25C92
330
18
100
AcDbEntity
  8
0
370
    50
100
AcDbLine
 10
874.4948200376265
 20
-2003.571359569187
 30
0.0
 11
879.5057670910011
 21
-2003.571359569187
 31
0.0
  0
LINE
  5
25C93
330
18
100
AcDbEntity
  8
0
370
    50
100
AcDbLine
 10
874.4948200376265
 20
-2004.88815784117
 30
0.0
 11
879.5154893565968
 21
-2004.88815784117
 31
0.0
  0
LWPOLYLINE
  5
25C94
330
18
100
AcDbEntity
  8
0
370
    50
100
AcDbPolyline
 90
        4
 70
     1
 43
0.0
 10
874.4948200376265
 20
-2000.985677602106
 10
879.5154893565968
 20
-2000.985677602106
 10
879.5154893565968
 20
-2006.276940807152
 10
874.4948200376267
 20
-2006.276940807152
  0
LINE
  5
25C95
330
18
100
AcDbEntity
  8
0
370
    50
100
AcDbLine
 10
874.4948200376265
 20
-1999.821359569187
 30
0.0
 11
874.4948200376267
 21
-2007.321359569187
 31
0.0
  0
LINE
  5
25C96
330
18
100
AcDbEntity
  8
0
370
    50
100
AcDbLine
 10
880.5211941032947
 20
-1997.629469325069
 30
0.0
 11
880.5211941032947
 21
-1998.629469325068
 31
0.0
  0
LINE
  5
25C97
330
18
100
AcDbEntity
  8
0
370
    50
100
AcDbLine
 10
880.5211941032947
 20
-2009.629469325068
 30
0.0
 11
880.5211941032947
 21
-2008.626555839091
 31
0.0
  0
LWPOLYLINE
  5
25C98
330
18
100
AcDbEntity
  8
0
370
    50
100
AcDbPolyline
 90
        4
 70
     0
 43
0.0
 10
880.5211941032947
 20
-2009.629469325068
 10
879.5154893565968
 20
-2009.629469325068
 10
879.5154893565968
 20
-1997.629469325069
 10
880.5211941032947
 20
-1997.629469325069
  0
LWPOLYLINE
  5
25C99
330
18
100
AcDbEntity
  8
0
370
    50
100
AcDbPolyline
 90
        5
 70
     0
 43
0.0
 10
893.5154893565968
 20
-2000.465188807808
 10
893.5154893565968
 20
-1999.629469325069
 10
902.5154893565968
 20
-1999.629469325069
 10
902.5154893565968
 20
-2003.125573185288
 10
898.5303980750655
 20
-2003.125573185288
  0
LWPOLYLINE
  5
25C9A
330
18
100
AcDbEntity
  8
0
370
    50
100
AcDbPolyline
 90
        5
 70
     0
 43
0.0
 10
898.5303980750655
 20
-2004.137548311691
 10
902.5154893565968
 20
-2004.137548311691
 10
902.5154893565968
 20
-2007.626555839091
 10
893.5154893565968
 20
-2007.626555839091
 10
893.5154893565968
 20
-2006.751792454066
  0
LINE
  5
25C9B
330
18
100
AcDbEntity
  8
0
370
    50
100
AcDbLine
 10
891.3711265714447
 20
-1998.629469325068
 30
0.0
 11
893.5154893565968
 21
-1998.629469325068
 31
0.0
  0
LINE
  5
25C9C
330
18
100
AcDbEntity
  8
0
370
    50
100
AcDbLine
 10
893.0711264212934
 20
-2007.103745405611
 30
0.0
 11
895.5271784391356
 21
-2005.158455445193
 31
0.0
  0
LINE
  5
25C9D
330
18
100
AcDbEntity
  8
0
370
    50
100
AcDbLine
 10
895.5271784391356
 20
-2002.011663073778
 30
0.0
 11
893.0711264212934
 21
-2000.123587389298
 31
0.0
  0
LINE
  5
25C9E
330
18
100
AcDbEntity
  8
0
370
    50
100
AcDbLine
 10
886.5253002639651
 20
-2003.125573185288
 30
0.0
 11
895.5271784391356
 21
-2003.125573185288
 31
0.0
  0
LINE
  5
25C9F
330
18
100
AcDbEntity
  8
0
370
    50
100
AcDbLine
 10
895.5271784391356
 20
-2004.137548311691
 30
0.0
 11
886.5253002639651
 21
-2004.137548311691
 31
0.0
  0
LINE
  5
25CA0
330
18
100
AcDbEntity
  8
0
370
    50
100
AcDbLine
 10
886.5253002639651
 20
-2000.123587389298
 30
0.0
 11
886.5253002639651
 21
-2003.125573185288
 31
0.0
  0
LINE
  5
25CA1
330
18
100
AcDbEntity
  8
0
370
    50
100
AcDbLine
 10
885.5272896218689
 20
-2000.123587389298
 30
0.0
 11
885.5272896218689
 21
-2007.103745405611
 31
0.0
  0
LINE
  5
25CA2
330
18
100
AcDbEntity
  8
0
370
    50
100
AcDbLine
 10
886.5253002639651
 20
-2004.137548311691
 30
0.0
 11
886.5253002639651
 21
-2007.103745405611
 31
0.0
  0
LINE
  5
25CA3
330
18
100
AcDbEntity
  8
0
370
    50
100
AcDbLine
 10
893.0711264212934
 20
-2000.123587389298
 30
0.0
 11
885.5272896218689
 21
-2000.123587389298
 31
0.0
  0
LINE
  5
25CA4
330
18
100
AcDbEntity
  8
0
370
    50
100
AcDbLine
 10
885.5272896218689
 20
-2007.103745405611
 30
0.0
 11
893.0711264212934
 21
-2007.103745405611
 31
0.0
  0
LINE
  5
25CA5
330
18
100
AcDbEntity
  8
0
370
    50
100
AcDbLine
 10
898.5303980750655
 20
-2005.158455445193
 30
0.0
 11
898.5303980750655
 21
-2002.011663073778
 31
0.0
  0
LINE
  5
25CA6
330
18
100
AcDbEntity
  8
0
370
    50
100
AcDbLine
 10
895.5271784391356
 20
-2003.125573185288
 30
0.0
 11
895.5271784391356
 21
-2004.137548311691
 31
0.0
  0
LINE
  5
25CA7
330
18
100
AcDbEntity
  8
0
370
    50
100
AcDbLine
 10
893.5154893565968
 20
-2006.751792454066
 30
0.0
 11
893.5154893565968
 21
-2008.626555839091
 31
0.0
  0
LWPOLYLINE
  5
25CA8
330
18
100
AcDbEntity
  8
0
370
    50
100
AcDbPolyline
 90
        2
 70
     0
 43
0.0
 10
895.5271784391356
 20
-2003.125573185288
 10
893.5154893565968
 20
-2003.125573185288
  0
LWPOLYLINE
  5
25CA9
330
18
100
AcDbEntity
  8
0
370
    50
100
AcDbPolyline
 90
        2
 70
     0
 43
0.0
 10
893.5154893565968
 20
-2004.137548311691
 10
895.5271784391356
 20
-2004.137548311691
  0
LINE
  5
25CAA
330
18
100
AcDbEntity
  8
0
370
    50
100
AcDbLine
 10
893.5154893565968
 20
-1998.629469325068
 30
0.0
 11
893.5154893565968
 21
-2000.465188807808
 31
0.0
  0
LINE
  5
25CAB
330
18
100
AcDbEntity
  8
0
370
    50
100
AcDbLine
 10
898.5303980750655
 20
-2002.011663073778
 30
0.0
 11
895.5271784391356
 21
-2002.011663073778
 31
0.0
  0
LINE
  5
25CAC
330
18
100
AcDbEntity
  8
0
370
    50
100
AcDbLine
 10
895.5271784391356
 20
-2005.158455445193
 30
0.0
 11
898.5303980750655
 21
-2005.158455445193
 31
0.0
  0
LINE
  5
25CAD
330
18
100
AcDbEntity
  8
0
 48
10.0
370
    50
100
AcDbLine
 10
811.321280577607
 20
-1999.071359569187
 30
0.0
 11
811.321280577607
 21
-2008.071359569187
 31
0.0
  0
LINE
  5
25CEE
330
18
100
AcDbEntity
  8
0
370
    50
100
AcDbLine
 10
880.5211941032945
 20
-2097.338600983547
 30
0.0
 11
891.3711265714445
 21
-2097.338600983547
 31
0.0
  0
LINE
  5
25CEF
330
18
100
AcDbEntity
  8
0
370
    50
100
AcDbLine
 10
880.5211941032945
 20
-2107.335687497569
 30
0.0
 11
893.5154893565966
 21
-2107.335687497569
 31
0.0
  0
LINE
  5
25CF0
330
18
100
AcDbEntity
  8
0
  6
CENTER
 62
     1
 48
0.45
370
    13
100
AcDbLine
 10
807.189853062578
 20
-2102.280491227665
 30
0.0
 11
875.3517629060565
 21
-2102.280491227665
 31
0.0
  0
LINE
  5
25CF1
330
18
100
AcDbEntity
  8
0
 48
10.0
370
    50
100
AcDbLine
 10
831.3212805776069
 20
-2106.780491227665
 30
0.0
 11
811.3212805776068
 21
-2106.780491227665
 31
0.0
  0
LINE
  5
25CF2
330
18
100
AcDbEntity
  8
0
 48
10.0
370
    50
100
AcDbLine
 10
811.3212805776068
 20
-2097.780491227665
 30
0.0
 11
831.3212805776069
 21
-2097.780491227665
 31
0.0
  0
LINE
  5
25CF3
330
18
100
AcDbEntity
  8
0
370
    50
100
AcDbLine
 10
831.3212805776069
 20
-2098.530491227665
 30
0.0
 11
857.1661216737307
 21
-2098.530491227665
 31
0.0
  0
LINE
  5
25CF4
330
18
100
AcDbEntity
  8
0
370
    50
100
AcDbLine
 10
854.8322771849074
 20
-2106.030491227665
 30
0.0
 11
831.3212805776069
 21
-2106.030491227665
 31
0.0
  0
LINE
  5
25CF6
330
18
100
AcDbEntity
  8
0
370
    50
100
AcDbLine
 10
831.3212805776069
 20
-2097.780491227665
 30
0.0
 11
831.3212805776069
 21
-2106.780491227665
 31
0.0
  0
LINE
  5
25CF7
330
18
100
AcDbEntity
  8
0
370
    50
100
AcDbLine
 10
831.3212805776069
 20
-2106.01920010209
 30
0.0
 11
831.3212805776069
 21
-2098.541782353239
 31
0.0
  0
LINE
  5
25CF9
330
18
100
AcDbEntity
  8
0
370
    50
100
AcDbLine
 10
861.8599444223528
 20
-2098.530491227665
 30
0.0
 11
874.4948200376265
 21
-2098.530491227665
 31
0.0
  0
LINE
  5
25CFA
330
18
100
AcDbEntity
  8
0
370
    50
100
AcDbLine
 10
874.4948200376265
 20
-2106.030491227665
 30
0.0
 11
859.5260999335296
 21
-2106.030491227665
 31
0.0
  0
LINE
  5
25CFB
330
18
100
AcDbEntity
  8
0
  6
CENTER
 62
     1
 48
0.45
370
    13
100
AcDbLine
 10
864.8193738781378
 20
-2089.060049339265
 30
0.0
 11
856.2256675614415
 21
-2116.593474316211
 31
0.0
  0
LINE
  5
25CFC
330
18
100
AcDbEntity
  8
0
  6
CENTER
 62
     1
 48
0.45
370
    13
100
AcDbLine
 10
860.1255511295157
 20
-2089.060049339265
 30
0.0
 11
851.5318448128194
 21
-2116.593474316211
 31
0.0
  0
LWPOLYLINE
  5
25CFD
330
18
100
AcDbEntity
  8
0
370
    50
100
AcDbPolyline
 90
        4
 70
     0
 43
0.0
 10
880.5211941032945
 20
-2108.338600983546
 10
879.5154893565968
 20
-2108.338600983546
 10
879.5154893565968
 20
-2096.338600983546
 10
880.5211941032945
 20
-2096.338600983546
  0
LINE
  5
25CFE
330
18
100
AcDbEntity
  8
0
370
    50
100
AcDbLine
 10
874.4948200376263
 20
-2098.530491227665
 30
0.0
 11
874.4948200376265
 21
-2106.030491227665
 31
0.0
  0
LINE
  5
25CFF
330
18
100
AcDbEntity
  8
0
370
    50
100
AcDbLine
 10
874.4948200376265
 20
-2101.009100446726
 30
0.0
 11
879.5154893565968
 21
-2101.009100446726
 31
0.0
  0
LINE
  5
25D00
330
18
100
AcDbEntity
  8
0
370
    50
100
AcDbLine
 10
874.4948200376265
 20
-2102.280491227665
 30
0.0
 11
879.505767091001
 21
-2102.280491227665
 31
0.0
  0
LINE
  5
25D01
330
18
100
AcDbEntity
  8
0
370
    50
100
AcDbLine
 10
874.4948200376265
 20
-2103.597289499647
 30
0.0
 11
879.5154893565968
 21
-2103.597289499647
 31
0.0
  0
LWPOLYLINE
  5
25D02
330
18
100
AcDbEntity
  8
0
370
    50
100
AcDbPolyline
 90
        4
 70
     1
 43
0.0
 10
874.4948200376263
 20
-2099.694809260584
 10
879.5154893565968
 20
-2099.694809260584
 10
879.5154893565968
 20
-2104.98607246563
 10
874.4948200376265
 20
-2104.98607246563
  0
LINE
  5
25D03
330
18
100
AcDbEntity
  8
0
370
    50
100
AcDbLine
 10
880.5211941032945
 20
-2108.338600983546
 30
0.0
 11
880.5211941032945
 21
-2107.335687497569
 31
0.0
  0
LINE
  5
25D04
330
18
100
AcDbEntity
  8
0
370
    50
100
AcDbLine
 10
880.5211941032945
 20
-2096.338600983546
 30
0.0
 11
880.5211941032945
 21
-2097.338600983547
 31
0.0
  0
LWPOLYLINE
  5
25D05
330
18
100
AcDbEntity
  8
0
370
    50
100
AcDbPolyline
 90
        4
 70
     1
 43
0.0
 10
893.5154893565966
 20
-2098.338600983546
 10
902.5154893565966
 20
-2098.338600983546
 10
902.5154893565966
 20
-2101.834704843766
 10
893.5154893565966
 20
-2101.834704843766
  0
LWPOLYLINE
  5
25D06
330
18
100
AcDbEntity
  8
0
370
    50
100
AcDbPolyline
 90
        4
 70
     1
 43
0.0
 10
893.5154893565966
 20
-2102.846679970169
 10
902.5154893565966
 20
-2102.846679970169
 10
902.5154893565966
 20
-2106.335687497569
 10
893.5154893565966
 20
-2106.335687497569
  0
LINE
  5
25D07
330
18
100
AcDbEntity
  8
0
370
    50
100
AcDbLine
 10
893.5154893565966
 20
-2097.338600983547
 30
0.0
 11
893.5154893565966
 21
-2107.335687497569
 31
0.0
  0
LINE
  5
25D08
330
18
100
AcDbEntity
  8
0
370
    50
100
AcDbLine
 10
891.3711265714445
 20
-2097.338600983547
 30
0.0
 11
893.2711264212933
 21
-2097.338600983547
 31
0.0
  0
LINE
  5
25D09
330
18
100
AcDbEntity
  8
0
370
    50
100
AcDbLine
 10
893.0711264212932
 20
-2097.138600983546
 30
0.0
 11
893.2711264212933
 21
-2097.338600983547
 31
0.0
  0
LINE
  5
25D0A
330
18
100
AcDbEntity
  8
0
370
    50
100
AcDbLine
 10
895.5271784391355
 20
-2095.843575847354
 30
0.0
 11
893.0711264212932
 21
-2095.843575847354
 31
0.0
  0
LINE
  5
25D0B
330
18
100
AcDbEntity
  8
0
370
    50
100
AcDbLine
 10
893.0711264212932
 20
-2094.611056628247
 30
0.0
 11
895.5271784391355
 21
-2094.611056628247
 31
0.0
  0
LINE
  5
25D0C
330
18
100
AcDbEntity
  8
0
370
    50
100
AcDbLine
 10
886.5253002639649
 20
-2093.867642494255
 30
0.0
 11
897.5303980750654
 21
-2093.867642494255
 31
0.0
  0
LINE
  5
25D0D
330
18
100
AcDbEntity
  8
0
370
    50
100
AcDbLine
 10
886.5253002639649
 20
-2093.359823287775
 30
0.0
 11
895.3271784391356
 21
-2093.359823287775
 31
0.0
  0
LINE
  5
25D0E
330
18
100
AcDbEntity
  8
0
370
    50
100
AcDbLine
 10
891.5711265714444
 20
-2095.843575847354
 30
0.0
 11
891.5711265714444
 21
-2096.338600983546
 31
0.0
  0
LINE
  5
25D0F
330
18
100
AcDbEntity
  8
0
370
    50
100
AcDbLine
 10
891.5711265714444
 20
-2096.338600983546
 30
0.0
 11
891.5711265714444
 21
-2097.138600983547
 31
0.0
  0
LINE
  5
25D10
330
18
100
AcDbEntity
  8
0
370
    50
100
AcDbLine
 10
891.5711265714444
 20
-2097.138600983547
 30
0.0
 11
891.3711265714445
 21
-2097.338600983547
 31
0.0
  0
LINE
  5
25D11
330
18
100
AcDbEntity
  8
0
370
    50
100
AcDbLine
 10
893.0711264212932
 20
-2095.843575847354
 30
0.0
 11
893.0711264212932
 21
-2097.138600983546
 31
0.0
  0
LINE
  5
25D12
330
18
100
AcDbEntity
  8
0
370
    50
100
AcDbLine
 10
893.0711264212932
 20
-2095.843575847354
 30
0.0
 11
893.0711264212932
 21
-2094.611056628247
 31
0.0
  0
LINE
  5
25D13
330
18
100
AcDbEntity
  8
0
370
    50
100
AcDbLine
 10
885.5272896218687
 20
-2093.359823287775
 30
0.0
 11
885.5272896218687
 21
-2094.875059413263
 31
0.0
  0
LINE
  5
25D14
330
18
100
AcDbEntity
  8
0
370
    50
100
AcDbLine
 10
885.5272896218687
 20
-2093.359823287775
 30
0.0
 11
886.5253002639649
 21
-2093.359823287775
 31
0.0
  0
LINE
  5
25D15
330
18
100
AcDbEntity
  8
0
370
    50
100
AcDbLine
 10
886.5253002639649
 20
-2093.359823287775
 30
0.0
 11
886.5253002639649
 21
-2093.867642494255
 31
0.0
  0
LINE
  5
25D16
330
18
100
AcDbEntity
  8
0
370
    50
100
AcDbLine
 10
885.5272896218687
 20
-2094.875059413263
 30
0.0
 11
891.5711265714444
 21
-2095.843575847354
 31
0.0
  0
LINE
  5
25D17
330
18
100
AcDbEntity
  8
0
370
    50
100
AcDbLine
 10
897.5303980750654
 20
-2093.867642494255
 30
0.0
 11
898.5303980750655
 21
-2094.867642494255
 31
0.0
  0
LINE
  5
25D18
330
18
100
AcDbEntity
  8
0
370
    50
100
AcDbLine
 10
897.5303980750654
 20
-2096.338600983546
 30
0.0
 11
898.5303980750655
 21
-2095.338600983546
 31
0.0
  0
LINE
  5
25D19
330
18
100
AcDbEntity
  8
0
370
    50
100
AcDbLine
 10
898.5303980750655
 20
-2094.867642494255
 30
0.0
 11
898.5303980750655
 21
-2095.338600983546
 31
0.0
  0
LINE
  5
25D1A
330
18
100
AcDbEntity
  8
0
370
    50
100
AcDbLine
 10
895.5271784391355
 20
-2093.559823287775
 30
0.0
 11
895.5271784391355
 21
-2093.867642494255
 31
0.0
  0
LINE
  5
25D1B
330
18
100
AcDbEntity
  8
0
370
    50
100
AcDbLine
 10
895.3271784391356
 20
-2093.359823287775
 30
0.0
 11
895.5271784391355
 21
-2093.559823287775
 31
0.0
  0
LINE
  5
25D1C
330
18
100
AcDbEntity
  8
0
370
    50
100
AcDbLine
 10
895.5271784391355
 20
-2094.611056628247
 30
0.0
 11
895.5271784391355
 21
-2093.867642494255
 31
0.0
  0
LINE
  5
25D1D
330
18
100
AcDbEntity
  8
0
370
    50
100
AcDbLine
 10
895.5271784391355
 20
-2096.338600983546
 30
0.0
 11
895.5271784391355
 21
-2095.843575847354
 31
0.0
  0
LINE
  5
25D1E
330
18
100
AcDbEntity
  8
0
370
    50
100
AcDbLine
 10
893.2711264212933
 20
-2097.338600983547
 30
0.0
 11
893.5154893565966
 21
-2097.338600983547
 31
0.0
  0
LINE
  5
25D1F
330
18
100
AcDbEntity
  8
0
370
    50
100
AcDbLine
 10
897.5303980750654
 20
-2096.338600983546
 30
0.0
 11
895.5271784391355
 21
-2096.338600983546
 31
0.0
  0
LINE
  5
25D20
330
18
100
AcDbEntity
  8
0
 48
10.0
370
    50
100
AcDbLine
 10
811.3212805776068
 20
-2097.780491227665
 30
0.0
 11
811.3212805776068
 21
-2106.780491227665
 31
0.0
  0
LINE
  5
25D38
330
18
100
AcDbEntity
  8
細線
100
AcDbLine
 10
970.0719145698231
 20
-2003.571362882769
 30
0.0
 11
971.0597145801193
 21
-2002.583562872472
 31
0.0
  0
LINE
  5
25D39
330
18
100
AcDbEntity
  8
細線
100
AcDbLine
 10
969.1880310933397
 20
-2003.571362882769
 30
0.0
 11
970.8365258739181
 21
-2001.922868102189
 31
0.0
  0
LINE
  5
25D3A
330
18
100
AcDbEntity
  8
細線
100
AcDbLine
 10
968.3041476168561
 20
-2003.571362882769
 30
0.0
 11
970.5212955778025
 21
-2001.354214921822
 31
0.0
  0
CIRCLE
  5
25D3C
330
18
100
AcDbEntity
  8
実線
370
    50
100
AcDbCircle
 10
967.4202641403725
 20
-2003.444957379437
 30
0.0
 40
3.74
  0
LINE
  5
25D3D
330
18
100
AcDbEntity
  8
細線
100
AcDbLine
 10
965.8981748631255
 20
-2006.861219112982
 30
0.0
 11
967.4202641403725
 21
-2005.339129835735
 31
0.0
  0
LINE
  5
25D3E
330
18
100
AcDbEntity
  8
細線
100
AcDbLine
 10
967.4202641403725
 20
-2003.571362882769
 30
0.0
 11
970.1272909051269
 21
-2000.864336118014
 31
0.0
  0
LINE
  5
25D3F
330
18
100
AcDbEntity
  8
0
  6
CENTER
 62
     1
 48
0.3
370
    13
100
AcDbLine
 10
972.0479840124106
 20
-2003.571362882769
 30
0.0
 11
961.915922211895
 21
-2003.571362882769
 31
0.0
  0
LINE
  5
25D40
330
18
100
AcDbEntity
  8
細線
100
AcDbLine
 10
966.5588696334081
 20
-2007.084407819183
 30
0.0
 11
967.4202641403725
 21
-2006.223013312218
 31
0.0
  0
LINE
  5
25D41
330
18
100
AcDbEntity
  8
細線
100
AcDbLine
 10
964.0855660830945
 20
-2005.13829398708
 30
0.0
 11
965.6524971874068
 21
-2003.571362882768
 31
0.0
  0
LINE
  5
25D42
330
18
100
AcDbEntity
  8
細線
100
AcDbLine
 10
964.4242065297
 20
-2005.683537016959
 30
0.0
 11
966.5363806638897
 21
-2003.571362882769
 31
0.0
  0
LINE
  5
25D43
330
18
100
AcDbEntity
  8
細線
100
AcDbLine
 10
964.8396428789505
 20
-2006.151984144191
 30
0.0
 11
967.4202641403725
 21
-2003.571362882769
 31
0.0
  0
LINE
  5
25D44
330
18
100
AcDbEntity
  8
細線
100
AcDbLine
 10
965.3295216827585
 20
-2006.545988816867
 30
0.0
 11
967.4202641403725
 21
-2004.455246359252
 31
0.0
  0
LINE
  5
25D45
330
18
100
AcDbEntity
  8
0
  6
CENTER
 62
     1
 48
0.3
370
    13
100
AcDbLine
 10
967.4202641403725
 20
-1998.531790476796
 30
0.0
 11
967.4202641403725
 21
-2008.011067553084
 31
0.0
  0
LINE
  5
25D46
330
18
100
AcDbEntity
  8
細線
100
AcDbLine
 10
967.4202641403725
 20
-2000.919712453318
 30
0.0
 11
968.4813422853475
 21
-1999.858634308343
 31
0.0
  0
LINE
  5
25D47
330
18
100
AcDbEntity
  8
細線
100
AcDbLine
 10
967.4202641403725
 20
-2001.803595929802
 30
0.0
 11
969.1136007480158
 21
-2000.110259322158
 31
0.0
  0
LINE
  5
25D48
330
18
100
AcDbEntity
  8
細線
100
AcDbLine
 10
967.4202641403725
 20
-2002.687479406286
 30
0.0
 11
969.6588437778947
 21
-2000.448899768763
 31
0.0
  0
VIEWPORT
  5
23
330
15
100
AcDbEntity
 67
     1
  8
0
100
AcDbViewport
 10
199.9942332505396
 20
144.0017454319274
 30
0.0
 40
580.5684887768012
 41
291.4430637272764
 68
     1
 69
     1
 12
199.9942332505396
 22
144.0017454319274
 13
0.0
 23
0.0
 14
10.0
 24
10.0
 15
10.0
 25
10.0
 16
0.0
 26
0.0
 36
1.0
 17
0.0
 27
0.0
 37
0.0
 42
50.0
 43
0.0
 44
0.0
 45
291.4430637272764
 50
0.0
 51
0.0
 72
   100
 90
    32768
  1

281
     0
 71
     1
 74
     0
110
0.0
120
0.0
130
0.0
111
1.0
121
0.0
131
0.0
112
0.0
122
1.0
132
0.0
 79
     0
146
0.0
  0
VIEWPORT
  5
2E
330
15
100
AcDbEntity
 67
     1
  8
M_VIEW
100
AcDbViewport
 10
200.0
 20
144.0
 30
0.0
 40
400.0
 41
288.0
 68
     2
 69
     2
 12
698.3292646179419
 22
-2045.787861431138
 13
0.0
 23
0.0
 14
10.0
 24
10.0
 15
10.0
 25
10.0
 16
0.0
 26
0.0
 36
1.0
 17
0.0
 27
0.0
 37
0.0
 42
50.0
 43
0.0
 44
0.0
 45
576.0
 50
0.0
 51
0.0
 72
   100
 90
    32768
  1

281
     0
 71
     1
 74
     0
110
0.0
120
0.0
130
0.0
111
1.0
121
0.0
131
0.0
112
0.0
122
1.0
132
0.0
 79
     0
146
0.0
  0
INSERT
  5
115F
330
15
100
AcDbEntity
 67
     1
  8
FRAME025
100
AcDbBlockReference
  2
機械A4横_LBP
 10
82.74908858651452
 20
152.030959079227
 30
0.0
  0
TEXT
  5
AA6A
330
15
100
AcDbEntity
 67
     1
  8
文字
  6
ByBlock
 62
     0
100
AcDbText
 10
32.81885892396519
 20
73.01882819621747
 30
0.0
 40
3.2
  1

 50
90.0
 41
0.625
  7
MSｺﾞｼｯｸ
100
AcDbText
  0
TEXT
  5
AA6C
330
15
100
AcDbEntity
 67
     1
  8
文字
  6
ByBlock
 62
     0
100
AcDbText
 10
37.25020936743055
 20
73.01882819621747
 30
0.0
 40
3.2
  1

 50
90.0
 41
0.625
  7
MSｺﾞｼｯｸ
100
AcDbText
  0
TEXT
  5
FCA5
330
15
100
AcDbEntity
 67
     1
  8
FRAME020
  6
Continuous
100
AcDbText
 10
126.6213117262079
 20
29.63926951973459
 30
0.0
 40
2.5
  1

 41
0.625
  7
MSｺﾞｼｯｸ
100
AcDbText
  0
TEXT
  5
12229
330
15
100
AcDbEntity
 67
     1
  8
0
100
AcDbText
 10
306.1806565728951
 20
10.6316829925787
 30
0.0
 40
6.0
  1
ＳＥ－３７９２０Ｂ
 41
1.1
100
AcDbText
  0
MTEXT
  5
21047
330
15
100
AcDbEntity
 67
     1
  8
0
 48
10.0
100
AcDbMText
 10
327.7719738752167
 20
55.46212977036839
 30
0.0
 40
6.0
 41
50.05040000000001
 71
     1
 72
     5
  1
{\L質量：6.0kg}
 73
     1
 44
1.0
  0
TEXT
  5
25B31
330
15
100
AcDbEntity
 67
     1
  8
wakumoji
  6
Continuous
100
AcDbText
 10
16.12480566453064
 20
33.74935623498221
 30
0.0
 40
2.88
  1
1.本図は、オプション（マグネットカバー）未装着です。
 41
0.9
  7
まこ
100
AcDbText
  0
LINE
  5
25B32
330
15
100
AcDbEntity
 67
     1
  8
細線
  6
Continuous
100
AcDbLine
 10
14.02432204561083
 20
32.67689472890992
 30
0.0
 11
104.3065031047242
 21
32.67689472890992
 31
0.0
  0
LINE
  5
25B33
330
15
100
AcDbEntity
 67
     1
  8
細線
  6
Continuous
100
AcDbLine
 10
14.02432204561083
 20
27.67689472890992
 30
0.0
 11
104.3065031047242
 21
27.67689472890992
 31
0.0
  0
TEXT
  5
25B34
330
15
100
AcDbEntity
 67
     1
  8
wakumoji
  6
Continuous
100
AcDbText
 10
16.12480566453064
 20
28.74935623498221
 30
0.0
 40
2.88
  1
  マグネットカバーを付けた場合は、マグネットベースの
 41
0.9
  7
まこ
100
AcDbText
  0
TEXT
  5
25B35
330
15
100
AcDbEntity
 67
     1
  8
wakumoji
  6
Continuous
100
AcDbText
 10
16.12480566453064
 20
23.74935623498221
 30
0.0
 40
2.88
  1
  全高は13mm、ギャップは1mmになります。
 41
0.9
  7
まこ
100
AcDbText
  0
LINE
  5
25B36
330
15
100
AcDbEntity
 67
     1
  8
細線
  6
Continuous
100
AcDbLine
 10
14.02432204561083
 20
22.67689472890992
 30
0.0
 11
104.3065031047242
 21
22.67689472890992
 31
0.0
  0
LINE
  5
25B37
330
15
100
AcDbEntity
 67
     1
  8
細線
  6
Continuous
100
AcDbLine
 10
14.02432204561083
 20
38.0768947289099
 30
0.0
 11
29.72117078552497
 21
38.0768947289099
 31
0.0
  0
TEXT
  5
25B38
330
15
100
AcDbEntity
 67
     1
  8
wakumoji
  6
Continuous
100
AcDbText
 10
14.98320170716607
 20
39.49349252195947
 30
0.0
 40
2.88
  1
注　　記
  7
まこ
100
AcDbText
  0
MTEXT
  5
25E00
330
15
100
AcDbEntity
 67
     1
  8
dimension
100
AcDbMText
 10
212.821504058072
 20
31.22370568266852
 30
0.0
 40
6.0
 41
182.0882
 71
     1
 72
     5
  1
τﾘﾆｱﾓｰﾀ ｺｱ付M NLA-MA CLﾕﾆｯﾄ CLM500MA (500N)
  7
ｽﾀｲﾙ3
 73
     1
 44
1.0
1001
ACAD
1000
MTEXTBEGIN
1070
    73
1070
     1
1070
    44
1040
1.0
1070
    74
1070
     0
1000
MTEXTEND
  0
ENDSEC
  0
SECTION
  2
OBJECTS
  0
DICTIONARY
  5
C
330
0
100
AcDbDictionary
281
     1
  3
ACAD_GROUP
350
D
  3
ACAD_LAYOUT
350
DB2
  3
ACAD_MLINESTYLE
350
1B
  3
ACAD_PLOTSETTINGS
350
DB3
  3
ACAD_PLOTSTYLENAME
350
FB5B
  3
AcadDim
350
23DA7
  3
AcDbVariableDictionary
350
106A6
  3
ASE_INDEX_DICTIONARY
350
1A99F
  3
DWGPROPS
350
15EC9
1001
ACAD
1000
TREAT_AS_HARD
1070
     0
  0
DICTIONARY
  5
25504
330
2
100
AcDbDictionary
280
     1
281
     1
  3
ACAD_LAYERFILTERS
360
25505
  3
ACAD_LAYERSTATES
360
25511
  0
DICTIONARY
  5
EFC6
330
18
100
AcDbDictionary
280
     1
281
     1
  0
DICTIONARY
  5
EFC4
330
15
100
AcDbDictionary
280
     1
281
     1
  0
DICTIONARY
  5
D
102
{ACAD_REACTORS
330
C
102
}
330
C
100
AcDbDictionary
281
     1
  3
*A1
350
AC8A
  3
*A10
350
ACA2
  3
*A100
350
19A5A
  3
*A101
350
249FB
  3
*A102
350
24A0A
  3
*A103
350
FBFF
  3
*A104
350
19259
  3
*A105
350
20209
  3
*A106
350
24728
  3
*A107
350
24A43
  3
*A108
350
2472F
  3
*A109
350
227B2
  3
*A11
350
24726
  3
*A110
350
198F1
  3
*A111
350
24A98
  3
*A112
350
1D6C0
  3
*A113
350
17B11
  3
*A114
350
1606B
  3
*A115
350
1F8FA
  3
*A116
350
24B10
  3
*A117
350
106A5
  3
*A118
350
17BFF
  3
*A119
350
20016
  3
*A12
350
23CC2
  3
*A120
350
2471D
  3
*A121
350
24914
  3
*A122
350
1B744
  3
*A123
350
20019
  3
*A124
350
2472A
  3
*A125
350
ACBD
  3
*A126
350
24AA4
  3
*A127
350
22AAC
  3
*A128
350
1A692
  3
*A129
350
24B0A
  3
*A13
350
24A8C
  3
*A130
350
18FA8
  3
*A131
350
1EB7D
  3
*A132
350
1F8F0
  3
*A133
350
173BD
  3
*A134
350
24A17
  3
*A135
350
24A09
  3
*A136
350
FC9B
  3
*A137
350
24A50
  3
*A138
350
1F8FF
  3
*A139
350
24A6E
  3
*A14
350
23CC3
  3
*A140
350
16069
  3
*A141
350
ACA1
  3
*A142
350
24A86
  3
*A143
350
24723
  3
*A144
350
1A691
  3
*A145
350
2472D
  3
*A146
350
18F21
  3
*A147
350
24A4E
  3
*A148
350
20213
  3
*A149
350
24717
  3
*A15
350
18FA6
  3
*A150
350
FCB8
  3
*A151
350
249F2
  3
*A152
350
24727
  3
*A153
350
ACB4
  3
*A154
350
19881
  3
*A155
350
249F3
  3
*A156
350
1F913
  3
*A157
350
20236
  3
*A158
350
1F91D
  3
*A159
350
24A9E
  3
*A16
350
1B74D
  3
*A160
350
2472B
  3
*A161
350
1F90E
  3
*A162
350
2001C
  3
*A163
350
18F20
  3
*A164
350
1606A
  3
*A165
350
19A86
  3
*A166
350
20218
  3
*A167
350
19256
  3
*A168
350
2471A
  3
*A169
350
2020E
  3
*A17
350
24AEC
  3
*A170
350
1D6AC
  3
*A171
350
23BB4
  3
*A172
350
1998A
  3
*A173
350
19F67
  3
*A174
350
24A49
  3
*A175
350
1B73B
  3
*A176
350
16059
  3
*A177
350
24A4A
  3
*A178
350
24A62
  3
*A179
350
106B3
  3
*A18
350
23CC4
  3
*A180
350
24AD4
  3
*A181
350
16058
  3
*A182
350
1738A
  3
*A183
350
173BE
  3
*A184
350
24B04
  3
*A185
350
2471E
  3
*A186
350
FC91
  3
*A187
350
ACAB
  3
*A188
350
24A10
  3
*A189
350
1D710
  3
*A19
350
240ED
  3
*A190
350
1F8F5
  3
*A191
350
20022
  3
*A192
350
2471F
  3
*A193
350
24719
  3
*A194
350
24A68
  3
*A195
350
23BB2
  3
*A196
350
1B720
  3
*A197
350
25503
  3
*A198
350
25A46
  3
*A199
350
20231
  3
*A2
350
24A5C
  3
*A20
350
1D6E8
  3
*A200
350
24AAA
  3
*A201
350
20028
  3
*A202
350
22E4B
  3
*A203
350
19A51
  3
*A204
350
1D684
  3
*A205
350
16068
  3
*A206
350
24AB0
  3
*A207
350
20013
  3
*A208
350
19794
  3
*A209
350
1D6F2
  3
*A21
350
24A4D
  3
*A210
350
23BB3
  3
*A211
350
1D68E
  3
*A212
350
17389
  3
*A213
350
249FA
  3
*A214
350
1F918
  3
*A215
350
1D706
  3
*A216
350
24A44
  3
*A217
350
24ADA
  3
*A218
350
232CA
  3
*A219
350
1B732
  3
*A22
350
1D6D4
  3
*A220
350
2021D
  3
*A221
350
24722
  3
*A222
350
24AB6
  3
*A223
350
2022C
  3
*A224
350
24A45
  3
*A225
350
24729
  3
*A226
350
17901
  3
*A227
350
2471C
  3
*A228
350
24A4B
  3
*A229
350
1EB7E
  3
*A23
350
1B756
  3
*A230
350
240F0
  3
*A231
350
22498
  3
*A232
350
24AE0
  3
*A233
350
19989
  3
*A234
350
20222
  3
*A235
350
24A46
  3
*A236
350
18F22
  3
*A237
350
FB6B
  3
*A238
350
24A11
  3
*A239
350
224AC
  3
*A24
350
24A47
  3
*A240
350
18F1F
  3
*A241
350
18F23
  3
*A242
350
24AE6
  3
*A243
350
2471B
  3
*A244
350
1EB7C
  3
*A245
350
24A4C
  3
*A25
350
19FAB
  3
*A26
350
18FA7
  3
*A27
350
24A02
  3
*A28
350
1D67A
  3
*A29
350
24AFE
  3
*A3
350
FC9A
  3
*A30
350
24724
  3
*A31
350
227B1
  3
*A32
350
20025
  3
*A33
350
24ABC
  3
*A34
350
24A1F
  3
*A35
350
2244A
  3
*A36
350
1D698
  3
*A37
350
24A80
  3
*A38
350
24725
  3
*A39
350
20CA6
  3
*A4
350
1B729
  3
*A40
350
2002B
  3
*A41
350
1EB80
  3
*A42
350
20010
  3
*A43
350
19F55
  3
*A44
350
240EE
  3
*A45
350
24718
  3
*A46
350
24A48
  3
*A47
350
24AC2
  3
*A48
350
19861
  3
*A49
350
1D670
  3
*A5
350
FB6C
  3
*A50
350
215A2
  3
*A51
350
24AF2
  3
*A52
350
1D6A2
  3
*A53
350
224D1
  3
*A54
350
19255
  3
*A55
350
1AA94
  3
*A56
350
19787
  3
*A57
350
24730
  3
*A58
350
19F87
  3
*A59
350
FC95
  3
*A6
350
24A03
  3
*A60
350
24AC8
  3
*A61
350
24A1E
  3
*A62
350
1738B
  3
*A63
350
19988
  3
*A64
350
196C2
  3
*A65
350
24ACE
  3
*A66
350
19786
  3
*A67
350
19F99
  3
*A68
350
2001F
  3
*A69
350
20227
  3
*A7
350
1D6CA
  3
*A70
350
24720
  3
*A71
350
24A4F
  3
*A72
350
24AF8
  3
*A73
350
20CA2
  3
*A74
350
19729
  3
*A75
350
1EB7F
  3
*A76
350
24B32
  3
*A77
350
173BF
  3
*A78
350
106C7
  3
*A79
350
1F909
  3
*A8
350
24A7A
  3
*A80
350
24A18
  3
*A81
350
2472E
  3
*A82
350
19AA4
  3
*A83
350
240EF
  3
*A84
350
24B56
  3
*A85
350
1A695
  3
*A86
350
24A92
  3
*A87
350
1D6B6
  3
*A88
350
1F904
  3
*A89
350
106C6
  3
*A9
350
AC9A
  3
*A90
350
1D6FC
  3
*A91
350
2472C
  3
*A92
350
23A77
  3
*A93
350
1A09A
  3
*A94
350
1D6DE
  3
*A95
350
24913
  3
*A96
350
169DA
  3
*A97
350
24A74
  3
*A98
350
24721
  3
*A99
350
19A52
1001
ACAD
1000
TREAT_AS_HARD
1070
     0
  0
DICTIONARY
  5
DB2
102
{ACAD_REACTORS
330
C
102
}
330
C
100
AcDbDictionary
281
     1
  3
Model
350
FB5D
  3
外形図
350
FB5E
1001
ACAD
1000
TREAT_AS_HARD
1070
     0
  0
DICTIONARY
  5
1B
102
{ACAD_REACTORS
330
C
102
}
330
C
100
AcDbDictionary
281
     1
  3
STANDARD
350
1C
1001
ACAD
1000
TREAT_AS_HARD
1070
     0
  0
DICTIONARY
  5
DB3
102
{ACAD_REACTORS
330
C
102
}
330
C
100
AcDbDictionary
281
     1
1001
ACAD
1000
TREAT_AS_HARD
1070
     0
  0
ACDBDICTIONARYWDFLT
  5
FB5B
102
{ACAD_REACTORS
330
C
102
}
330
C
100
AcDbDictionary
281
     1
  3
Normal
350
FB5C
100
AcDbDictionaryWithDefault
340
FB5C
  0
XRECORD
  5
23DA7
102
{ACAD_REACTORS
330
C
102
}
330
C
100
AcDbXrecord
280
     1
 90
   990106
  3

 60
     0
 61
     0
 62
     4
 63
     4
 64
     1
 65
     0
 66
     0
 67
     3
 68
     1
 69
     0
 70
     0
 71
     0
 72
     0
 40
0.0
170
     2
340
0
  0
DICTIONARY
  5
106A6
102
{ACAD_REACTORS
330
C
102
}
330
C
100
AcDbDictionary
281
     1
  3
SORTENTS
350
106A7
  0
DICTIONARY
  5
1A99F
102
{ACAD_REACTORS
330
C
102
}
330
C
100
AcDbDictionary
281
     1
  3
ASEBlockHierarchyIndexRecord
350
1A9A1
1001
DCO15
1040
1464612067.17
  0
XRECORD
  5
15EC9
102
{ACAD_REACTORS
330
C
102
}
330
C
100
AcDbXrecord
280
     1
  1
DWGPROPS COOKIE
  2

  3

  4

  6

  7

  8

  9

300
=
301
=
302
=
303
=
304
=
305
=
306
=
307
=
308
=
309
=
 40
12.65185717592592
 41
2451224.660162384
 42
2452395.660827315
  1

 90
        0
  0
DICTIONARY
  5
25505
102
{ACAD_REACTORS
330
25504
102
}
330
25504
100
AcDbDictionary
280
     1
281
     1
  3
0
360
25506
  3
11
360
25507
  3
150_
360
25508
  3
160_
360
25509
  3
170_
360
2550A
  3
171_
360
2550B
  3
350_
360
2550C
  3
4
360
2550D
  3
5
360
2550E
  3
7
360
2550F
  3
kiseki
360
25510
  0
DICTIONARY
  5
25511
102
{ACAD_REACTORS
330
25504
102
}
330
25504
100
AcDbDictionary
281
     1
  0
GROUP
  5
AC8A
102
{ACAD_REACTORS
330
D
102
}
330
D
100
AcDbGroup
300

 70
     1
 71
     1
  0
GROUP
  5
ACA2
102
{ACAD_REACTORS
330
D
102
}
330
D
100
AcDbGroup
300

 70
     1
 71
     1
  0
GROUP
  5
19A5A
102
{ACAD_REACTORS
330
D
102
}
330
D
100
AcDbGroup
300

 70
     1
 71
     1
  0
GROUP
  5
249FB
102
{ACAD_REACTORS
330
D
102
}
330
D
100
AcDbGroup
300

 70
     1
 71
     1
  0
GROUP
  5
24A0A
102
{ACAD_REACTORS
330
D
102
}
330
D
100
AcDbGroup
300

 70
     1
 71
     1
  0
GROUP
  5
FBFF
102
{ACAD_REACTORS
330
D
102
}
330
D
100
AcDbGroup
300

 70
     1
 71
     1
  0
GROUP
  5
19259
102
{ACAD_REACTORS
330
D
102
}
330
D
100
AcDbGroup
300

 70
     1
 71
     1
  0
GROUP
  5
20209
102
{ACAD_REACTORS
330
D
102
}
330
D
100
AcDbGroup
300

 70
     1
 71
     1
  0
GROUP
  5
24728
102
{ACAD_REACTORS
330
D
102
}
330
D
100
AcDbGroup
300

 70
     1
 71
     1
  0
GROUP
  5
24A43
102
{ACAD_REACTORS
330
D
102
}
330
D
100
AcDbGroup
300

 70
     1
 71
     1
  0
GROUP
  5
2472F
102
{ACAD_REACTORS
330
D
102
}
330
D
100
AcDbGroup
300

 70
     1
 71
     1
  0
GROUP
  5
227B2
102
{ACAD_REACTORS
330
D
102
}
330
D
100
AcDbGroup
300

 70
     1
 71
     1
  0
GROUP
  5
24726
102
{ACAD_REACTORS
330
D
102
}
330
D
100
AcDbGroup
300

 70
     1
 71
     1
  0
GROUP
  5
198F1
102
{ACAD_REACTORS
330
D
102
}
330
D
100
AcDbGroup
300

 70
     1
 71
     1
  0
GROUP
  5
24A98
102
{ACAD_REACTORS
330
D
102
}
330
D
100
AcDbGroup
300

 70
     1
 71
     1
  0
GROUP
  5
1D6C0
102
{ACAD_REACTORS
330
D
102
}
330
D
100
AcDbGroup
300

 70
     1
 71
     1
  0
GROUP
  5
17B11
102
{ACAD_REACTORS
330
D
102
}
330
D
100
AcDbGroup
300

 70
     1
 71
     1
  0
GROUP
  5
1606B
102
{ACAD_REACTORS
330
D
102
}
330
D
100
AcDbGroup
300

 70
     1
 71
     1
  0
GROUP
  5
1F8FA
102
{ACAD_REACTORS
330
D
102
}
330
D
100
AcDbGroup
300

 70
     1
 71
     1
  0
GROUP
  5
24B10
102
{ACAD_REACTORS
330
D
102
}
330
D
100
AcDbGroup
300

 70
     1
 71
     1
  0
GROUP
  5
106A5
102
{ACAD_REACTORS
330
D
102
}
330
D
100
AcDbGroup
300

 70
     1
 71
     1
  0
GROUP
  5
17BFF
102
{ACAD_REACTORS
330
D
102
}
330
D
100
AcDbGroup
300

 70
     1
 71
     1
  0
GROUP
  5
20016
102
{ACAD_REACTORS
330
D
102
}
330
D
100
AcDbGroup
300

 70
     1
 71
     1
  0
GROUP
  5
23CC2
102
{ACAD_REACTORS
330
D
102
}
330
D
100
AcDbGroup
300

 70
     1
 71
     1
  0
GROUP
  5
2471D
102
{ACAD_REACTORS
330
D
102
}
330
D
100
AcDbGroup
300

 70
     1
 71
     1
  0
GROUP
  5
24914
102
{ACAD_REACTORS
330
D
102
}
330
D
100
AcDbGroup
300

 70
     1
 71
     1
  0
GROUP
  5
1B744
102
{ACAD_REACTORS
330
D
102
}
330
D
100
AcDbGroup
300

 70
     1
 71
     1
  0
GROUP
  5
20019
102
{ACAD_REACTORS
330
D
102
}
330
D
100
AcDbGroup
300

 70
     1
 71
     1
  0
GROUP
  5
2472A
102
{ACAD_REACTORS
330
D
102
}
330
D
100
AcDbGroup
300

 70
     1
 71
     1
  0
GROUP
  5
ACBD
102
{ACAD_REACTORS
330
D
102
}
330
D
100
AcDbGroup
300

 70
     1
 71
     1
  0
GROUP
  5
24AA4
102
{ACAD_REACTORS
330
D
102
}
330
D
100
AcDbGroup
300

 70
     1
 71
     1
  0
GROUP
  5
22AAC
102
{ACAD_REACTORS
330
D
102
}
330
D
100
AcDbGroup
300

 70
     1
 71
     1
  0
GROUP
  5
1A692
102
{ACAD_REACTORS
330
D
102
}
330
D
100
AcDbGroup
300

 70
     1
 71
     1
  0
GROUP
  5
24B0A
102
{ACAD_REACTORS
330
D
102
}
330
D
100
AcDbGroup
300

 70
     1
 71
     1
  0
GROUP
  5
24A8C
102
{ACAD_REACTORS
330
D
102
}
330
D
100
AcDbGroup
300

 70
     1
 71
     1
  0
GROUP
  5
18FA8
102
{ACAD_REACTORS
330
D
102
}
330
D
100
AcDbGroup
300

 70
     1
 71
     1
  0
GROUP
  5
1EB7D
102
{ACAD_REACTORS
330
D
102
}
330
D
100
AcDbGroup
300

 70
     1
 71
     1
  0
GROUP
  5
1F8F0
102
{ACAD_REACTORS
330
D
102
}
330
D
100
AcDbGroup
300

 70
     1
 71
     1
  0
GROUP
  5
173BD
102
{ACAD_REACTORS
330
D
102
}
330
D
100
AcDbGroup
300

 70
     1
 71
     1
  0
GROUP
  5
24A17
102
{ACAD_REACTORS
330
D
102
}
330
D
100
AcDbGroup
300

 70
     1
 71
     1
  0
GROUP
  5
24A09
102
{ACAD_REACTORS
330
D
102
}
330
D
100
AcDbGroup
300

 70
     1
 71
     1
  0
GROUP
  5
FC9B
102
{ACAD_REACTORS
330
D
102
}
330
D
100
AcDbGroup
300

 70
     1
 71
     1
  0
GROUP
  5
24A50
102
{ACAD_REACTORS
330
D
102
}
330
D
100
AcDbGroup
300

 70
     1
 71
     1
  0
GROUP
  5
1F8FF
102
{ACAD_REACTORS
330
D
102
}
330
D
100
AcDbGroup
300

 70
     1
 71
     1
  0
GROUP
  5
24A6E
102
{ACAD_REACTORS
330
D
102
}
330
D
100
AcDbGroup
300

 70
     1
 71
     1
  0
GROUP
  5
23CC3
102
{ACAD_REACTORS
330
D
102
}
330
D
100
AcDbGroup
300

 70
     1
 71
     1
  0
GROUP
  5
16069
102
{ACAD_REACTORS
330
D
102
}
330
D
100
AcDbGroup
300

 70
     1
 71
     1
  0
GROUP
  5
ACA1
102
{ACAD_REACTORS
330
D
102
}
330
D
100
AcDbGroup
300

 70
     1
 71
     1
  0
GROUP
  5
24A86
102
{ACAD_REACTORS
330
D
102
}
330
D
100
AcDbGroup
300

 70
     1
 71
     1
  0
GROUP
  5
24723
102
{ACAD_REACTORS
330
D
102
}
330
D
100
AcDbGroup
300

 70
     1
 71
     1
  0
GROUP
  5
1A691
102
{ACAD_REACTORS
330
D
102
}
330
D
100
AcDbGroup
300

 70
     1
 71
     1
  0
GROUP
  5
2472D
102
{ACAD_REACTORS
330
D
102
}
330
D
100
AcDbGroup
300

 70
     1
 71
     1
  0
GROUP
  5
18F21
102
{ACAD_REACTORS
330
D
102
}
330
D
100
AcDbGroup
300

 70
     1
 71
     1
  0
GROUP
  5
24A4E
102
{ACAD_REACTORS
330
D
102
}
330
D
100
AcDbGroup
300

 70
     1
 71
     1
  0
GROUP
  5
20213
102
{ACAD_REACTORS
330
D
102
}
330
D
100
AcDbGroup
300

 70
     1
 71
     1
  0
GROUP
  5
24717
102
{ACAD_REACTORS
330
D
102
}
330
D
100
AcDbGroup
300

 70
     1
 71
     1
  0
GROUP
  5
18FA6
102
{ACAD_REACTORS
330
D
102
}
330
D
100
AcDbGroup
300

 70
     1
 71
     1
  0
GROUP
  5
FCB8
102
{ACAD_REACTORS
330
D
102
}
330
D
100
AcDbGroup
300

 70
     1
 71
     1
  0
GROUP
  5
249F2
102
{ACAD_REACTORS
330
D
102
}
330
D
100
AcDbGroup
300

 70
     1
 71
     1
  0
GROUP
  5
24727
102
{ACAD_REACTORS
330
D
102
}
330
D
100
AcDbGroup
300

 70
     1
 71
     1
  0
GROUP
  5
ACB4
102
{ACAD_REACTORS
330
D
102
}
330
D
100
AcDbGroup
300

 70
     1
 71
     1
  0
GROUP
  5
19881
102
{ACAD_REACTORS
330
D
102
}
330
D
100
AcDbGroup
300

 70
     1
 71
     1
  0
GROUP
  5
249F3
102
{ACAD_REACTORS
330
D
102
}
330
D
100
AcDbGroup
300

 70
     1
 71
     1
  0
GROUP
  5
1F913
102
{ACAD_REACTORS
330
D
102
}
330
D
100
AcDbGroup
300

 70
     1
 71
     1
  0
GROUP
  5
20236
102
{ACAD_REACTORS
330
D
102
}
330
D
100
AcDbGroup
300

 70
     1
 71
     1
  0
GROUP
  5
1F91D
102
{ACAD_REACTORS
330
D
102
}
330
D
100
AcDbGroup
300

 70
     1
 71
     1
  0
GROUP
  5
24A9E
102
{ACAD_REACTORS
330
D
102
}
330
D
100
AcDbGroup
300

 70
     1
 71
     1
  0
GROUP
  5
1B74D
102
{ACAD_REACTORS
330
D
102
}
330
D
100
AcDbGroup
300

 70
     1
 71
     1
  0
GROUP
  5
2472B
102
{ACAD_REACTORS
330
D
102
}
330
D
100
AcDbGroup
300

 70
     1
 71
     1
  0
GROUP
  5
1F90E
102
{ACAD_REACTORS
330
D
102
}
330
D
100
AcDbGroup
300

 70
     1
 71
     1
  0
GROUP
  5
2001C
102
{ACAD_REACTORS
330
D
102
}
330
D
100
AcDbGroup
300

 70
     1
 71
     1
  0
GROUP
  5
18F20
102
{ACAD_REACTORS
330
D
102
}
330
D
100
AcDbGroup
300

 70
     1
 71
     1
  0
GROUP
  5
1606A
102
{ACAD_REACTORS
330
D
102
}
330
D
100
AcDbGroup
300

 70
     1
 71
     1
  0
GROUP
  5
19A86
102
{ACAD_REACTORS
330
D
102
}
330
D
100
AcDbGroup
300

 70
     1
 71
     1
  0
GROUP
  5
20218
102
{ACAD_REACTORS
330
D
102
}
330
D
100
AcDbGroup
300

 70
     1
 71
     1
  0
GROUP
  5
19256
102
{ACAD_REACTORS
330
D
102
}
330
D
100
AcDbGroup
300

 70
     1
 71
     1
  0
GROUP
  5
2471A
102
{ACAD_REACTORS
330
D
102
}
330
D
100
AcDbGroup
300

 70
     1
 71
     1
  0
GROUP
  5
2020E
102
{ACAD_REACTORS
330
D
102
}
330
D
100
AcDbGroup
300

 70
     1
 71
     1
  0
GROUP
  5
24AEC
102
{ACAD_REACTORS
330
D
102
}
330
D
100
AcDbGroup
300

 70
     1
 71
     1
  0
GROUP
  5
1D6AC
102
{ACAD_REACTORS
330
D
102
}
330
D
100
AcDbGroup
300

 70
     1
 71
     1
  0
GROUP
  5
23BB4
102
{ACAD_REACTORS
330
D
102
}
330
D
100
AcDbGroup
300

 70
     1
 71
     1
  0
GROUP
  5
1998A
102
{ACAD_REACTORS
330
D
102
}
330
D
100
AcDbGroup
300

 70
     1
 71
     1
  0
GROUP
  5
19F67
102
{ACAD_REACTORS
330
D
102
}
330
D
100
AcDbGroup
300

 70
     1
 71
     1
  0
GROUP
  5
24A49
102
{ACAD_REACTORS
330
D
102
}
330
D
100
AcDbGroup
300

 70
     1
 71
     1
  0
GROUP
  5
1B73B
102
{ACAD_REACTORS
330
D
102
}
330
D
100
AcDbGroup
300

 70
     1
 71
     1
  0
GROUP
  5
16059
102
{ACAD_REACTORS
330
D
102
}
330
D
100
AcDbGroup
300

 70
     1
 71
     1
  0
GROUP
  5
24A4A
102
{ACAD_REACTORS
330
D
102
}
330
D
100
AcDbGroup
300

 70
     1
 71
     1
  0
GROUP
  5
24A62
102
{ACAD_REACTORS
330
D
102
}
330
D
100
AcDbGroup
300

 70
     1
 71
     1
  0
GROUP
  5
106B3
102
{ACAD_REACTORS
330
D
102
}
330
D
100
AcDbGroup
300

 70
     1
 71
     1
  0
GROUP
  5
23CC4
102
{ACAD_REACTORS
330
D
102
}
330
D
100
AcDbGroup
300

 70
     1
 71
     1
  0
GROUP
  5
24AD4
102
{ACAD_REACTORS
330
D
102
}
330
D
100
AcDbGroup
300

 70
     1
 71
     1
  0
GROUP
  5
16058
102
{ACAD_REACTORS
330
D
102
}
330
D
100
AcDbGroup
300

 70
     1
 71
     1
  0
GROUP
  5
1738A
102
{ACAD_REACTORS
330
D
102
}
330
D
100
AcDbGroup
300

 70
     1
 71
     1
  0
GROUP
  5
173BE
102
{ACAD_REACTORS
330
D
102
}
330
D
100
AcDbGroup
300

 70
     1
 71
     1
  0
GROUP
  5
24B04
102
{ACAD_REACTORS
330
D
102
}
330
D
100
AcDbGroup
300

 70
     1
 71
     1
  0
GROUP
  5
2471E
102
{ACAD_REACTORS
330
D
102
}
330
D
100
AcDbGroup
300

 70
     1
 71
     1
  0
GROUP
  5
FC91
102
{ACAD_REACTORS
330
D
102
}
330
D
100
AcDbGroup
300

 70
     1
 71
     1
  0
GROUP
  5
ACAB
102
{ACAD_REACTORS
330
D
102
}
330
D
100
AcDbGroup
300

 70
     1
 71
     1
  0
GROUP
  5
24A10
102
{ACAD_REACTORS
330
D
102
}
330
D
100
AcDbGroup
300

 70
     1
 71
     1
  0
GROUP
  5
1D710
102
{ACAD_REACTORS
330
D
102
}
330
D
100
AcDbGroup
300

 70
     1
 71
     1
  0
GROUP
  5
240ED
102
{ACAD_REACTORS
330
D
102
}
330
D
100
AcDbGroup
300

 70
     1
 71
     1
  0
GROUP
  5
1F8F5
102
{ACAD_REACTORS
330
D
102
}
330
D
100
AcDbGroup
300

 70
     1
 71
     1
  0
GROUP
  5
20022
102
{ACAD_REACTORS
330
D
102
}
330
D
100
AcDbGroup
300

 70
     1
 71
     1
  0
GROUP
  5
2471F
102
{ACAD_REACTORS
330
D
102
}
330
D
100
AcDbGroup
300

 70
     1
 71
     1
  0
GROUP
  5
24719
102
{ACAD_REACTORS
330
D
102
}
330
D
100
AcDbGroup
300

 70
     1
 71
     1
  0
GROUP
  5
24A68
102
{ACAD_REACTORS
330
D
102
}
330
D
100
AcDbGroup
300

 70
     1
 71
     1
  0
GROUP
  5
23BB2
102
{ACAD_REACTORS
330
D
102
}
330
D
100
AcDbGroup
300

 70
     1
 71
     1
  0
GROUP
  5
1B720
102
{ACAD_REACTORS
330
D
102
}
330
D
100
AcDbGroup
300

 70
     1
 71
     1
  0
GROUP
  5
25503
102
{ACAD_REACTORS
330
D
102
}
330
D
100
AcDbGroup
300

 70
     1
 71
     1
  0
GROUP
  5
25A46
102
{ACAD_REACTORS
330
D
102
}
330
D
100
AcDbGroup
300

 70
     1
 71
     1
340
258E7
340
25936
340
258EA
340
258E9
340
25907
  0
GROUP
  5
20231
102
{ACAD_REACTORS
330
D
102
}
330
D
100
AcDbGroup
300

 70
     1
 71
     1
  0
GROUP
  5
24A5C
102
{ACAD_REACTORS
330
D
102
}
330
D
100
AcDbGroup
300

 70
     1
 71
     1
  0
GROUP
  5
1D6E8
102
{ACAD_REACTORS
330
D
102
}
330
D
100
AcDbGroup
300

 70
     1
 71
     1
  0
GROUP
  5
24AAA
102
{ACAD_REACTORS
330
D
102
}
330
D
100
AcDbGroup
300

 70
     1
 71
     1
  0
GROUP
  5
20028
102
{ACAD_REACTORS
330
D
102
}
330
D
100
AcDbGroup
300

 70
     1
 71
     1
  0
GROUP
  5
22E4B
102
{ACAD_REACTORS
330
D
102
}
330
D
100
AcDbGroup
300

 70
     1
 71
     1
  0
GROUP
  5
19A51
102
{ACAD_REACTORS
330
D
102
}
330
D
100
AcDbGroup
300

 70
     1
 71
     1
  0
GROUP
  5
1D684
102
{ACAD_REACTORS
330
D
102
}
330
D
100
AcDbGroup
300

 70
     1
 71
     1
  0
GROUP
  5
16068
102
{ACAD_REACTORS
330
D
102
}
330
D
100
AcDbGroup
300

 70
     1
 71
     1
  0
GROUP
  5
24AB0
102
{ACAD_REACTORS
330
D
102
}
330
D
100
AcDbGroup
300

 70
     1
 71
     1
  0
GROUP
  5
20013
102
{ACAD_REACTORS
330
D
102
}
330
D
100
AcDbGroup
300

 70
     1
 71
     1
  0
GROUP
  5
19794
102
{ACAD_REACTORS
330
D
102
}
330
D
100
AcDbGroup
300

 70
     1
 71
     1
  0
GROUP
  5
1D6F2
102
{ACAD_REACTORS
330
D
102
}
330
D
100
AcDbGroup
300

 70
     1
 71
     1
  0
GROUP
  5
24A4D
102
{ACAD_REACTORS
330
D
102
}
330
D
100
AcDbGroup
300

 70
     1
 71
     1
  0
GROUP
  5
23BB3
102
{ACAD_REACTORS
330
D
102
}
330
D
100
AcDbGroup
300

 70
     1
 71
     1
  0
GROUP
  5
1D68E
102
{ACAD_REACTORS
330
D
102
}
330
D
100
AcDbGroup
300

 70
     1
 71
     1
  0
GROUP
  5
17389
102
{ACAD_REACTORS
330
D
102
}
330
D
100
AcDbGroup
300

 70
     1
 71
     1
  0
GROUP
  5
249FA
102
{ACAD_REACTORS
330
D
102
}
330
D
100
AcDbGroup
300

 70
     1
 71
     1
  0
GROUP
  5
1F918
102
{ACAD_REACTORS
330
D
102
}
330
D
100
AcDbGroup
300

 70
     1
 71
     1
  0
GROUP
  5
1D706
102
{ACAD_REACTORS
330
D
102
}
330
D
100
AcDbGroup
300

 70
     1
 71
     1
  0
GROUP
  5
24A44
102
{ACAD_REACTORS
330
D
102
}
330
D
100
AcDbGroup
300

 70
     1
 71
     1
  0
GROUP
  5
24ADA
102
{ACAD_REACTORS
330
D
102
}
330
D
100
AcDbGroup
300

 70
     1
 71
     1
  0
GROUP
  5
232CA
102
{ACAD_REACTORS
330
D
102
}
330
D
100
AcDbGroup
300

 70
     1
 71
     1
  0
GROUP
  5
1B732
102
{ACAD_REACTORS
330
D
102
}
330
D
100
AcDbGroup
300

 70
     1
 71
     1
  0
GROUP
  5
1D6D4
102
{ACAD_REACTORS
330
D
102
}
330
D
100
AcDbGroup
300

 70
     1
 71
     1
  0
GROUP
  5
2021D
102
{ACAD_REACTORS
330
D
102
}
330
D
100
AcDbGroup
300

 70
     1
 71
     1
  0
GROUP
  5
24722
102
{ACAD_REACTORS
330
D
102
}
330
D
100
AcDbGroup
300

 70
     1
 71
     1
  0
GROUP
  5
24AB6
102
{ACAD_REACTORS
330
D
102
}
330
D
100
AcDbGroup
300

 70
     1
 71
     1
  0
GROUP
  5
2022C
102
{ACAD_REACTORS
330
D
102
}
330
D
100
AcDbGroup
300

 70
     1
 71
     1
  0
GROUP
  5
24A45
102
{ACAD_REACTORS
330
D
102
}
330
D
100
AcDbGroup
300

 70
     1
 71
     1
  0
GROUP
  5
24729
102
{ACAD_REACTORS
330
D
102
}
330
D
100
AcDbGroup
300

 70
     1
 71
     1
  0
GROUP
  5
17901
102
{ACAD_REACTORS
330
D
102
}
330
D
100
AcDbGroup
300

 70
     1
 71
     1
  0
GROUP
  5
2471C
102
{ACAD_REACTORS
330
D
102
}
330
D
100
AcDbGroup
300

 70
     1
 71
     1
  0
GROUP
  5
24A4B
102
{ACAD_REACTORS
330
D
102
}
330
D
100
AcDbGroup
300

 70
     1
 71
     1
  0
GROUP
  5
1EB7E
102
{ACAD_REACTORS
330
D
102
}
330
D
100
AcDbGroup
300

 70
     1
 71
     1
  0
GROUP
  5
1B756
102
{ACAD_REACTORS
330
D
102
}
330
D
100
AcDbGroup
300

 70
     1
 71
     1
  0
GROUP
  5
240F0
102
{ACAD_REACTORS
330
D
102
}
330
D
100
AcDbGroup
300

 70
     1
 71
     1
340
23DC0
340
23EE2
340
23DC1
340
23DBF
340
23DD7
  0
GROUP
  5
22498
102
{ACAD_REACTORS
330
D
102
}
330
D
100
AcDbGroup
300

 70
     1
 71
     1
  0
GROUP
  5
24AE0
102
{ACAD_REACTORS
330
D
102
}
330
D
100
AcDbGroup
300

 70
     1
 71
     1
  0
GROUP
  5
19989
102
{ACAD_REACTORS
330
D
102
}
330
D
100
AcDbGroup
300

 70
     1
 71
     1
  0
GROUP
  5
20222
102
{ACAD_REACTORS
330
D
102
}
330
D
100
AcDbGroup
300

 70
     1
 71
     1
  0
GROUP
  5
24A46
102
{ACAD_REACTORS
330
D
102
}
330
D
100
AcDbGroup
300

 70
     1
 71
     1
  0
GROUP
  5
18F22
102
{ACAD_REACTORS
330
D
102
}
330
D
100
AcDbGroup
300

 70
     1
 71
     1
  0
GROUP
  5
FB6B
102
{ACAD_REACTORS
330
D
102
}
330
D
100
AcDbGroup
300

 70
     1
 71
     1
  0
GROUP
  5
24A11
102
{ACAD_REACTORS
330
D
102
}
330
D
100
AcDbGroup
300

 70
     1
 71
     1
  0
GROUP
  5
224AC
102
{ACAD_REACTORS
330
D
102
}
330
D
100
AcDbGroup
300

 70
     1
 71
     1
  0
GROUP
  5
24A47
102
{ACAD_REACTORS
330
D
102
}
330
D
100
AcDbGroup
300

 70
     1
 71
     1
  0
GROUP
  5
18F1F
102
{ACAD_REACTORS
330
D
102
}
330
D
100
AcDbGroup
300

 70
     1
 71
     1
  0
GROUP
  5
18F23
102
{ACAD_REACTORS
330
D
102
}
330
D
100
AcDbGroup
300

 70
     1
 71
     1
  0
GROUP
  5
24AE6
102
{ACAD_REACTORS
330
D
102
}
330
D
100
AcDbGroup
300

 70
     1
 71
     1
  0
GROUP
  5
2471B
102
{ACAD_REACTORS
330
D
102
}
330
D
100
AcDbGroup
300

 70
     1
 71
     1
  0
GROUP
  5
1EB7C
102
{ACAD_REACTORS
330
D
102
}
330
D
100
AcDbGroup
300

 70
     1
 71
     1
  0
GROUP
  5
24A4C
102
{ACAD_REACTORS
330
D
102
}
330
D
100
AcDbGroup
300

 70
     1
 71
     1
  0
GROUP
  5
19FAB
102
{ACAD_REACTORS
330
D
102
}
330
D
100
AcDbGroup
300

 70
     1
 71
     1
  0
GROUP
  5
18FA7
102
{ACAD_REACTORS
330
D
102
}
330
D
100
AcDbGroup
300

 70
     1
 71
     1
  0
GROUP
  5
24A02
102
{ACAD_REACTORS
330
D
102
}
330
D
100
AcDbGroup
300

 70
     1
 71
     1
  0
GROUP
  5
1D67A
102
{ACAD_REACTORS
330
D
102
}
330
D
100
AcDbGroup
300

 70
     1
 71
     1
  0
GROUP
  5
24AFE
102
{ACAD_REACTORS
330
D
102
}
330
D
100
AcDbGroup
300

 70
     1
 71
     1
  0
GROUP
  5
FC9A
102
{ACAD_REACTORS
330
D
102
}
330
D
100
AcDbGroup
300

 70
     1
 71
     1
  0
GROUP
  5
24724
102
{ACAD_REACTORS
330
D
102
}
330
D
100
AcDbGroup
300

 70
     1
 71
     1
  0
GROUP
  5
227B1
102
{ACAD_REACTORS
330
D
102
}
330
D
100
AcDbGroup
300

 70
     1
 71
     1
  0
GROUP
  5
20025
102
{ACAD_REACTORS
330
D
102
}
330
D
100
AcDbGroup
300

 70
     1
 71
     1
  0
GROUP
  5
24ABC
102
{ACAD_REACTORS
330
D
102
}
330
D
100
AcDbGroup
300

 70
     1
 71
     1
  0
GROUP
  5
24A1F
102
{ACAD_REACTORS
330
D
102
}
330
D
100
AcDbGroup
300

 70
     1
 71
     1
  0
GROUP
  5
2244A
102
{ACAD_REACTORS
330
D
102
}
330
D
100
AcDbGroup
300

 70
     1
 71
     1
  0
GROUP
  5
1D698
102
{ACAD_REACTORS
330
D
102
}
330
D
100
AcDbGroup
300

 70
     1
 71
     1
  0
GROUP
  5
24A80
102
{ACAD_REACTORS
330
D
102
}
330
D
100
AcDbGroup
300

 70
     1
 71
     1
  0
GROUP
  5
24725
102
{ACAD_REACTORS
330
D
102
}
330
D
100
AcDbGroup
300

 70
     1
 71
     1
  0
GROUP
  5
20CA6
102
{ACAD_REACTORS
330
D
102
}
330
D
100
AcDbGroup
300

 70
     1
 71
     1
  0
GROUP
  5
1B729
102
{ACAD_REACTORS
330
D
102
}
330
D
100
AcDbGroup
300

 70
     1
 71
     1
  0
GROUP
  5
2002B
102
{ACAD_REACTORS
330
D
102
}
330
D
100
AcDbGroup
300

 70
     1
 71
     1
  0
GROUP
  5
1EB80
102
{ACAD_REACTORS
330
D
102
}
330
D
100
AcDbGroup
300

 70
     1
 71
     1
  0
GROUP
  5
20010
102
{ACAD_REACTORS
330
D
102
}
330
D
100
AcDbGroup
300

 70
     1
 71
     1
  0
GROUP
  5
19F55
102
{ACAD_REACTORS
330
D
102
}
330
D
100
AcDbGroup
300

 70
     1
 71
     1
  0
GROUP
  5
240EE
102
{ACAD_REACTORS
330
D
102
}
330
D
100
AcDbGroup
300

 70
     1
 71
     1
  0
GROUP
  5
24718
102
{ACAD_REACTORS
330
D
102
}
330
D
100
AcDbGroup
300

 70
     1
 71
     1
  0
GROUP
  5
24A48
102
{ACAD_REACTORS
330
D
102
}
330
D
100
AcDbGroup
300

 70
     1
 71
     1
  0
GROUP
  5
24AC2
102
{ACAD_REACTORS
330
D
102
}
330
D
100
AcDbGroup
300

 70
     1
 71
     1
  0
GROUP
  5
19861
102
{ACAD_REACTORS
330
D
102
}
330
D
100
AcDbGroup
300

 70
     1
 71
     1
  0
GROUP
  5
1D670
102
{ACAD_REACTORS
330
D
102
}
330
D
100
AcDbGroup
300

 70
     1
 71
     1
  0
GROUP
  5
FB6C
102
{ACAD_REACTORS
330
D
102
}
330
D
100
AcDbGroup
300

 70
     1
 71
     1
  0
GROUP
  5
215A2
102
{ACAD_REACTORS
330
D
102
}
330
D
100
AcDbGroup
300

 70
     1
 71
     1
  0
GROUP
  5
24AF2
102
{ACAD_REACTORS
330
D
102
}
330
D
100
AcDbGroup
300

 70
     1
 71
     1
  0
GROUP
  5
1D6A2
102
{ACAD_REACTORS
330
D
102
}
330
D
100
AcDbGroup
300

 70
     1
 71
     1
  0
GROUP
  5
224D1
102
{ACAD_REACTORS
330
D
102
}
330
D
100
AcDbGroup
300

 70
     1
 71
     1
  0
GROUP
  5
19255
102
{ACAD_REACTORS
330
D
102
}
330
D
100
AcDbGroup
300

 70
     1
 71
     1
  0
GROUP
  5
1AA94
102
{ACAD_REACTORS
330
D
102
}
330
D
100
AcDbGroup
300

 70
     1
 71
     1
  0
GROUP
  5
19787
102
{ACAD_REACTORS
330
D
102
}
330
D
100
AcDbGroup
300

 70
     1
 71
     1
  0
GROUP
  5
24730
102
{ACAD_REACTORS
330
D
102
}
330
D
100
AcDbGroup
300

 70
     1
 71
     1
  0
GROUP
  5
19F87
102
{ACAD_REACTORS
330
D
102
}
330
D
100
AcDbGroup
300

 70
     1
 71
     1
  0
GROUP
  5
FC95
102
{ACAD_REACTORS
330
D
102
}
330
D
100
AcDbGroup
300

 70
     1
 71
     1
  0
GROUP
  5
24A03
102
{ACAD_REACTORS
330
D
102
}
330
D
100
AcDbGroup
300

 70
     1
 71
     1
  0
GROUP
  5
24AC8
102
{ACAD_REACTORS
330
D
102
}
330
D
100
AcDbGroup
300

 70
     1
 71
     1
  0
GROUP
  5
24A1E
102
{ACAD_REACTORS
330
D
102
}
330
D
100
AcDbGroup
300

 70
     1
 71
     1
  0
GROUP
  5
1738B
102
{ACAD_REACTORS
330
D
102
}
330
D
100
AcDbGroup
300

 70
     1
 71
     1
  0
GROUP
  5
19988
102
{ACAD_REACTORS
330
D
102
}
330
D
100
AcDbGroup
300

 70
     1
 71
     1
  0
GROUP
  5
196C2
102
{ACAD_REACTORS
330
D
102
}
330
D
100
AcDbGroup
300

 70
     1
 71
     1
  0
GROUP
  5
24ACE
102
{ACAD_REACTORS
330
D
102
}
330
D
100
AcDbGroup
300

 70
     1
 71
     1
  0
GROUP
  5
19786
102
{ACAD_REACTORS
330
D
102
}
330
D
100
AcDbGroup
300

 70
     1
 71
     1
  0
GROUP
  5
19F99
102
{ACAD_REACTORS
330
D
102
}
330
D
100
AcDbGroup
300

 70
     1
 71
     1
  0
GROUP
  5
2001F
102
{ACAD_REACTORS
330
D
102
}
330
D
100
AcDbGroup
300

 70
     1
 71
     1
  0
GROUP
  5
20227
102
{ACAD_REACTORS
330
D
102
}
330
D
100
AcDbGroup
300

 70
     1
 71
     1
  0
GROUP
  5
1D6CA
102
{ACAD_REACTORS
330
D
102
}
330
D
100
AcDbGroup
300

 70
     1
 71
     1
  0
GROUP
  5
24720
102
{ACAD_REACTORS
330
D
102
}
330
D
100
AcDbGroup
300

 70
     1
 71
     1
  0
GROUP
  5
24A4F
102
{ACAD_REACTORS
330
D
102
}
330
D
100
AcDbGroup
300

 70
     1
 71
     1
  0
GROUP
  5
24AF8
102
{ACAD_REACTORS
330
D
102
}
330
D
100
AcDbGroup
300

 70
     1
 71
     1
  0
GROUP
  5
20CA2
102
{ACAD_REACTORS
330
D
102
}
330
D
100
AcDbGroup
300

 70
     1
 71
     1
  0
GROUP
  5
19729
102
{ACAD_REACTORS
330
D
102
}
330
D
100
AcDbGroup
300

 70
     1
 71
     1
  0
GROUP
  5
1EB7F
102
{ACAD_REACTORS
330
D
102
}
330
D
100
AcDbGroup
300

 70
     1
 71
     1
  0
GROUP
  5
24B32
102
{ACAD_REACTORS
330
D
102
}
330
D
100
AcDbGroup
300

 70
     1
 71
     1
  0
GROUP
  5
173BF
102
{ACAD_REACTORS
330
D
102
}
330
D
100
AcDbGroup
300

 70
     1
 71
     1
  0
GROUP
  5
106C7
102
{ACAD_REACTORS
330
D
102
}
330
D
100
AcDbGroup
300

 70
     1
 71
     1
  0
GROUP
  5
1F909
102
{ACAD_REACTORS
330
D
102
}
330
D
100
AcDbGroup
300

 70
     1
 71
     1
  0
GROUP
  5
24A7A
102
{ACAD_REACTORS
330
D
102
}
330
D
100
AcDbGroup
300

 70
     1
 71
     1
  0
GROUP
  5
24A18
102
{ACAD_REACTORS
330
D
102
}
330
D
100
AcDbGroup
300

 70
     1
 71
     1
  0
GROUP
  5
2472E
102
{ACAD_REACTORS
330
D
102
}
330
D
100
AcDbGroup
300

 70
     1
 71
     1
  0
GROUP
  5
19AA4
102
{ACAD_REACTORS
330
D
102
}
330
D
100
AcDbGroup
300

 70
     1
 71
     1
  0
GROUP
  5
240EF
102
{ACAD_REACTORS
330
D
102
}
330
D
100
AcDbGroup
300

 70
     1
 71
     1
  0
GROUP
  5
24B56
102
{ACAD_REACTORS
330
D
102
}
330
D
100
AcDbGroup
300

 70
     1
 71
     1
  0
GROUP
  5
1A695
102
{ACAD_REACTORS
330
D
102
}
330
D
100
AcDbGroup
300

 70
     1
 71
     1
  0
GROUP
  5
24A92
102
{ACAD_REACTORS
330
D
102
}
330
D
100
AcDbGroup
300

 70
     1
 71
     1
  0
GROUP
  5
1D6B6
102
{ACAD_REACTORS
330
D
102
}
330
D
100
AcDbGroup
300

 70
     1
 71
     1
  0
GROUP
  5
1F904
102
{ACAD_REACTORS
330
D
102
}
330
D
100
AcDbGroup
300

 70
     1
 71
     1
  0
GROUP
  5
106C6
102
{ACAD_REACTORS
330
D
102
}
330
D
100
AcDbGroup
300

 70
     1
 71
     1
  0
GROUP
  5
AC9A
102
{ACAD_REACTORS
330
D
102
}
330
D
100
AcDbGroup
300

 70
     1
 71
     1
  0
GROUP
  5
1D6FC
102
{ACAD_REACTORS
330
D
102
}
330
D
100
AcDbGroup
300

 70
     1
 71
     1
  0
GROUP
  5
2472C
102
{ACAD_REACTORS
330
D
102
}
330
D
100
AcDbGroup
300

 70
     1
 71
     1
  0
GROUP
  5
23A77
102
{ACAD_REACTORS
330
D
102
}
330
D
100
AcDbGroup
300

 70
     1
 71
     1
  0
GROUP
  5
1A09A
102
{ACAD_REACTORS
330
D
102
}
330
D
100
AcDbGroup
300

 70
     1
 71
     1
  0
GROUP
  5
1D6DE
102
{ACAD_REACTORS
330
D
102
}
330
D
100
AcDbGroup
300

 70
     1
 71
     1
  0
GROUP
  5
24913
102
{ACAD_REACTORS
330
D
102
}
330
D
100
AcDbGroup
300

 70
     1
 71
     1
  0
GROUP
  5
169DA
102
{ACAD_REACTORS
330
D
102
}
330
D
100
AcDbGroup
300

 70
     1
 71
     1
  0
GROUP
  5
24A74
102
{ACAD_REACTORS
330
D
102
}
330
D
100
AcDbGroup
300

 70
     1
 71
     1
  0
GROUP
  5
24721
102
{ACAD_REACTORS
330
D
102
}
330
D
100
AcDbGroup
300

 70
     1
 71
     1
  0
GROUP
  5
19A52
102
{ACAD_REACTORS
330
D
102
}
330
D
100
AcDbGroup
300

 70
     1
 71
     1
  0
LAYOUT
  5
FB5D
102
{ACAD_REACTORS
330
DB2
102
}
330
DB2
100
AcDbPlotSettings
  1

  2
\\HONAMI\LBP-910
  4
A3
  6

 40
5.873749732971191
 41
5.873747825622558
 42
5.873748779296875
 43
5.873748779296875
 44
296.9259948730469
 45
419.9466552734374
 46
0.0
 47
0.0
 48
-134.0496161171158
 49
-116.2294073187233
140
1105.745250909008
141
633.2284101676227
142
1.0
143
2.866823569012708
 70
 11952
 72
     1
 73
     1
 74
     1
  7
monochrome.ctb
 75
     0
147
0.3488181173089717
148
98.7130430422485
149
74.96499340265336
100
AcDbLayout
  1
Model
 70
     1
 71
     0
 10
0.0
 20
0.0
 11
12.0
 21
9.0
 12
0.0
 22
0.0
 32
0.0
 14
0.0
 24
0.0
 34
0.0
 15
0.0
 25
0.0
 35
0.0
146
0.0
 13
0.0
 23
0.0
 33
0.0
 16
1.0
 26
0.0
 36
0.0
 17
0.0
 27
1.0
 37
0.0
 76
     0
330
18
  0
LAYOUT
  5
FB5E
102
{ACAD_REACTORS
330
DB2
102
}
330
DB2
100
AcDbPlotSettings
  1

  2
HP 750C_aaa3.pc3
  4
User257
  6

 40
4.995333194732666
 41
9.990656852722167
 42
4.995330810546875
 43
9.99066162109375
 44
296.9683227539062
 45
419.9466552734374
 46
-1.27
 47
2.0
 48
0.0
 49
0.0
140
0.0
141
0.0
142
1.0
143
1.0
 70
   688
 72
     1
 73
     1
 74
     1
  7
monochrome.ctb
 75
    16
147
1.0
148
0.0069151357504325
149
1.504760646795716
100
AcDbLayout
  1
外形図
 70
     0
 71
     1
 10
-11.99757675684418
 20
-5.230093841528383
 11
407.9490785165932
 21
291.7382289123778
 12
0.0
 22
0.0
 32
0.0
 14
-0.0276607253074417
 24
-0.0054154686091579
 34
-0.0000000349181948
 15
400.0161272263867
 25
288.0089063324641
 35
0.0000000814935746
146
0.0
 13
0.0
 23
0.0
 33
0.0
 16
1.0
 26
0.0
 36
0.0
 17
0.0
 27
1.0
 37
0.0
 76
     0
330
15
331
23
  0
MLINESTYLE
  5
1C
102
{ACAD_REACTORS
330
1B
102
}
330
1B
100
AcDbMlineStyle
  2
STANDARD
 70
     0
  3

 62
   256
 51
90.0
 52
90.0
 71
     2
 49
0.5
 62
   256
  6
BYLAYER
 49
-0.5
 62
   256
  6
BYLAYER
  0
ACDBPLACEHOLDER
  5
FB5C
102
{ACAD_REACTORS
330
FB5B
102
}
330
FB5B
  0
DICTIONARYVAR
  5
106A7
102
{ACAD_REACTORS
330
106A6
102
}
330
106A6
100
DictionaryVariables
280
     0
  1
96
  0
XRECORD
  5
1A9A1
102
{ACAD_REACTORS
330
1A99F
102
}
330
1A99F
100
AcDbXrecord
280
     1
330
187D7
330
0
330
0
330
0
330
0
330
0
330
0
330
0
330
0
330
0
330
79
330
115F
330
0
330
0
330
0
330
0
330
0
330
0
330
0
330
0
330
0
330
0
330
0
330
0
330
0
330
0
330
0
330
0
330
0
330
0
330
0
330
0
330
0
330
0
330
0
330
0
330
0
330
0
330
0
330
0
330
0
330
0
330
0
330
0
  0
XRECORD
  5
25506
102
{ACAD_REACTORS
330
25505
102
}
330
25505
100
AcDbXrecord
280
     1
  1
0
  1
*0
  1
*
  1
*
 70
     0
  1
*
  1
*
  0
XRECORD
  5
25507
102
{ACAD_REACTORS
330
25505
102
}
330
25505
100
AcDbXrecord
280
     1
  1
11
  1
*11
  1
*
  1
*
 70
     0
  1
*
  1
*
  0
XRECORD
  5
25508
102
{ACAD_REACTORS
330
25505
102
}
330
25505
100
AcDbXrecord
280
     1
  1
150_
  1
150_*
  1
*
  1
*
 70
     0
  1
*
  1
*
  0
XRECORD
  5
25509
102
{ACAD_REACTORS
330
25505
102
}
330
25505
100
AcDbXrecord
280
     1
  1
160_
  1
160_*
  1
*
  1
*
 70
     0
  1
*
  1
*
  0
XRECORD
  5
2550A
102
{ACAD_REACTORS
330
25505
102
}
330
25505
100
AcDbXrecord
280
     1
  1
170_
  1
170_*
  1
*
  1
*
 70
     0
  1
*
  1
*
  0
XRECORD
  5
2550B
102
{ACAD_REACTORS
330
25505
102
}
330
25505
100
AcDbXrecord
280
     1
  1
171_
  1
171_*
  1
*
  1
*
 70
     0
  1
*
  1
*
  0
XRECORD
  5
2550C
102
{ACAD_REACTORS
330
25505
102
}
330
25505
100
AcDbXrecord
280
     1
  1
350_
  1
350_*
  1
*
  1
*
 70
     0
  1
*
  1
*
  0
XRECORD
  5
2550D
102
{ACAD_REACTORS
330
25505
102
}
330
25505
100
AcDbXrecord
280
     1
  1
4
  1
*4
  1
*
  1
*
 70
     0
  1
*
  1
*
  0
XRECORD
  5
2550E
102
{ACAD_REACTORS
330
25505
102
}
330
25505
100
AcDbXrecord
280
     1
  1
5
  1
*5
  1
*
  1
*
 70
     0
  1
*
  1
*
  0
XRECORD
  5
2550F
102
{ACAD_REACTORS
330
25505
102
}
330
25505
100
AcDbXrecord
280
     1
  1
7
  1
*7
  1
*
  1
*
 70
     0
  1
*
  1
*
  0
XRECORD
  5
25510
102
{ACAD_REACTORS
330
25505
102
}
330
25505
100
AcDbXrecord
280
     1
  1
kiseki
  1
kiseki*
  1
*
  1
*
 70
     0
  1
*
  1
*
  0
ENDSEC
  0
EOF
