  0
SECTION
  2
HEADER
  9
$ACADVER
  1
AC1015
  9
$ACADMAINTVER
 70
    10
  9
$DWGCODEPAGE
  3
ANSI_932
  9
$INSBASE
 10
0.0
 20
0.0
 30
0.0
  9
$EXTMIN
 10
167.1825875009164
 20
-1647.448498369815
 30
0.0
  9
$EXTMAX
 10
880.5614071827047
 20
2218.451241203808
 30
137.5
  9
$LIMMIN
 10
0.0
 20
0.0
  9
$LIMMAX
 10
420.0
 20
297.0
  9
$ORTHOMODE
 70
     1
  9
$REGENMODE
 70
     1
  9
$FILLMODE
 70
     1
  9
$QTEXTMODE
 70
     0
  9
$MIRRTEXT
 70
     0
  9
$LTSCALE
 40
20.0
  9
$ATTMODE
 70
     2
  9
$TEXTSIZE
 40
2.5
  9
$TRACEWID
 40
1.0
  9
$TEXTSTYLE
  7
まこ
  9
$CLAYER
  8
dimension
  9
$CELTYPE
  6
BYLAYER
  9
$CECOLOR
 62
   256
  9
$CELTSCALE
 40
1.0
  9
$DISPSILH
 70
     0
  9
$DIMSCALE
 40
1.5
  9
$DIMASZ
 40
2.5
  9
$DIMEXO
 40
0.8
  9
$DIMDLI
 40
0.38
  9
$DIMRND
 40
0.0
  9
$DIMDLE
 40
0.0
  9
$DIMEXE
 40
0.18
  9
$DIMTP
 40
0.0
  9
$DIMTM
 40
0.0
  9
$DIMTXT
 40
3.0
  9
$DIMCEN
 40
0.0
  9
$DIMTSZ
 40
0.0
  9
$DIMTOL
 70
     0
  9
$DIMLIM
 70
     0
  9
$DIMTIH
 70
     0
  9
$DIMTOH
 70
     0
  9
$DIMSE1
 70
     0
  9
$DIMSE2
 70
     0
  9
$DIMTAD
 70
     3
  9
$DIMZIN
 70
     8
  9
$DIMBLK
  1
Open30
  9
$DIMASO
 70
     1
  9
$DIMSHO
 70
     1
  9
$DIMPOST
  1

  9
$DIMAPOST
  1

  9
$DIMALT
 70
     0
  9
$DIMALTD
 70
     2
  9
$DIMALTF
 40
25.4
  9
$DIMLFAC
 40
1.0
  9
$DIMTOFL
 70
     0
  9
$DIMTVP
 40
0.0
  9
$DIMTIX
 70
     0
  9
$DIMSOXD
 70
     0
  9
$DIMSAH
 70
     0
  9
$DIMBLK1
  1

  9
$DIMBLK2
  1

  9
$DIMSTYLE
  2
まこ
  9
$DIMCLRD
 70
     4
  9
$DIMCLRE
 70
     4
  9
$DIMCLRT
 70
   256
  9
$DIMTFAC
 40
1.0
  9
$DIMGAP
 40
0.5
  9
$DIMJUST
 70
     0
  9
$DIMSD1
 70
     0
  9
$DIMSD2
 70
     0
  9
$DIMTOLJ
 70
     1
  9
$DIMTZIN
 70
     0
  9
$DIMALTZ
 70
     0
  9
$DIMALTTZ
 70
     0
  9
$DIMUPT
 70
     0
  9
$DIMDEC
 70
     8
  9
$DIMTDEC
 70
     8
  9
$DIMALTU
 70
     2
  9
$DIMALTTD
 70
     2
  9
$DIMTXSTY
  7
まこ
  9
$DIMAUNIT
 70
     0
  9
$DIMADEC
 70
     0
  9
$DIMALTRND
 40
0.0
  9
$DIMAZIN
 70
     0
  9
$DIMDSEP
 70
    46
  9
$DIMATFIT
 70
     1
  9
$DIMFRAC
 70
     0
  9
$DIMLDRBLK
  1
Open30
  9
$DIMLUNIT
 70
     2
  9
$DIMLWD
 70
    13
  9
$DIMLWE
 70
    13
  9
$DIMTMOVE
 70
     0
  9
$LUNITS
 70
     2
  9
$LUPREC
 70
     4
  9
$SKETCHINC
 40
1.0
  9
$FILLETRAD
 40
2.0
  9
$AUNITS
 70
     0
  9
$AUPREC
 70
     0
  9
$MENU
  1
.
  9
$ELEVATION
 40
0.0
  9
$PELEVATION
 40
0.0
  9
$THICKNESS
 40
0.0
  9
$LIMCHECK
 70
     0
  9
$CHAMFERA
 40
0.5
  9
$CHAMFERB
 40
0.5
  9
$CHAMFERC
 40
20.0
  9
$CHAMFERD
 40
0.0
  9
$SKPOLY
 70
     0
  9
$TDCREATE
 40
2451224.660162384
  9
$TDUCREATE
 40
2451224.285162384
  9
$TDUPDATE
 40
2456589.393092801
  9
$TDUUPDATE
 40
2456589.018092801
  9
$TDINDWG
 40
16.8797150000
  9
$TDUSRTIMER
 40
16.8797150000
  9
$USRTIMER
 70
     1
  9
$ANGBASE
 50
0.0
  9
$ANGDIR
 70
     0
  9
$PDMODE
 70
     0
  9
$PDSIZE
 40
0.0
  9
$PLINEWID
 40
0.0
  9
$SPLFRAME
 70
     0
  9
$SPLINETYPE
 70
     6
  9
$SPLINESEGS
 70
     8
  9
$HANDSEED
  5
25790
  9
$SURFTAB1
 70
     6
  9
$SURFTAB2
 70
     6
  9
$SURFTYPE
 70
     6
  9
$SURFU
 70
     6
  9
$SURFV
 70
     6
  9
$UCSBASE
  2

  9
$UCSNAME
  2

  9
$UCSORG
 10
0.0
 20
0.0
 30
0.0
  9
$UCSXDIR
 10
1.0
 20
0.0
 30
0.0
  9
$UCSYDIR
 10
0.0
 20
1.0
 30
0.0
  9
$UCSORTHOREF
  2

  9
$UCSORTHOVIEW
 70
     0
  9
$UCSORGTOP
 10
0.0
 20
0.0
 30
0.0
  9
$UCSORGBOTTOM
 10
0.0
 20
0.0
 30
0.0
  9
$UCSORGLEFT
 10
0.0
 20
0.0
 30
0.0
  9
$UCSORGRIGHT
 10
0.0
 20
0.0
 30
0.0
  9
$UCSORGFRONT
 10
0.0
 20
0.0
 30
0.0
  9
$UCSORGBACK
 10
0.0
 20
0.0
 30
0.0
  9
$PUCSBASE
  2

  9
$PUCSNAME
  2

  9
$PUCSORG
 10
0.0
 20
0.0
 30
0.0
  9
$PUCSXDIR
 10
1.0
 20
0.0
 30
0.0
  9
$PUCSYDIR
 10
0.0
 20
1.0
 30
0.0
  9
$PUCSORTHOREF
  2

  9
$PUCSORTHOVIEW
 70
     0
  9
$PUCSORGTOP
 10
0.0
 20
0.0
 30
0.0
  9
$PUCSORGBOTTOM
 10
0.0
 20
0.0
 30
0.0
  9
$PUCSORGLEFT
 10
0.0
 20
0.0
 30
0.0
  9
$PUCSORGRIGHT
 10
0.0
 20
0.0
 30
0.0
  9
$PUCSORGFRONT
 10
0.0
 20
0.0
 30
0.0
  9
$PUCSORGBACK
 10
0.0
 20
0.0
 30
0.0
  9
$USERI1
 70
     0
  9
$USERI2
 70
     0
  9
$USERI3
 70
     0
  9
$USERI4
 70
     0
  9
$USERI5
 70
     0
  9
$USERR1
 40
245.9999999999999
  9
$USERR2
 40
0.0
  9
$USERR3
 40
0.0
  9
$USERR4
 40
0.0
  9
$USERR5
 40
0.0
  9
$WORLDVIEW
 70
     1
  9
$SHADEDGE
 70
     3
  9
$SHADEDIF
 70
    70
  9
$TILEMODE
 70
     0
  9
$MAXACTVP
 70
    48
  9
$PINSBASE
 10
0.0
 20
0.0
 30
0.0
  9
$PLIMCHECK
 70
     0
  9
$PEXTMIN
 10
-0.0118438918668744
 20
-0.0117952579000758
 30
-0.0000000349181948
  9
$PEXTMAX
 10
404.5174582662729
 20
288.0025265431731
 30
0.0000000814935746
  9
$PLIMMIN
 10
-12.0137993105925
 20
-5.236473630819291
  9
$PLIMMAX
 10
407.9328559628449
 20
291.7318491230869
  9
$UNITMODE
 70
     0
  9
$VISRETAIN
 70
     1
  9
$PLINEGEN
 70
     0
  9
$PSLTSCALE
 70
     0
  9
$TREEDEPTH
 70
  3020
  9
$CMLSTYLE
  2
STANDARD
  9
$CMLJUST
 70
     0
  9
$CMLSCALE
 40
20.0
  9
$PROXYGRAPHICS
 70
     1
  9
$MEASUREMENT
 70
     0
  9
$CELWEIGHT
370
    -1
  9
$ENDCAPS
280
     0
  9
$JOINSTYLE
280
     0
  9
$LWDISPLAY
290
     0
  9
$INSUNITS
 70
     0
  9
$HYPERLINKBASE
  1

  9
$STYLESHEET
  1
monochrome.ctb
  9
$XEDIT
290
     1
  9
$CEPSNTYPE
380
     0
  9
$PSTYLEMODE
290
     1
  9
$FINGERPRINTGUID
  2
{D14EE3FF-941A-415A-9907-344E0A80D794}
  9
$VERSIONGUID
  2
{E488DDDF-B2EE-4D48-B817-6ABA87F9F8EB}
  9
$EXTNAMES
290
     1
  9
$PSVPSCALE
 40
0.0
  9
$OLESTARTUP
290
     0
  0
ENDSEC
  0
SECTION
  2
CLASSES
  0
CLASS
  1
HATCH
  2
AcDbHatch
  3
AutoCAD 2000
 90
    32768
280
     0
281
     1
  0
CLASS
  1
LWPOLYLINE
  2
AcDbPolyline
  3
AutoCAD 2000
 90
    32768
280
     0
281
     1
  0
CLASS
  1
ACDBDICTIONARYWDFLT
  2
AcDbDictionaryWithDefault
  3
AutoCAD 2000
 90
        0
280
     0
281
     0
  0
CLASS
  1
ACDBPLACEHOLDER
  2
AcDbPlaceHolder
  3
AutoCAD 2000
 90
        0
280
     0
281
     0
  0
CLASS
  1
LAYOUT
  2
AcDbLayout
  3
AutoCAD 2000
 90
        0
280
     0
281
     0
  0
CLASS
  1
LONG_TRANSACTION
  2
AcDbLongTransaction
  3
AutoCAD 2000
 90
    32768
280
     0
281
     0
  0
CLASS
  1
LWPOLYLINE
  2
AcDbPolyline
  3
AutoCAD 2000
 90
    32768
280
     0
281
     1
  0
CLASS
  1
HATCH
  2
AcDbHatch
  3
AutoCAD 2000
 90
    32768
280
     0
281
     1
  0
CLASS
  1
XRECORD
  2
AcDbXrecord
  3
AutoCAD 2000
 90
    32768
280
     0
281
     0
  0
CLASS
  1
DICTIONARYVAR
  2
AcDbDictionaryVar
  3
AutoCAD 2000
 90
        0
280
     0
281
     0
  0
ENDSEC
  0
SECTION
  2
TABLES
  0
TABLE
  2
VPORT
  5
8
330
0
100
AcDbSymbolTable
 70
     3
  0
VPORT
  5
25789
330
8
100
AcDbSymbolTableRecord
100
AcDbViewportTableRecord
  2
*Active
 70
     0
 10
0.0
 20
0.0
 11
1.0
 21
1.0
 12
780.5454050765312
 22
-1528.190094542113
 13
0.0
 23
0.0
 14
10.0
 24
10.0
 15
10.0
 25
10.0
 16
0.0
 26
0.0
 36
1.0
 17
0.0
 27
0.0
 37
0.0
 40
31.37446283258304
 41
1.992047713717693
 42
50.0
 43
0.0
 44
0.0
 50
0.0
 51
0.0
 71
     0
 72
   100
 73
     1
 74
     0
 75
     0
 76
     0
 77
     0
 78
     0
281
     0
 65
     1
110
0.0
120
0.0
130
0.0
111
1.0
121
0.0
131
0.0
112
0.0
122
1.0
132
0.0
 79
     0
146
0.0
  0
ENDTAB
  0
TABLE
  2
LTYPE
  5
5
330
0
100
AcDbSymbolTable
 70
    10
  0
LTYPE
  5
12
330
5
100
AcDbSymbolTableRecord
100
AcDbLinetypeTableRecord
  2
BYBLOCK
 70
     0
  3

 72
    65
 73
     0
 40
0.0
  0
LTYPE
  5
13
330
5
100
AcDbSymbolTableRecord
100
AcDbLinetypeTableRecord
  2
BYLAYER
 70
     0
  3

 72
    65
 73
     0
 40
0.0
  0
LTYPE
  5
14
330
5
100
AcDbSymbolTableRecord
100
AcDbLinetypeTableRecord
  2
CONTINUOUS
 70
     0
  3
Solid line
 72
    65
 73
     0
 40
0.0
  0
LTYPE
  5
126C
330
5
100
AcDbSymbolTableRecord
100
AcDbLinetypeTableRecord
  2
CENTER
 70
     0
  3
____ _ ____ _ ____ _ ____ _ ____ _ ____ _ ____
 72
    65
 73
     4
 40
2.0
 49
1.25
 74
     0
 49
-0.25
 74
     0
 49
0.25
 74
     0
 49
-0.25
 74
     0
  0
LTYPE
  5
126E
330
5
100
AcDbSymbolTableRecord
100
AcDbLinetypeTableRecord
  2
DASHDOT
 70
     0
  3
__ . __ . __ . __ . __ . __ . __ . __ . __ . __
 72
    65
 73
     4
 40
1.0
 49
0.5
 74
     0
 49
-0.25
 74
     0
 49
0.0
 74
     0
 49
-0.25
 74
     0
  0
LTYPE
  5
1541F
330
5
100
AcDbSymbolTableRecord
100
AcDbLinetypeTableRecord
  2
HIDDEN
 70
     0
  3
_ _ _ _ _ _ _ _ _ _ _ _ _ _ _ _ _ _ _ _ _ _ _
 72
    65
 73
     2
 40
0.375
 49
0.25
 74
     0
 49
-0.125
 74
     0
  0
LTYPE
  5
1615D
330
5
100
AcDbSymbolTableRecord
100
AcDbLinetypeTableRecord
  2
PHANTOM
 70
     0
  3
Phantom ______  __  __  ______  __  __  ______
 72
    65
 73
     6
 40
2.5
 49
1.25
 74
     0
 49
-0.25
 74
     0
 49
0.25
 74
     0
 49
-0.25
 74
     0
 49
0.25
 74
     0
 49
-0.25
 74
     0
  0
ENDTAB
  0
TABLE
  2
LAYER
  5
2
102
{ACAD_XDICTIONARY
360
254EC
102
}
330
0
100
AcDbSymbolTable
 70
    44
  0
LAYER
  5
E
330
2
100
AcDbSymbolTableRecord
100
AcDbLayerTableRecord
  2
0
 70
     2
 62
     7
  6
CONTINUOUS
370
    35
390
FB5C
  0
LAYER
  5
2C
330
2
100
AcDbSymbolTableRecord
100
AcDbLayerTableRecord
  2
M_VIEW
 70
     4
 62
    -1
  6
CONTINUOUS
370
    -3
390
FB5C
  0
LAYER
  5
30
330
2
100
AcDbSymbolTableRecord
100
AcDbLayerTableRecord
  2
FRAME025
 70
     0
 62
     7
  6
CONTINUOUS
370
    -3
390
FB5C
  0
LAYER
  5
31
330
2
100
AcDbSymbolTableRecord
100
AcDbLayerTableRecord
  2
FRAME050
 70
     0
 62
     7
  6
CONTINUOUS
370
    -3
390
FB5C
  0
LAYER
  5
12B
330
2
100
AcDbSymbolTableRecord
100
AcDbLayerTableRecord
  2
DEFPOINTS
 70
     4
 62
    -7
  6
CONTINUOUS
290
     0
370
    -3
390
FB5C
  0
LAYER
  5
651
330
2
100
AcDbSymbolTableRecord
100
AcDbLayerTableRecord
  2
FRAME020
 70
     0
 62
     7
  6
CONTINUOUS
370
    -3
390
FB5C
  0
LAYER
  5
1271
330
2
100
AcDbSymbolTableRecord
100
AcDbLayerTableRecord
  2
A
 70
     0
 62
     7
  6
CONTINUOUS
370
    -3
390
FB5C
  0
LAYER
  5
A9BB
330
2
100
AcDbSymbolTableRecord
100
AcDbLayerTableRecord
  2
文字
 70
     0
 62
     2
  6
CONTINUOUS
370
    13
390
FB5C
  0
LAYER
  5
122DE
330
2
100
AcDbSymbolTableRecord
100
AcDbLayerTableRecord
  2
dimension
 70
     0
 62
     4
  6
CONTINUOUS
370
    13
390
FB5C
  0
LAYER
  5
15422
330
2
100
AcDbSymbolTableRecord
100
AcDbLayerTableRecord
  2
細線
 70
     0
 62
     4
  6
CONTINUOUS
370
    13
390
FB5C
  0
LAYER
  5
1A846
330
2
100
AcDbSymbolTableRecord
100
AcDbLayerTableRecord
  2
実線
 70
     0
 62
     3
  6
CONTINUOUS
370
    40
390
FB5C
  0
LAYER
  5
1BB4F
330
2
100
AcDbSymbolTableRecord
100
AcDbLayerTableRecord
  2
隠れ線
 70
     0
 62
   252
  6
HIDDEN
370
     9
390
FB5C
  0
LAYER
  5
1F118
330
2
100
AcDbSymbolTableRecord
100
AcDbLayerTableRecord
  2
wakumoji
 70
     0
 62
     7
  6
CONTINUOUS
370
    -3
390
FB5C
  0
ENDTAB
  0
TABLE
  2
STYLE
  5
3
330
0
100
AcDbSymbolTable
 70
    15
  0
STYLE
  5
F
330
3
100
AcDbSymbolTableRecord
100
AcDbTextStyleTableRecord
  2
STANDARD
 70
     0
 40
0.0
 41
1.0
 50
0.0
 71
     0
 42
2.5
  3
MS Gothic.ttf
  4

1001
ACAD
1000
MS Gothic
1071
    32817
  0
STYLE
  5
34
330
3
100
AcDbSymbolTableRecord
100
AcDbTextStyleTableRecord
  2
TIMESNR
 70
     0
 40
0.0
 41
1.0
 50
0.0
 71
     0
 42
2.0
  3
MS Gothic.ttf
  4

1001
ACAD
1000
MS Gothic
1071
    32817
  0
STYLE
  5
35
330
3
100
AcDbSymbolTableRecord
100
AcDbTextStyleTableRecord
  2
MSｺﾞｼｯｸ
 70
     0
 40
0.0
 41
1.0
 50
0.0
 71
     0
 42
5.0
  3
MS Gothic.ttf
  4

1001
ACAD
1000
MS Gothic
1071
    32817
  0
STYLE
  5
1275
330
3
100
AcDbSymbolTableRecord
100
AcDbTextStyleTableRecord
  2
BIGFONT
 70
     0
 40
2.0
 41
1.0
 50
0.0
 71
     0
 42
2.0
  3
MS Gothic.ttf
  4

1001
ACAD
1000
MS Gothic
1071
    32817
  0
STYLE
  5
1A849
330
3
100
AcDbSymbolTableRecord
100
AcDbTextStyleTableRecord
  2
まこ
 70
     0
 40
0.0
 41
1.0
 50
0.0
 71
     0
 42
2.5
  3
MS Gothic.ttf
  4

1001
ACAD
1000
MS Gothic
1071
    32817
  0
STYLE
  5
1A84A
330
3
100
AcDbSymbolTableRecord
100
AcDbTextStyleTableRecord
  2
ｽﾀｲﾙ3
 70
     0
 40
10.0
 41
1.0
 50
0.0
 71
     0
 42
10.0
  3
MS Gothic.ttf
  4

1001
ACAD
1000
MS Gothic
1071
    32817
  0
STYLE
  5
1F8B3
330
3
100
AcDbSymbolTableRecord
100
AcDbTextStyleTableRecord
  2
MSｺﾞｼｯｸN
 70
     0
 40
0.0
 41
1.0
 50
0.0
 71
     0
 42
5.0
  3
MS Gothic.ttf
  4

1001
ACAD
1000
MS Gothic
1071
    32817
  0
STYLE
  5
1FA56
330
3
100
AcDbSymbolTableRecord
100
AcDbTextStyleTableRecord
  2
MSゴシックN
 70
     0
 40
0.0
 41
1.0
 50
0.0
 71
     0
 42
5.0
  3
MS Gothic.ttf
  4

1001
ACAD
1000
MS Gothic
1071
    32817
  0
ENDTAB
  0
TABLE
  2
VIEW
  5
6
330
0
100
AcDbSymbolTable
 70
     0
  0
ENDTAB
  0
TABLE
  2
UCS
  5
7
330
0
100
AcDbSymbolTable
 70
     0
  0
ENDTAB
  0
TABLE
  2
APPID
  5
9
330
0
100
AcDbSymbolTable
 70
     4
  0
APPID
  5
10
330
9
100
AcDbSymbolTableRecord
100
AcDbRegAppTableRecord
  2
ACAD
 70
     0
  0
APPID
  5
F013
330
9
100
AcDbSymbolTableRecord
100
AcDbRegAppTableRecord
  2
CONTENTBLOCKDESCRIPTION
 70
     0
  0
APPID
  5
F014
330
9
100
AcDbSymbolTableRecord
100
AcDbRegAppTableRecord
  2
CONTENTBLOCKICON
 70
     0
  0
APPID
  5
1A9A0
330
9
100
AcDbSymbolTableRecord
100
AcDbRegAppTableRecord
  2
DCO15
 70
     0
  0
ENDTAB
  0
TABLE
  2
DIMSTYLE
  5
A
330
0
100
AcDbSymbolTable
 70
    13
100
AcDbDimStyleTable
 71
     2
340
1A84D
340
1D
  0
DIMSTYLE
105
1D
330
A
100
AcDbSymbolTableRecord
100
AcDbDimStyleTableRecord
  2
STANDARD
 70
     0
340
F
  0
DIMSTYLE
105
1A84D
102
{ACAD_REACTORS
330
23600
330
23667
330
23675
330
236AB
330
2372B
330
23770
330
2377D
330
23793
330
237B6
330
237ED
330
237F4
330
237EC
330
237FD
330
237F5
330
238A5
330
238B2
330
238BF
330
238E7
330
24CF1
330
24D12
330
24D28
330
237E5
330
23A8C
330
23D2F
330
23D31
330
23DA9
330
24D59
102
}
330
A
100
AcDbSymbolTableRecord
100
AcDbDimStyleTableRecord
  2
まこ
 70
     0
 40
1.5
 41
2.5
 42
0.8
 73
     0
 74
     0
 77
     3
 78
     8
140
3.0
141
0.0
147
0.5
176
     4
177
     4
178
   256
271
     8
272
     8
289
     1
340
1A849
341
1215D
342
1215D
371
    13
372
    13
  0
ENDTAB
  0
TABLE
  2
BLOCK_RECORD
  5
1
330
0
100
AcDbSymbolTable
 70
    44
  0
BLOCK_RECORD
  5
18
102
{ACAD_XDICTIONARY
360
EFC6
102
}
330
1
100
AcDbSymbolTableRecord
100
AcDbBlockTableRecord
  2
*MODEL_SPACE
340
FB5D
  0
BLOCK_RECORD
  5
15
102
{ACAD_XDICTIONARY
360
EFC4
102
}
330
1
100
AcDbSymbolTableRecord
100
AcDbBlockTableRecord
  2
*PAPER_SPACE
340
FB5E
  0
BLOCK_RECORD
  5
115C
330
1
100
AcDbSymbolTableRecord
100
AcDbBlockTableRecord
  2
機械A4横_LBP
340
0
102
{BLKREFS
331
115F
331
187D7
102
}
  0
BLOCK_RECORD
  5
1215D
330
1
100
AcDbSymbolTableRecord
100
AcDbBlockTableRecord
  2
_Open30
340
0
102
{BLKREFS
331
252A9
331
252AA
331
252B3
331
252B4
331
252BD
331
252BE
331
252C6
331
252C7
331
252CF
331
252D0
331
252D8
331
252D9
331
25348
331
25349
331
25351
331
25352
331
2535A
331
2535B
331
25364
331
25365
331
25388
331
25389
331
253B7
331
253B8
331
253C0
331
253C1
331
253D3
331
253D4
331
253F2
331
253F3
331
254A1
331
254A2
331
254B5
331
254B6
331
254C3
331
2555B
331
2555C
331
25567
331
256AD
331
256AE
102
}
  0
BLOCK_RECORD
  5
153E2
330
1
100
AcDbSymbolTableRecord
100
AcDbBlockTableRecord
  2
_DotSmall
340
0
102
{BLKREFS
331
254C2
331
25568
102
}
  0
BLOCK_RECORD
  5
23601
330
1
100
AcDbSymbolTableRecord
100
AcDbBlockTableRecord
  2
*D22
340
0
  0
BLOCK_RECORD
  5
23668
330
1
100
AcDbSymbolTableRecord
100
AcDbBlockTableRecord
  2
*D23
340
0
  0
BLOCK_RECORD
  5
23676
330
1
100
AcDbSymbolTableRecord
100
AcDbBlockTableRecord
  2
*D24
340
0
  0
BLOCK_RECORD
  5
236AC
330
1
100
AcDbSymbolTableRecord
100
AcDbBlockTableRecord
  2
*D25
340
0
  0
BLOCK_RECORD
  5
2372C
330
1
100
AcDbSymbolTableRecord
100
AcDbBlockTableRecord
  2
*D26
340
0
  0
BLOCK_RECORD
  5
23771
330
1
100
AcDbSymbolTableRecord
100
AcDbBlockTableRecord
  2
*D27
340
0
  0
BLOCK_RECORD
  5
2377E
330
1
100
AcDbSymbolTableRecord
100
AcDbBlockTableRecord
  2
*D28
340
0
  0
BLOCK_RECORD
  5
23794
330
1
100
AcDbSymbolTableRecord
100
AcDbBlockTableRecord
  2
*D29
340
0
  0
BLOCK_RECORD
  5
237B7
330
1
100
AcDbSymbolTableRecord
100
AcDbBlockTableRecord
  2
*D30
340
0
  0
BLOCK_RECORD
  5
23802
330
1
100
AcDbSymbolTableRecord
100
AcDbBlockTableRecord
  2
*D31
340
0
  0
BLOCK_RECORD
  5
2380E
330
1
100
AcDbSymbolTableRecord
100
AcDbBlockTableRecord
  2
*D32
340
0
  0
BLOCK_RECORD
  5
2381E
330
1
100
AcDbSymbolTableRecord
100
AcDbBlockTableRecord
  2
*D33
340
0
  0
BLOCK_RECORD
  5
2382A
330
1
100
AcDbSymbolTableRecord
100
AcDbBlockTableRecord
  2
*D34
340
0
  0
BLOCK_RECORD
  5
23836
330
1
100
AcDbSymbolTableRecord
100
AcDbBlockTableRecord
  2
*D35
340
0
  0
BLOCK_RECORD
  5
238A6
330
1
100
AcDbSymbolTableRecord
100
AcDbBlockTableRecord
  2
*D36
340
0
  0
BLOCK_RECORD
  5
238B3
330
1
100
AcDbSymbolTableRecord
100
AcDbBlockTableRecord
  2
*D37
340
0
  0
BLOCK_RECORD
  5
238C0
330
1
100
AcDbSymbolTableRecord
100
AcDbBlockTableRecord
  2
*D38
340
0
  0
BLOCK_RECORD
  5
238E8
330
1
100
AcDbSymbolTableRecord
100
AcDbBlockTableRecord
  2
*D39
340
0
  0
BLOCK_RECORD
  5
24CF2
330
1
100
AcDbSymbolTableRecord
100
AcDbBlockTableRecord
  2
*D40
340
0
  0
BLOCK_RECORD
  5
24D13
330
1
100
AcDbSymbolTableRecord
100
AcDbBlockTableRecord
  2
*D41
340
0
  0
BLOCK_RECORD
  5
24D29
330
1
100
AcDbSymbolTableRecord
100
AcDbBlockTableRecord
  2
*D42
340
0
  0
ENDTAB
  0
ENDSEC
  0
SECTION
  2
BLOCKS
  0
BLOCK
  5
19
330
18
100
AcDbEntity
  8
0
100
AcDbBlockBegin
  2
*MODEL_SPACE
 70
     0
 10
0.0
 20
0.0
 30
0.0
  3
*MODEL_SPACE
  1

  0
ENDBLK
  5
1A
330
18
100
AcDbEntity
  8
0
100
AcDbBlockEnd
  0
BLOCK
  5
16
330
15
100
AcDbEntity
 67
     1
  8
0
100
AcDbBlockBegin
  2
*PAPER_SPACE
 70
     0
 10
0.0
 20
0.0
 30
0.0
  3
*PAPER_SPACE
  1

  0
ENDBLK
  5
17
330
15
100
AcDbEntity
 67
     1
  8
0
100
AcDbBlockEnd
  0
BLOCK
  5
115D
330
115C
100
AcDbEntity
  8
0
100
AcDbBlockBegin
  2
機械A4横_LBP
 70
     0
 10
0.0
 20
0.0
 30
0.0
  3
機械A4横_LBP
  1

  0
ENDBLK
  5
115E
330
115C
100
AcDbEntity
  8
0
100
AcDbBlockEnd
  0
BLOCK
  5
12161
330
1215D
100
AcDbEntity
  8
0
100
AcDbBlockBegin
  2
_Open30
 70
     0
 10
0.0
 20
0.0
 30
0.0
  3
_Open30
  1

  0
LINE
  5
1215E
330
1215D
100
AcDbEntity
  8
0
  6
ByBlock
 62
     0
370
    -2
100
AcDbLine
 10
-1.0
 20
0.26794919
 30
0.0
 11
0.0
 21
0.0
 31
0.0
  0
LINE
  5
1215F
330
1215D
100
AcDbEntity
  8
0
  6
ByBlock
 62
     0
370
    -2
100
AcDbLine
 10
0.0
 20
0.0
 30
0.0
 11
-1.0
 21
-0.26794919
 31
0.0
  0
LINE
  5
12160
330
1215D
100
AcDbEntity
  8
0
  6
ByBlock
 62
     0
370
    -2
100
AcDbLine
 10
0.0
 20
0.0
 30
0.0
 11
-1.0
 21
0.0
 31
0.0
  0
ENDBLK
  5
12162
330
1215D
100
AcDbEntity
  8
0
100
AcDbBlockEnd
  0
BLOCK
  5
153E4
330
153E2
100
AcDbEntity
  8
0
100
AcDbBlockBegin
  2
_DotSmall
 70
     0
 10
0.0
 20
0.0
 30
0.0
  3
_DotSmall
  1

  0
LWPOLYLINE
  5
153E3
330
153E2
100
AcDbEntity
  8
0
  6
ByBlock
 62
     0
100
AcDbPolyline
 90
        2
 70
     1
 43
0.5
 10
-0.0625
 20
0.0
 42
1.0
 10
0.0625
 20
0.0
 42
1.0
  0
ENDBLK
  5
153E5
330
153E2
100
AcDbEntity
  8
0
100
AcDbBlockEnd
  0
BLOCK
  5
2360B
330
23601
100
AcDbEntity
  8
0
370
    13
100
AcDbBlockBegin
  2
*D22
 70
     1
 10
0.0
 20
0.0
 30
0.0
  3
*D22
  1

  0
LINE
  5
252A6
330
23601
100
AcDbEntity
  8
文字
 62
     4
370
    13
100
AcDbLine
 10
474.2367298973111
 20
-1462.239370024919
 30
0.0
 11
425.054343464832
 21
-1462.239370024919
 31
0.0
  0
LINE
  5
252A7
330
23601
100
AcDbEntity
  8
文字
 62
     4
370
    13
100
AcDbLine
 10
467.9542010216971
 20
-1527.239370024919
 30
0.0
 11
425.054343464832
 21
-1527.239370024919
 31
0.0
  0
LINE
  5
252A8
330
23601
100
AcDbEntity
  8
文字
 62
     4
370
    13
100
AcDbLine
 10
425.324343464832
 20
-1465.989370024919
 30
0.0
 11
425.324343464832
 21
-1523.489370024919
 31
0.0
  0
INSERT
  5
252A9
330
23601
100
AcDbEntity
  8
文字
 62
     4
370
    13
100
AcDbBlockReference
  2
_Open30
 10
425.324343464832
 20
-1462.239370024919
 30
0.0
 41
3.75
 42
3.75
 43
3.75
 50
90.0
  0
INSERT
  5
252AA
330
23601
100
AcDbEntity
  8
文字
 62
     4
370
    13
100
AcDbBlockReference
  2
_Open30
 10
425.324343464832
 20
-1527.239370024919
 30
0.0
 41
3.75
 42
3.75
 43
3.75
 50
270.0
  0
MTEXT
  5
252AB
330
23601
100
AcDbEntity
  8
文字
370
    13
100
AcDbMText
 10
422.3243434648322
 20
-1494.739370024919
 30
0.0
 40
4.5
 41
0.0
 71
     5
 72
     1
  1
\A1;65
  7
まこ
 11
0.0000000000000001
 21
1.0
 31
0.0
 73
     1
 44
1.0
  0
POINT
  5
252AC
330
23601
100
AcDbEntity
  8
DEFPOINTS
 62
     0
370
    50
100
AcDbPoint
 10
475.4367298973112
 20
-1462.239370024919
 30
0.0
  0
POINT
  5
252AD
330
23601
100
AcDbEntity
  8
DEFPOINTS
 62
     0
370
    50
100
AcDbPoint
 10
469.1542010216972
 20
-1527.239370024919
 30
0.0
  0
POINT
  5
252AE
330
23601
100
AcDbEntity
  8
DEFPOINTS
 62
     0
370
    50
100
AcDbPoint
 10
425.324343464832
 20
-1527.239370024919
 30
0.0
  0
ENDBLK
  5
2360C
330
23601
100
AcDbEntity
  8
0
370
    13
100
AcDbBlockEnd
  0
BLOCK
  5
23673
330
23668
100
AcDbEntity
  8
0
370
    13
100
AcDbBlockBegin
  2
*D23
 70
     1
 10
0.0
 20
0.0
 30
0.0
  3
*D23
  1

  0
LINE
  5
252AF
330
23668
100
AcDbEntity
  8
文字
 62
     4
370
    13
100
AcDbLine
 10
474.2367298973111
 20
-1462.239370024919
 30
0.0
 11
425.054343464832
 21
-1462.239370024919
 31
0.0
  0
LINE
  5
252B0
330
23668
100
AcDbEntity
  8
文字
 62
     4
370
    13
100
AcDbLine
 10
448.4819772519701
 20
-1454.739370024921
 30
0.0
 11
425.054343464832
 21
-1454.739370024921
 31
0.0
  0
LINE
  5
252B1
330
23668
100
AcDbEntity
  8
文字
 62
     4
370
    13
100
AcDbLine
 10
425.324343464832
 20
-1465.989370024919
 30
0.0
 11
425.324343464832
 21
-1469.739370024919
 31
0.0
  0
LINE
  5
252B2
330
23668
100
AcDbEntity
  8
文字
 62
     4
370
    13
100
AcDbLine
 10
425.324343464832
 20
-1450.989370024921
 30
0.0
 11
425.324343464832
 21
-1427.182227167778
 31
0.0
  0
INSERT
  5
252B3
330
23668
100
AcDbEntity
  8
文字
 62
     4
370
    13
100
AcDbBlockReference
  2
_Open30
 10
425.324343464832
 20
-1462.239370024919
 30
0.0
 41
3.75
 42
3.75
 43
3.75
 50
90.0
  0
INSERT
  5
252B4
330
23668
100
AcDbEntity
  8
文字
 62
     4
370
    13
100
AcDbBlockReference
  2
_Open30
 10
425.324343464832
 20
-1454.739370024921
 30
0.0
 41
3.75
 42
3.75
 43
3.75
 50
270.0
  0
MTEXT
  5
252B5
330
23668
100
AcDbEntity
  8
文字
370
    13
100
AcDbMText
 10
422.3243434648322
 20
-1437.21079859635
 30
0.0
 40
4.5
 41
0.0
 71
     5
 72
     1
  1
\A1;（7.5）
  7
まこ
 11
0.0000000000000001
 21
1.0
 31
0.0
 73
     1
 44
1.0
  0
POINT
  5
252B6
330
23668
100
AcDbEntity
  8
DEFPOINTS
 62
     0
370
    50
100
AcDbPoint
 10
475.4367298973112
 20
-1462.239370024919
 30
0.0
  0
POINT
  5
252B7
330
23668
100
AcDbEntity
  8
DEFPOINTS
 62
     0
370
    50
100
AcDbPoint
 10
449.68197725197
 20
-1454.739370024921
 30
0.0
  0
POINT
  5
252B8
330
23668
100
AcDbEntity
  8
DEFPOINTS
 62
     0
370
    50
100
AcDbPoint
 10
425.324343464832
 20
-1454.739370024921
 30
0.0
  0
ENDBLK
  5
23674
330
23668
100
AcDbEntity
  8
0
370
    13
100
AcDbBlockEnd
  0
BLOCK
  5
23681
330
23676
100
AcDbEntity
  8
0
370
    13
100
AcDbBlockBegin
  2
*D24
 70
     1
 10
0.0
 20
0.0
 30
0.0
  3
*D24
  1

  0
LINE
  5
252B9
330
23676
100
AcDbEntity
  8
文字
 62
     4
370
    13
100
AcDbLine
 10
474.2367298973111
 20
-1527.239370024919
 30
0.0
 11
425.054343464832
 21
-1527.239370024919
 31
0.0
  0
LINE
  5
252BA
330
23676
100
AcDbEntity
  8
文字
 62
     4
370
    13
100
AcDbLine
 10
448.4819774229625
 20
-1534.739370024919
 30
0.0
 11
425.054343464832
 21
-1534.739370024919
 31
0.0
  0
LINE
  5
252BB
330
23676
100
AcDbEntity
  8
文字
 62
     4
370
    13
100
AcDbLine
 10
425.324343464832
 20
-1523.489370024919
 30
0.0
 11
425.324343464832
 21
-1519.739370024919
 31
0.0
  0
LINE
  5
252BC
330
23676
100
AcDbEntity
  8
文字
 62
     4
370
    13
100
AcDbLine
 10
425.324343464832
 20
-1538.489370024919
 30
0.0
 11
425.324343464832
 21
-1562.296512882062
 31
0.0
  0
INSERT
  5
252BD
330
23676
100
AcDbEntity
  8
文字
 62
     4
370
    13
100
AcDbBlockReference
  2
_Open30
 10
425.324343464832
 20
-1527.239370024919
 30
0.0
 41
3.75
 42
3.75
 43
3.75
 50
270.0
  0
INSERT
  5
252BE
330
23676
100
AcDbEntity
  8
文字
 62
     4
370
    13
100
AcDbBlockReference
  2
_Open30
 10
425.324343464832
 20
-1534.739370024919
 30
0.0
 41
3.75
 42
3.75
 43
3.75
 50
90.0
  0
MTEXT
  5
252BF
330
23676
100
AcDbEntity
  8
文字
370
    13
100
AcDbMText
 10
422.3243434648322
 20
-1552.26794145349
 30
0.0
 40
4.5
 41
0.0
 71
     5
 72
     1
  1
\A1;（7.5）
  7
まこ
 11
0.0000000000000001
 21
1.0
 31
0.0
 73
     1
 44
1.0
  0
POINT
  5
252C0
330
23676
100
AcDbEntity
  8
DEFPOINTS
 62
     0
370
    50
100
AcDbPoint
 10
475.4367298973112
 20
-1527.239370024919
 30
0.0
  0
POINT
  5
252C1
330
23676
100
AcDbEntity
  8
DEFPOINTS
 62
     0
370
    50
100
AcDbPoint
 10
449.6819774229624
 20
-1534.739370024919
 30
0.0
  0
POINT
  5
252C2
330
23676
100
AcDbEntity
  8
DEFPOINTS
 62
     0
370
    50
100
AcDbPoint
 10
425.324343464832
 20
-1534.739370024919
 30
0.0
  0
ENDBLK
  5
23682
330
23676
100
AcDbEntity
  8
0
370
    13
100
AcDbBlockEnd
  0
BLOCK
  5
236B6
330
236AC
100
AcDbEntity
  8
0
370
    13
100
AcDbBlockBegin
  2
*D25
 70
     1
 10
0.0
 20
0.0
 30
0.0
  3
*D25
  1

  0
LINE
  5
252C3
330
236AC
100
AcDbEntity
  8
文字
 62
     4
370
    13
100
AcDbLine
 10
448.4819774229626
 20
-1454.739370024919
 30
0.0
 11
414.8035706482009
 21
-1454.739370024919
 31
0.0
  0
LINE
  5
252C4
330
236AC
100
AcDbEntity
  8
文字
 62
     4
370
    13
100
AcDbLine
 10
448.4819774229625
 20
-1534.739370024919
 30
0.0
 11
414.8035706482009
 21
-1534.739370024919
 31
0.0
  0
LINE
  5
252C5
330
236AC
100
AcDbEntity
  8
文字
 62
     4
370
    13
100
AcDbLine
 10
415.0735706482009
 20
-1458.489370024919
 30
0.0
 11
415.0735706482009
 21
-1530.989370024919
 31
0.0
  0
INSERT
  5
252C6
330
236AC
100
AcDbEntity
  8
文字
 62
     4
370
    13
100
AcDbBlockReference
  2
_Open30
 10
415.0735706482009
 20
-1454.739370024919
 30
0.0
 41
3.75
 42
3.75
 43
3.75
 50
90.0
  0
INSERT
  5
252C7
330
236AC
100
AcDbEntity
  8
文字
 62
     4
370
    13
100
AcDbBlockReference
  2
_Open30
 10
415.0735706482009
 20
-1534.739370024919
 30
0.0
 41
3.75
 42
3.75
 43
3.75
 50
270.0
  0
MTEXT
  5
252C8
330
236AC
100
AcDbEntity
  8
文字
370
    13
100
AcDbMText
 10
412.0735706482012
 20
-1494.739370024919
 30
0.0
 40
4.5
 41
0.0
 71
     5
 72
     1
  1
\A1;80
  7
まこ
 11
0.0000000000000001
 21
1.0
 31
0.0
 73
     1
 44
1.0
  0
POINT
  5
252C9
330
236AC
100
AcDbEntity
  8
DEFPOINTS
 62
     0
370
    50
100
AcDbPoint
 10
449.6819774229626
 20
-1454.739370024919
 30
0.0
  0
POINT
  5
252CA
330
236AC
100
AcDbEntity
  8
DEFPOINTS
 62
     0
370
    50
100
AcDbPoint
 10
449.6819774229624
 20
-1534.739370024919
 30
0.0
  0
POINT
  5
252CB
330
236AC
100
AcDbEntity
  8
DEFPOINTS
 62
     0
370
    50
100
AcDbPoint
 10
415.0735706482009
 20
-1534.739370024919
 30
0.0
  0
ENDBLK
  5
236B7
330
236AC
100
AcDbEntity
  8
0
370
    13
100
AcDbBlockEnd
  0
BLOCK
  5
23736
330
2372C
100
AcDbEntity
  8
0
370
    13
100
AcDbBlockBegin
  2
*D26
 70
     1
 10
0.0
 20
0.0
 30
0.0
  3
*D26
  1

  0
LINE
  5
252CC
330
2372C
100
AcDbEntity
  8
文字
 62
     4
370
    13
100
AcDbLine
 10
449.6819774229625
 20
-1535.925387339099
 30
0.0
 11
449.6819774229625
 21
-1565.57614296678
 31
0.0
  0
LINE
  5
252CD
330
2372C
100
AcDbEntity
  8
文字
 62
     4
370
    13
100
AcDbLine
 10
479.6819774229627
 20
-1532.109583215826
 30
0.0
 11
479.6819774229627
 21
-1565.57614296678
 31
0.0
  0
LINE
  5
252CE
330
2372C
100
AcDbEntity
  8
文字
 62
     4
370
    13
100
AcDbLine
 10
453.4319774229625
 20
-1565.30614296678
 30
0.0
 11
475.9319774229626
 21
-1565.30614296678
 31
0.0
  0
INSERT
  5
252CF
330
2372C
100
AcDbEntity
  8
文字
 62
     4
370
    13
100
AcDbBlockReference
  2
_Open30
 10
449.6819774229625
 20
-1565.30614296678
 30
0.0
 41
3.75
 42
3.75
 43
3.75
 50
180.0
  0
INSERT
  5
252D0
330
2372C
100
AcDbEntity
  8
文字
 62
     4
370
    13
100
AcDbBlockReference
  2
_Open30
 10
479.6819774229627
 20
-1565.30614296678
 30
0.0
 41
3.75
 42
3.75
 43
3.75
  0
MTEXT
  5
252D1
330
2372C
100
AcDbEntity
  8
文字
370
    13
100
AcDbMText
 10
464.6835064321065
 20
-1562.30614296678
 30
0.0
 40
4.5
 41
0.0
 71
     5
 72
     1
  1
\A1;30
  7
まこ
 73
     1
 44
1.0
  0
POINT
  5
252D2
330
2372C
100
AcDbEntity
  8
DEFPOINTS
 62
     0
370
    50
100
AcDbPoint
 10
449.6819774229625
 20
-1534.725387339099
 30
0.0
  0
POINT
  5
252D3
330
2372C
100
AcDbEntity
  8
DEFPOINTS
 62
     0
370
    50
100
AcDbPoint
 10
479.6819774229627
 20
-1530.909583215827
 30
0.0
  0
POINT
  5
252D4
330
2372C
100
AcDbEntity
  8
DEFPOINTS
 62
     0
370
    50
100
AcDbPoint
 10
479.6819774229627
 20
-1565.30614296678
 30
0.0
  0
ENDBLK
  5
23737
330
2372C
100
AcDbEntity
  8
0
370
    13
100
AcDbBlockEnd
  0
BLOCK
  5
2377B
330
23771
100
AcDbEntity
  8
0
370
    13
100
AcDbBlockBegin
  2
*D27
 70
     1
 10
0.0
 20
0.0
 30
0.0
  3
*D27
  1

  0
LINE
  5
252D5
330
23771
100
AcDbEntity
  8
文字
 62
     4
370
    13
100
AcDbLine
 10
479.6819774229627
 20
-1532.109583215826
 30
0.0
 11
479.6819774229627
 21
-1565.57614296678
 31
0.0
  0
LINE
  5
252D6
330
23771
100
AcDbEntity
  8
文字
 62
     4
370
    13
100
AcDbLine
 10
607.6819774229626
 20
-1532.041319574265
 30
0.0
 11
607.6819774229626
 21
-1565.57614296678
 31
0.0
  0
LINE
  5
252D7
330
23771
100
AcDbEntity
  8
文字
 62
     4
370
    13
100
AcDbLine
 10
483.4319774229626
 20
-1565.30614296678
 30
0.0
 11
603.9319774229626
 21
-1565.30614296678
 31
0.0
  0
INSERT
  5
252D8
330
23771
100
AcDbEntity
  8
文字
 62
     4
370
    13
100
AcDbBlockReference
  2
_Open30
 10
479.6819774229627
 20
-1565.30614296678
 30
0.0
 41
3.75
 42
3.75
 43
3.75
 50
180.0
  0
INSERT
  5
252D9
330
23771
100
AcDbEntity
  8
文字
 62
     4
370
    13
100
AcDbBlockReference
  2
_Open30
 10
607.6819774229626
 20
-1565.30614296678
 30
0.0
 41
3.75
 42
3.75
 43
3.75
  0
MTEXT
  5
252DA
330
23771
100
AcDbEntity
  8
文字
370
    13
100
AcDbMText
 10
543.6819774229626
 20
-1562.30614296678
 30
0.0
 40
4.5
 41
0.0
 71
     5
 72
     1
  1
\A1;2xP64=128
  7
まこ
 73
     1
 44
1.0
  0
POINT
  5
252DB
330
23771
100
AcDbEntity
  8
DEFPOINTS
 62
     0
370
    50
100
AcDbPoint
 10
479.6819774229627
 20
-1530.909583215827
 30
0.0
  0
POINT
  5
252DC
330
23771
100
AcDbEntity
  8
DEFPOINTS
 62
     0
370
    50
100
AcDbPoint
 10
607.6819774229626
 20
-1530.841319574265
 30
0.0
  0
POINT
  5
252DD
330
23771
100
AcDbEntity
  8
DEFPOINTS
 62
     0
370
    50
100
AcDbPoint
 10
607.6819774229626
 20
-1565.30614296678
 30
0.0
  0
ENDBLK
  5
2377C
330
23771
100
AcDbEntity
  8
0
370
    13
100
AcDbBlockEnd
  0
BLOCK
  5
23788
330
2377E
100
AcDbEntity
  8
0
370
    13
100
AcDbBlockBegin
  2
*D28
 70
     1
 10
0.0
 20
0.0
 30
0.0
  3
*D28
  1

  0
LINE
  5
25385
330
2377E
100
AcDbEntity
  8
文字
 62
     4
370
    13
100
AcDbLine
 10
607.6819774229626
 20
-1532.041319574265
 30
0.0
 11
607.6819774229626
 21
-1565.57614296678
 31
0.0
  0
LINE
  5
25386
330
2377E
100
AcDbEntity
  8
文字
 62
     4
370
    13
100
AcDbLine
 10
637.6819774229625
 20
-1535.9253873391
 30
0.0
 11
637.6819774229625
 21
-1565.57614296678
 31
0.0
  0
LINE
  5
25387
330
2377E
100
AcDbEntity
  8
文字
 62
     4
370
    13
100
AcDbLine
 10
611.4319774229626
 20
-1565.30614296678
 30
0.0
 11
633.9319774229625
 21
-1565.30614296678
 31
0.0
  0
INSERT
  5
25388
330
2377E
100
AcDbEntity
  8
文字
 62
     4
370
    13
100
AcDbBlockReference
  2
_Open30
 10
607.6819774229626
 20
-1565.30614296678
 30
0.0
 41
3.75
 42
3.75
 43
3.75
 50
180.0
  0
INSERT
  5
25389
330
2377E
100
AcDbEntity
  8
文字
 62
     4
370
    13
100
AcDbBlockReference
  2
_Open30
 10
637.6819774229625
 20
-1565.30614296678
 30
0.0
 41
3.75
 42
3.75
 43
3.75
  0
MTEXT
  5
2538A
330
2377E
100
AcDbEntity
  8
文字
370
    13
100
AcDbMText
 10
622.6819774229625
 20
-1562.30614296678
 30
0.0
 40
4.5
 41
0.0
 71
     5
 72
     1
  1
\A1;（30）
  7
まこ
 73
     1
 44
1.0
  0
POINT
  5
2538B
330
2377E
100
AcDbEntity
  8
DEFPOINTS
 62
     0
370
    50
100
AcDbPoint
 10
607.6819774229626
 20
-1530.841319574265
 30
0.0
  0
POINT
  5
2538C
330
2377E
100
AcDbEntity
  8
DEFPOINTS
 62
     0
370
    50
100
AcDbPoint
 10
637.6819774229625
 20
-1534.7253873391
 30
0.0
  0
POINT
  5
2538D
330
2377E
100
AcDbEntity
  8
DEFPOINTS
 62
     0
370
    50
100
AcDbPoint
 10
637.6819774229625
 20
-1565.30614296678
 30
0.0
  0
ENDBLK
  5
23789
330
2377E
100
AcDbEntity
  8
0
370
    13
100
AcDbBlockEnd
  0
BLOCK
  5
2379E
330
23794
100
AcDbEntity
  8
0
370
    13
100
AcDbBlockBegin
  2
*D29
 70
     1
 10
0.0
 20
0.0
 30
0.0
  3
*D29
  1

  0
LINE
  5
253B4
330
23794
100
AcDbEntity
  8
文字
 62
     4
370
    13
100
AcDbLine
 10
449.6819774229625
 20
-1535.925387339099
 30
0.0
 11
449.6819774229625
 21
-1576.211904950195
 31
0.0
  0
LINE
  5
253B5
330
23794
100
AcDbEntity
  8
文字
 62
     4
370
    13
100
AcDbLine
 10
637.6819774229625
 20
-1535.9253873391
 30
0.0
 11
637.6819774229625
 21
-1576.211904950195
 31
0.0
  0
LINE
  5
253B6
330
23794
100
AcDbEntity
  8
文字
 62
     4
370
    13
100
AcDbLine
 10
453.4319774229625
 20
-1575.941904950195
 30
0.0
 11
633.9319774229625
 21
-1575.941904950195
 31
0.0
  0
INSERT
  5
253B7
330
23794
100
AcDbEntity
  8
文字
 62
     4
370
    13
100
AcDbBlockReference
  2
_Open30
 10
449.6819774229625
 20
-1575.941904950195
 30
0.0
 41
3.75
 42
3.75
 43
3.75
 50
180.0
  0
INSERT
  5
253B8
330
23794
100
AcDbEntity
  8
文字
 62
     4
370
    13
100
AcDbBlockReference
  2
_Open30
 10
637.6819774229625
 20
-1575.941904950195
 30
0.0
 41
3.75
 42
3.75
 43
3.75
  0
MTEXT
  5
253B9
330
23794
100
AcDbEntity
  8
文字
370
    13
100
AcDbMText
 10
543.6819774229625
 20
-1572.941904950194
 30
0.0
 40
4.5
 41
0.0
 71
     5
 72
     1
  1
\A1;188
  7
まこ
 73
     1
 44
1.0
  0
POINT
  5
253BA
330
23794
100
AcDbEntity
  8
DEFPOINTS
 62
     0
370
    50
100
AcDbPoint
 10
449.6819774229625
 20
-1534.725387339099
 30
0.0
  0
POINT
  5
253BB
330
23794
100
AcDbEntity
  8
DEFPOINTS
 62
     0
370
    50
100
AcDbPoint
 10
637.6819774229625
 20
-1534.7253873391
 30
0.0
  0
POINT
  5
253BC
330
23794
100
AcDbEntity
  8
DEFPOINTS
 62
     0
370
    50
100
AcDbPoint
 10
637.6819774229625
 20
-1575.941904950195
 30
0.0
  0
ENDBLK
  5
2379F
330
23794
100
AcDbEntity
  8
0
370
    13
100
AcDbBlockEnd
  0
BLOCK
  5
237C1
330
237B7
100
AcDbEntity
  8
0
370
    13
100
AcDbBlockBegin
  2
*D30
 70
     1
 10
0.0
 20
0.0
 30
0.0
  3
*D30
  1

  0
LINE
  5
256AA
330
237B7
100
AcDbEntity
  8
文字
 62
     4
370
    13
100
AcDbLine
 10
637.6819774229625
 20
-1535.9253873391
 30
0.0
 11
637.6819774229625
 21
-1576.211904950195
 31
0.0
  0
LINE
  5
256AB
330
237B7
100
AcDbEntity
  8
文字
 62
     4
370
    13
100
AcDbLine
 10
705.8761862019523
 20
-1536.773589228104
 30
0.0
 11
705.8761862019523
 21
-1576.211904950195
 31
0.0
  0
LINE
  5
256AC
330
237B7
100
AcDbEntity
  8
文字
 62
     4
370
    13
100
AcDbLine
 10
641.4319774229625
 20
-1575.941904950195
 30
0.0
 11
702.1261862019523
 21
-1575.941904950195
 31
0.0
  0
INSERT
  5
256AD
330
237B7
100
AcDbEntity
  8
文字
 62
     4
370
    13
100
AcDbBlockReference
  2
_Open30
 10
637.6819774229625
 20
-1575.941904950195
 30
0.0
 41
3.75
 42
3.75
 43
3.75
 50
180.0
  0
INSERT
  5
256AE
330
237B7
100
AcDbEntity
  8
文字
 62
     4
370
    13
100
AcDbBlockReference
  2
_Open30
 10
705.8761862019523
 20
-1575.941904950195
 30
0.0
 41
3.75
 42
3.75
 43
3.75
  0
MTEXT
  5
256AF
330
237B7
100
AcDbEntity
  8
文字
370
    13
100
AcDbMText
 10
671.7790818124574
 20
-1572.941904950194
 30
0.0
 40
4.5
 41
0.0
 71
     5
 72
     1
  1
\A1;（200）
  7
まこ
 73
     1
 44
1.0
  0
POINT
  5
256B0
330
237B7
100
AcDbEntity
  8
DEFPOINTS
 62
     0
100
AcDbPoint
 10
637.6819774229625
 20
-1534.7253873391
 30
0.0
  0
POINT
  5
256B1
330
237B7
100
AcDbEntity
  8
DEFPOINTS
 62
     0
100
AcDbPoint
 10
705.8761862019523
 20
-1535.573589228104
 30
0.0
  0
POINT
  5
256B2
330
237B7
100
AcDbEntity
  8
DEFPOINTS
 62
     0
100
AcDbPoint
 10
705.8761862019523
 20
-1575.941904950195
 30
0.0
  0
ENDBLK
  5
237C2
330
237B7
100
AcDbEntity
  8
0
370
    13
100
AcDbBlockEnd
  0
BLOCK
  5
2380C
330
23802
100
AcDbEntity
  8
0
370
    13
100
AcDbBlockBegin
  2
*D31
 70
     1
 10
0.0
 20
0.0
 30
0.0
  3
*D31
  1

  0
LINE
  5
253EF
330
23802
100
AcDbEntity
  8
文字
 62
     4
370
    13
100
AcDbLine
 10
773.6890330990705
 20
-1453.539413889174
 30
0.0
 11
773.6890330990705
 21
-1405.458764645376
 31
0.0
  0
LINE
  5
253F0
330
23802
100
AcDbEntity
  8
文字
 62
     4
370
    13
100
AcDbLine
 10
827.6890330990706
 20
-1453.539413889174
 30
0.0
 11
827.6890330990706
 21
-1405.458764645376
 31
0.0
  0
LINE
  5
253F1
330
23802
100
AcDbEntity
  8
文字
 62
     4
370
    13
100
AcDbLine
 10
777.4390330990706
 20
-1405.728764645376
 30
0.0
 11
823.9390330990705
 21
-1405.728764645376
 31
0.0
  0
INSERT
  5
253F2
330
23802
100
AcDbEntity
  8
文字
 62
     4
370
    13
100
AcDbBlockReference
  2
_Open30
 10
773.6890330990705
 20
-1405.728764645376
 30
0.0
 41
3.75
 42
3.75
 43
3.75
 50
180.0
  0
INSERT
  5
253F3
330
23802
100
AcDbEntity
  8
文字
 62
     4
370
    13
100
AcDbBlockReference
  2
_Open30
 10
827.6890330990706
 20
-1405.728764645376
 30
0.0
 41
3.75
 42
3.75
 43
3.75
  0
MTEXT
  5
253F4
330
23802
100
AcDbEntity
  8
文字
370
    13
100
AcDbMText
 10
801.6890287068076
 20
-1402.728764645376
 30
0.0
 40
4.5
 41
0.0
 71
     5
 72
     1
  1
\A1;54（取付寸法）
  7
まこ
 73
     1
 44
1.0
  0
POINT
  5
253F5
330
23802
100
AcDbEntity
  8
DEFPOINTS
 62
     0
370
    50
100
AcDbPoint
 10
773.6890330990705
 20
-1454.739413889174
 30
0.0
  0
POINT
  5
253F6
330
23802
100
AcDbEntity
  8
DEFPOINTS
 62
     0
370
    50
100
AcDbPoint
 10
827.6890330990706
 20
-1454.739413889174
 30
0.0
  0
POINT
  5
253F7
330
23802
100
AcDbEntity
  8
DEFPOINTS
 62
     0
370
    50
100
AcDbPoint
 10
827.6890330990706
 20
-1405.728764645376
 30
0.0
  0
ENDBLK
  5
2380D
330
23802
100
AcDbEntity
  8
0
370
    13
100
AcDbBlockEnd
  0
BLOCK
  5
2381C
330
2380E
100
AcDbEntity
  8
0
370
    13
100
AcDbBlockBegin
  2
*D32
 70
     1
 10
0.0
 20
0.0
 30
0.0
  3
*D32
  1

  0
LINE
  5
25562
330
2380E
100
AcDbEntity
  8
文字
 62
     4
370
    13
100
AcDbLine
 10
813.6890330990706
 20
-1453.539413889174
 30
0.0
 11
813.6890330990706
 21
-1426.042748381246
 31
0.0
  0
LINE
  5
25563
330
2380E
100
AcDbEntity
  8
文字
 62
     4
370
    13
100
AcDbLine
 10
814.8890330990706
 20
-1468.564459066824
 30
0.0
 11
814.8890330990706
 21
-1426.042748381246
 31
0.0
  0
LINE
  5
25564
330
2380E
100
AcDbEntity
  8
文字
 62
     4
370
    13
100
AcDbLine
 10
809.9390330990706
 20
-1426.312748381246
 30
0.0
 11
806.1890330990705
 21
-1426.312748381246
 31
0.0
  0
LINE
  5
25565
330
2380E
100
AcDbEntity
  8
文字
 62
     4
370
    13
100
AcDbLine
 10
814.8890330990706
 20
-1426.312748381246
 30
0.0
 11
818.6390330990706
 21
-1426.312748381246
 31
0.0
  0
MTEXT
  5
25566
330
2380E
100
AcDbEntity
  8
文字
370
    13
100
AcDbMText
 10
789.351015711858
 20
-1414.463233027754
 30
0.0
 40
4.5
 41
0.0
 71
     5
 72
     1
  1
\A1;1.2
  7
まこ
 73
     1
 44
1.0
  0
INSERT
  5
25567
330
2380E
100
AcDbEntity
  8
文字
 62
     4
370
    13
100
AcDbBlockReference
  2
_Open30
 10
813.6890330990706
 20
-1426.312748381246
 30
0.0
 41
3.75
 42
3.75
 43
3.75
  0
INSERT
  5
25568
330
2380E
100
AcDbEntity
  8
文字
 62
     4
370
    13
100
AcDbBlockReference
  2
_DotSmall
 10
814.8890330990706
 20
-1426.312748381246
 30
0.0
 41
3.75
 42
3.75
 43
3.75
 50
180.0
  0
POINT
  5
25569
330
2380E
100
AcDbEntity
  8
DEFPOINTS
 62
     0
370
    50
100
AcDbPoint
 10
813.6890330990706
 20
-1454.739413889174
 30
0.0
  0
POINT
  5
2556A
330
2380E
100
AcDbEntity
  8
DEFPOINTS
 62
     0
370
    50
100
AcDbPoint
 10
814.8890330990706
 20
-1469.764459066824
 30
0.0
  0
POINT
  5
2556B
330
2380E
100
AcDbEntity
  8
DEFPOINTS
 62
     0
370
    50
100
AcDbPoint
 10
814.8890330990706
 20
-1426.312748381246
 30
0.0
  0
ENDBLK
  5
2381D
330
2380E
100
AcDbEntity
  8
0
370
    13
100
AcDbBlockEnd
  0
BLOCK
  5
23828
330
2381E
100
AcDbEntity
  8
0
370
    13
100
AcDbBlockBegin
  2
*D33
 70
     1
 10
0.0
 20
0.0
 30
0.0
  3
*D33
  1

  0
LINE
  5
2549E
330
2381E
100
AcDbEntity
  8
文字
 62
     4
370
    13
100
AcDbLine
 10
773.6890330990704
 20
-1453.539413889174
 30
0.0
 11
773.6890330990704
 21
-1426.042748381246
 31
0.0
  0
LINE
  5
2549F
330
2381E
100
AcDbEntity
  8
文字
 62
     4
370
    13
100
AcDbLine
 10
813.6890330990706
 20
-1453.539413889174
 30
0.0
 11
813.6890330990706
 21
-1426.042748381246
 31
0.0
  0
LINE
  5
254A0
330
2381E
100
AcDbEntity
  8
文字
 62
     4
370
    13
100
AcDbLine
 10
777.4390330990704
 20
-1426.312748381246
 30
0.0
 11
809.9390330990706
 21
-1426.312748381246
 31
0.0
  0
INSERT
  5
254A1
330
2381E
100
AcDbEntity
  8
文字
 62
     4
370
    13
100
AcDbBlockReference
  2
_Open30
 10
773.6890330990704
 20
-1426.312748381246
 30
0.0
 41
3.75
 42
3.75
 43
3.75
 50
180.0
  0
INSERT
  5
254A2
330
2381E
100
AcDbEntity
  8
文字
 62
     4
370
    13
100
AcDbBlockReference
  2
_Open30
 10
813.6890330990706
 20
-1426.312748381246
 30
0.0
 41
3.75
 42
3.75
 43
3.75
  0
MTEXT
  5
254A3
330
2381E
100
AcDbEntity
  8
文字
370
    13
100
AcDbMText
 10
793.6890330990705
 20
-1423.312748381246
 30
0.0
 40
4.5
 41
0.0
 71
     5
 72
     1
  1
\A1;40
  7
まこ
 73
     1
 44
1.0
  0
POINT
  5
254A4
330
2381E
100
AcDbEntity
  8
DEFPOINTS
 62
     0
370
    50
100
AcDbPoint
 10
773.6890330990704
 20
-1454.739413889174
 30
0.0
  0
POINT
  5
254A5
330
2381E
100
AcDbEntity
  8
DEFPOINTS
 62
     0
370
    50
100
AcDbPoint
 10
813.6890330990706
 20
-1454.739413889174
 30
0.0
  0
POINT
  5
254A6
330
2381E
100
AcDbEntity
  8
DEFPOINTS
 62
     0
370
    50
100
AcDbPoint
 10
813.6890330990706
 20
-1426.312748381246
 30
0.0
  0
ENDBLK
  5
23829
330
2381E
100
AcDbEntity
  8
0
370
    13
100
AcDbBlockEnd
  0
BLOCK
  5
23834
330
2382A
100
AcDbEntity
  8
0
370
    13
100
AcDbBlockBegin
  2
*D34
 70
     1
 10
0.0
 20
0.0
 30
0.0
  3
*D34
  1

  0
LINE
  5
254B1
330
2382A
100
AcDbEntity
  8
文字
 62
     4
370
    13
100
AcDbLine
 10
819.8890330990705
 20
-1453.539413889174
 30
0.0
 11
819.8890330990705
 21
-1436.042748381246
 31
0.0
  0
LINE
  5
254B2
330
2382A
100
AcDbEntity
  8
文字
 62
     4
370
    13
100
AcDbLine
 10
827.6890330990706
 20
-1453.539413889174
 30
0.0
 11
827.6890330990706
 21
-1436.042748381246
 31
0.0
  0
LINE
  5
254B3
330
2382A
100
AcDbEntity
  8
文字
 62
     4
370
    13
100
AcDbLine
 10
816.1390330990705
 20
-1436.312748381246
 30
0.0
 11
812.3890330990706
 21
-1436.312748381246
 31
0.0
  0
LINE
  5
254B4
330
2382A
100
AcDbEntity
  8
文字
 62
     4
370
    13
100
AcDbLine
 10
831.4390330990706
 20
-1436.312748381246
 30
0.0
 11
846.117604527642
 21
-1436.312748381246
 31
0.0
  0
INSERT
  5
254B5
330
2382A
100
AcDbEntity
  8
文字
 62
     4
370
    13
100
AcDbBlockReference
  2
_Open30
 10
819.8890330990705
 20
-1436.312748381246
 30
0.0
 41
3.75
 42
3.75
 43
3.75
  0
INSERT
  5
254B6
330
2382A
100
AcDbEntity
  8
文字
 62
     4
370
    13
100
AcDbBlockReference
  2
_Open30
 10
827.6890330990706
 20
-1436.312748381246
 30
0.0
 41
3.75
 42
3.75
 43
3.75
 50
180.0
  0
MTEXT
  5
254B7
330
2382A
100
AcDbEntity
  8
文字
370
    13
100
AcDbMText
 10
840.6533188133561
 20
-1433.312748381246
 30
0.0
 40
4.5
 41
0.0
 71
     5
 72
     1
  1
\A1;7.8
  7
まこ
 73
     1
 44
1.0
  0
POINT
  5
254B8
330
2382A
100
AcDbEntity
  8
DEFPOINTS
 62
     0
370
    50
100
AcDbPoint
 10
819.8890330990705
 20
-1454.739413889174
 30
0.0
  0
POINT
  5
254B9
330
2382A
100
AcDbEntity
  8
DEFPOINTS
 62
     0
370
    50
100
AcDbPoint
 10
827.6890330990706
 20
-1454.739413889174
 30
0.0
  0
POINT
  5
254BA
330
2382A
100
AcDbEntity
  8
DEFPOINTS
 62
     0
370
    50
100
AcDbPoint
 10
827.6890330990706
 20
-1436.312748381246
 30
0.0
  0
ENDBLK
  5
23835
330
2382A
100
AcDbEntity
  8
0
370
    13
100
AcDbBlockEnd
  0
BLOCK
  5
23840
330
23836
100
AcDbEntity
  8
0
370
    13
100
AcDbBlockBegin
  2
*D35
 70
     1
 10
0.0
 20
0.0
 30
0.0
  3
*D35
  1

  0
LINE
  5
254BB
330
23836
100
AcDbEntity
  8
文字
 62
     4
370
    13
100
AcDbLine
 10
814.8890330990706
 20
-1468.564459066824
 30
0.0
 11
814.8890330990706
 21
-1426.042748381246
 31
0.0
  0
LINE
  5
254BC
330
23836
100
AcDbEntity
  8
文字
 62
     4
370
    13
100
AcDbLine
 10
827.6890330990706
 20
-1453.539413889174
 30
0.0
 11
827.6890330990706
 21
-1426.042748381246
 31
0.0
  0
LINE
  5
254BD
330
23836
100
AcDbEntity
  8
文字
 62
     4
370
    13
100
AcDbLine
 10
814.8890330990706
 20
-1426.312748381246
 30
0.0
 11
811.1390330990706
 21
-1426.312748381246
 31
0.0
  0
LINE
  5
254BE
330
23836
100
AcDbEntity
  8
文字
 62
     4
370
    13
100
AcDbLine
 10
831.4390330990706
 20
-1426.312748381246
 30
0.0
 11
835.1890330990705
 21
-1426.312748381246
 31
0.0
  0
LINE
  5
254BF
330
23836
100
AcDbEntity
  8
文字
 62
     4
370
    13
100
AcDbLine
 10
849.8066755186084
 20
-1426.312748381246
 30
0.0
 11
827.6890330990706
 21
-1426.312748381246
 31
0.0
  0
MTEXT
  5
254C0
330
23836
100
AcDbEntity
  8
文字
370
    13
100
AcDbMText
 10
842.6281040900368
 20
-1423.312748381246
 30
0.0
 40
4.5
 41
0.0
 71
     5
 72
     1
  1
\A1;12.8
  7
まこ
 73
     1
 44
1.0
  0
LINE
  5
254C1
330
23836
100
AcDbEntity
  8
文字
 62
     4
370
    13
100
AcDbLine
 10
814.8890330990706
 20
-1426.312748381246
 30
0.0
 11
827.6890330990706
 21
-1426.312748381246
 31
0.0
  0
INSERT
  5
254C2
330
23836
100
AcDbEntity
  8
文字
 62
     4
370
    13
100
AcDbBlockReference
  2
_DotSmall
 10
814.8890330990706
 20
-1426.312748381246
 30
0.0
 41
3.75
 42
3.75
 43
3.75
  0
INSERT
  5
254C3
330
23836
100
AcDbEntity
  8
文字
 62
     4
370
    13
100
AcDbBlockReference
  2
_Open30
 10
827.6890330990706
 20
-1426.312748381246
 30
0.0
 41
3.75
 42
3.75
 43
3.75
 50
180.0
  0
POINT
  5
254C4
330
23836
100
AcDbEntity
  8
DEFPOINTS
 62
     0
370
    50
100
AcDbPoint
 10
814.8890330990706
 20
-1469.764459066824
 30
0.0
  0
POINT
  5
254C5
330
23836
100
AcDbEntity
  8
DEFPOINTS
 62
     0
370
    50
100
AcDbPoint
 10
827.6890330990706
 20
-1454.739413889174
 30
0.0
  0
POINT
  5
254C6
330
23836
100
AcDbEntity
  8
DEFPOINTS
 62
     0
370
    50
100
AcDbPoint
 10
827.6890330990706
 20
-1426.312748381246
 30
0.0
  0
ENDBLK
  5
23841
330
23836
100
AcDbEntity
  8
0
370
    13
100
AcDbBlockEnd
  0
BLOCK
  5
238B0
330
238A6
100
AcDbEntity
  8
0
370
    13
100
AcDbBlockBegin
  2
*D36
 70
     1
 10
0.0
 20
0.0
 30
0.0
  3
*D36
  1

  0
LINE
  5
25558
330
238A6
100
AcDbEntity
  8
文字
 62
     4
370
    13
100
AcDbLine
 10
772.4890243145445
 20
-1454.739370024919
 30
0.0
 11
748.8888406344271
 21
-1454.739370024919
 31
0.0
  0
LINE
  5
25559
330
238A6
100
AcDbEntity
  8
文字
 62
     4
370
    13
100
AcDbLine
 10
772.4890243145445
 20
-1472.739370024919
 30
0.0
 11
748.8888406344271
 21
-1472.739370024919
 31
0.0
  0
LINE
  5
2555A
330
238A6
100
AcDbEntity
  8
文字
 62
     4
370
    13
100
AcDbLine
 10
749.158840634427
 20
-1458.489370024919
 30
0.0
 11
749.158840634427
 21
-1468.989370024919
 31
0.0
  0
INSERT
  5
2555B
330
238A6
100
AcDbEntity
  8
文字
 62
     4
370
    13
100
AcDbBlockReference
  2
_Open30
 10
749.158840634427
 20
-1454.739370024919
 30
0.0
 41
3.75
 42
3.75
 43
3.75
 50
90.0
  0
INSERT
  5
2555C
330
238A6
100
AcDbEntity
  8
文字
 62
     4
370
    13
100
AcDbBlockReference
  2
_Open30
 10
749.158840634427
 20
-1472.739370024919
 30
0.0
 41
3.75
 42
3.75
 43
3.75
 50
270.0
  0
MTEXT
  5
2555D
330
238A6
100
AcDbEntity
  8
文字
370
    13
100
AcDbMText
 10
746.1588406344272
 20
-1463.739370024919
 30
0.0
 40
4.5
 41
0.0
 71
     5
 72
     1
  1
\A1;（18）
  7
まこ
 11
0.0000000000000001
 21
1.0
 31
0.0
 73
     1
 44
1.0
  0
POINT
  5
2555E
330
238A6
100
AcDbEntity
  8
DEFPOINTS
 62
     0
370
    50
100
AcDbPoint
 10
773.6890243145445
 20
-1454.739370024919
 30
0.0
  0
POINT
  5
2555F
330
238A6
100
AcDbEntity
  8
DEFPOINTS
 62
     0
370
    50
100
AcDbPoint
 10
773.6890243145445
 20
-1472.739370024919
 30
0.0
  0
POINT
  5
25560
330
238A6
100
AcDbEntity
  8
DEFPOINTS
 62
     0
370
    50
100
AcDbPoint
 10
749.158840634427
 20
-1472.739370024919
 30
0.0
  0
ENDBLK
  5
238B1
330
238A6
100
AcDbEntity
  8
0
370
    13
100
AcDbBlockEnd
  0
BLOCK
  5
238BD
330
238B3
100
AcDbEntity
  8
0
370
    13
100
AcDbBlockBegin
  2
*D37
 70
     1
 10
0.0
 20
0.0
 30
0.0
  3
*D37
  1

  0
LINE
  5
253BD
330
238B3
100
AcDbEntity
  8
文字
 62
     4
370
    13
100
AcDbLine
 10
772.4890243145445
 20
-1472.739370024919
 30
0.0
 11
748.8888406344271
 21
-1472.739370024919
 31
0.0
  0
LINE
  5
253BE
330
238B3
100
AcDbEntity
  8
文字
 62
     4
370
    13
100
AcDbLine
 10
772.4890243145445
 20
-1516.739370024919
 30
0.0
 11
748.8888406344271
 21
-1516.739370024919
 31
0.0
  0
LINE
  5
253BF
330
238B3
100
AcDbEntity
  8
文字
 62
     4
370
    13
100
AcDbLine
 10
749.158840634427
 20
-1476.489370024919
 30
0.0
 11
749.158840634427
 21
-1512.989370024919
 31
0.0
  0
INSERT
  5
253C0
330
238B3
100
AcDbEntity
  8
文字
 62
     4
370
    13
100
AcDbBlockReference
  2
_Open30
 10
749.158840634427
 20
-1472.739370024919
 30
0.0
 41
3.75
 42
3.75
 43
3.75
 50
90.0
  0
INSERT
  5
253C1
330
238B3
100
AcDbEntity
  8
文字
 62
     4
370
    13
100
AcDbBlockReference
  2
_Open30
 10
749.158840634427
 20
-1516.739370024919
 30
0.0
 41
3.75
 42
3.75
 43
3.75
 50
270.0
  0
MTEXT
  5
253C2
330
238B3
100
AcDbEntity
  8
文字
370
    13
100
AcDbMText
 10
746.1588406344272
 20
-1494.739370024919
 30
0.0
 40
4.5
 41
0.0
 71
     5
 72
     1
  1
\A1;44
  7
まこ
 11
0.0000000000000001
 21
1.0
 31
0.0
 73
     1
 44
1.0
  0
POINT
  5
253C3
330
238B3
100
AcDbEntity
  8
DEFPOINTS
 62
     0
370
    50
100
AcDbPoint
 10
773.6890243145445
 20
-1472.739370024919
 30
0.0
  0
POINT
  5
253C4
330
238B3
100
AcDbEntity
  8
DEFPOINTS
 62
     0
370
    50
100
AcDbPoint
 10
773.6890243145445
 20
-1516.739370024919
 30
0.0
  0
POINT
  5
253C5
330
238B3
100
AcDbEntity
  8
DEFPOINTS
 62
     0
370
    50
100
AcDbPoint
 10
749.158840634427
 20
-1516.739370024919
 30
0.0
  0
ENDBLK
  5
238BE
330
238B3
100
AcDbEntity
  8
0
370
    13
100
AcDbBlockEnd
  0
BLOCK
  5
238CA
330
238C0
100
AcDbEntity
  8
0
370
    13
100
AcDbBlockBegin
  2
*D38
 70
     1
 10
0.0
 20
0.0
 30
0.0
  3
*D38
  1

  0
LINE
  5
253D0
330
238C0
100
AcDbEntity
  8
文字
 62
     4
370
    13
100
AcDbLine
 10
772.4890243145445
 20
-1516.739370024919
 30
0.0
 11
748.8888406344271
 21
-1516.739370024919
 31
0.0
  0
LINE
  5
253D1
330
238C0
100
AcDbEntity
  8
文字
 62
     4
370
    13
100
AcDbLine
 10
772.4890330990705
 20
-1534.739370024919
 30
0.0
 11
748.8888406344271
 21
-1534.739370024919
 31
0.0
  0
LINE
  5
253D2
330
238C0
100
AcDbEntity
  8
文字
 62
     4
370
    13
100
AcDbLine
 10
749.158840634427
 20
-1520.489370024919
 30
0.0
 11
749.158840634427
 21
-1530.989370024919
 31
0.0
  0
INSERT
  5
253D3
330
238C0
100
AcDbEntity
  8
文字
 62
     4
370
    13
100
AcDbBlockReference
  2
_Open30
 10
749.158840634427
 20
-1516.739370024919
 30
0.0
 41
3.75
 42
3.75
 43
3.75
 50
90.0
  0
INSERT
  5
253D4
330
238C0
100
AcDbEntity
  8
文字
 62
     4
370
    13
100
AcDbBlockReference
  2
_Open30
 10
749.158840634427
 20
-1534.739370024919
 30
0.0
 41
3.75
 42
3.75
 43
3.75
 50
270.0
  0
MTEXT
  5
253D5
330
238C0
100
AcDbEntity
  8
文字
370
    13
100
AcDbMText
 10
746.1588406344272
 20
-1525.739370024919
 30
0.0
 40
4.5
 41
0.0
 71
     5
 72
     1
  1
\A1;（18）
  7
まこ
 11
0.0000000000000001
 21
1.0
 31
0.0
 73
     1
 44
1.0
  0
POINT
  5
253D6
330
238C0
100
AcDbEntity
  8
DEFPOINTS
 62
     0
370
    50
100
AcDbPoint
 10
773.6890243145445
 20
-1516.739370024919
 30
0.0
  0
POINT
  5
253D7
330
238C0
100
AcDbEntity
  8
DEFPOINTS
 62
     0
370
    50
100
AcDbPoint
 10
773.6890330990705
 20
-1534.739370024919
 30
0.0
  0
POINT
  5
253D8
330
238C0
100
AcDbEntity
  8
DEFPOINTS
 62
     0
370
    50
100
AcDbPoint
 10
749.158840634427
 20
-1534.739370024919
 30
0.0
  0
ENDBLK
  5
238CB
330
238C0
100
AcDbEntity
  8
0
370
    13
100
AcDbBlockEnd
  0
BLOCK
  5
238F3
330
238E8
100
AcDbEntity
  8
0
370
    13
100
AcDbBlockBegin
  2
*D39
 70
     1
 10
0.0
 20
0.0
 30
0.0
  3
*D39
  1

  0
LINE
  5
25344
330
238E8
100
AcDbEntity
  8
文字
 62
     4
370
    13
100
AcDbLine
 10
773.6890243145445
 20
-1473.950615167226
 30
0.0
 11
773.6890243145445
 21
-1486.084866269387
 31
0.0
  0
LINE
  5
25345
330
238E8
100
AcDbEntity
  8
文字
 62
     4
370
    13
100
AcDbLine
 10
774.1890243145444
 20
-1473.939370024509
 30
0.0
 11
774.1890243145444
 21
-1486.084866269387
 31
0.0
  0
LINE
  5
25346
330
238E8
100
AcDbEntity
  8
文字
 62
     4
370
    13
100
AcDbLine
 10
777.9390243145444
 20
-1485.814866269387
 30
0.0
 11
781.6890243145445
 21
-1485.814866269387
 31
0.0
  0
LINE
  5
25347
330
238E8
100
AcDbEntity
  8
文字
 62
     4
370
    13
100
AcDbLine
 10
769.9390243145445
 20
-1485.814866269387
 30
0.0
 11
753.7341193135098
 21
-1485.814866269387
 31
0.0
  0
INSERT
  5
25348
330
238E8
100
AcDbEntity
  8
文字
 62
     4
370
    13
100
AcDbBlockReference
  2
_Open30
 10
774.1890243145444
 20
-1485.814866269387
 30
0.0
 41
3.75
 42
3.75
 43
3.75
 50
180.0
  0
INSERT
  5
25349
330
238E8
100
AcDbEntity
  8
文字
 62
     4
370
    13
100
AcDbBlockReference
  2
_Open30
 10
773.6890243145445
 20
-1485.814866269387
 30
0.0
 41
3.75
 42
3.75
 43
3.75
  0
MTEXT
  5
2534A
330
238E8
100
AcDbEntity
  8
文字
370
    13
100
AcDbMText
 10
759.1984050277956
 20
-1482.814866269387
 30
0.0
 40
4.5
 41
0.0
 71
     5
 72
     1
  1
\A1;0.5
  7
まこ
 73
     1
 44
1.0
  0
POINT
  5
2534B
330
238E8
100
AcDbEntity
  8
DEFPOINTS
 62
     0
370
    50
100
AcDbPoint
 10
773.6890243145445
 20
-1472.750615167226
 30
0.0
  0
POINT
  5
2534C
330
238E8
100
AcDbEntity
  8
DEFPOINTS
 62
     0
370
    50
100
AcDbPoint
 10
774.1890243145444
 20
-1472.739370024509
 30
0.0
  0
POINT
  5
2534D
330
238E8
100
AcDbEntity
  8
DEFPOINTS
 62
     0
370
    50
100
AcDbPoint
 10
774.1890243145444
 20
-1485.814866269387
 30
0.0
  0
ENDBLK
  5
238F4
330
238E8
100
AcDbEntity
  8
0
370
    13
100
AcDbBlockEnd
  0
BLOCK
  5
24CFD
330
24CF2
100
AcDbEntity
  8
0
370
    50
100
AcDbBlockBegin
  2
*D40
 70
     1
 10
0.0
 20
0.0
 30
0.0
  3
*D40
  1

  0
LINE
  5
2534E
330
24CF2
100
AcDbEntity
  8
0
 62
     4
370
    13
100
AcDbLine
 10
772.4890330990705
 20
-1534.739370024919
 30
0.0
 11
758.6316327503124
 21
-1534.739370024919
 31
0.0
  0
LINE
  5
2534F
330
24CF2
100
AcDbEntity
  8
0
 62
     4
370
    13
100
AcDbLine
 10
774.4890243145444
 20
-1517.739370024919
 30
0.0
 11
758.6316327503124
 21
-1517.739370024919
 31
0.0
  0
LINE
  5
25350
330
24CF2
100
AcDbEntity
  8
0
 62
     4
370
    13
100
AcDbLine
 10
758.9016327503124
 20
-1530.989370024919
 30
0.0
 11
758.9016327503124
 21
-1521.489370024919
 31
0.0
  0
INSERT
  5
25351
330
24CF2
100
AcDbEntity
  8
0
 62
     4
370
    13
100
AcDbBlockReference
  2
_Open30
 10
758.9016327503124
 20
-1534.739370024919
 30
0.0
 41
3.75
 42
3.75
 43
3.75
 50
270.0
  0
INSERT
  5
25352
330
24CF2
100
AcDbEntity
  8
0
 62
     4
370
    13
100
AcDbBlockReference
  2
_Open30
 10
758.9016327503124
 20
-1517.739370024919
 30
0.0
 41
3.75
 42
3.75
 43
3.75
 50
90.0
  0
MTEXT
  5
25353
330
24CF2
100
AcDbEntity
  8
0
370
    13
100
AcDbMText
 10
755.9016327503126
 20
-1526.239387339099
 30
0.0
 40
4.5
 41
0.0
 71
     5
 72
     1
  1
\A1;17
  7
まこ
 11
0.0000000000000001
 21
1.0
 31
0.0
 73
     1
 44
1.0
  0
POINT
  5
25354
330
24CF2
100
AcDbEntity
  8
DEFPOINTS
 62
     0
370
    50
100
AcDbPoint
 10
773.6890330990705
 20
-1534.739370024919
 30
0.0
  0
POINT
  5
25355
330
24CF2
100
AcDbEntity
  8
DEFPOINTS
 62
     0
370
    50
100
AcDbPoint
 10
775.6890243145445
 20
-1517.739370024919
 30
0.0
  0
POINT
  5
25356
330
24CF2
100
AcDbEntity
  8
DEFPOINTS
 62
     0
370
    50
100
AcDbPoint
 10
758.9016327503124
 20
-1517.739370024919
 30
0.0
  0
ENDBLK
  5
24CFE
330
24CF2
100
AcDbEntity
  8
0
370
    50
100
AcDbBlockEnd
  0
BLOCK
  5
24D1D
330
24D13
100
AcDbEntity
  8
0
370
    50
100
AcDbBlockBegin
  2
*D41
 70
     1
 10
0.0
 20
0.0
 30
0.0
  3
*D41
  1

  0
LINE
  5
25357
330
24D13
100
AcDbEntity
  8
0
 62
     4
370
    13
100
AcDbLine
 10
774.4890243145444
 20
-1517.739370024919
 30
0.0
 11
758.6316327503123
 21
-1517.739370024919
 31
0.0
  0
LINE
  5
25358
330
24D13
100
AcDbEntity
  8
0
 62
     4
370
    13
100
AcDbLine
 10
774.4890243145444
 20
-1493.739370024919
 30
0.0
 11
758.6316327503123
 21
-1493.739370024919
 31
0.0
  0
LINE
  5
25359
330
24D13
100
AcDbEntity
  8
0
 62
     4
370
    13
100
AcDbLine
 10
758.9016327503123
 20
-1513.989370024919
 30
0.0
 11
758.9016327503123
 21
-1497.489370024919
 31
0.0
  0
INSERT
  5
2535A
330
24D13
100
AcDbEntity
  8
0
 62
     4
370
    13
100
AcDbBlockReference
  2
_Open30
 10
758.9016327503123
 20
-1517.739370024919
 30
0.0
 41
3.75
 42
3.75
 43
3.75
 50
270.0
  0
INSERT
  5
2535B
330
24D13
100
AcDbEntity
  8
0
 62
     4
370
    13
100
AcDbBlockReference
  2
_Open30
 10
758.9016327503123
 20
-1493.739370024919
 30
0.0
 41
3.75
 42
3.75
 43
3.75
 50
90.0
  0
MTEXT
  5
2535C
330
24D13
100
AcDbEntity
  8
0
370
    13
100
AcDbMText
 10
755.9016327503124
 20
-1505.739370024919
 30
0.0
 40
4.5
 41
0.0
 71
     5
 72
     1
  1
\A1;24
  7
まこ
 11
0.0000000000000001
 21
1.0
 31
0.0
 73
     1
 44
1.0
  0
POINT
  5
2535D
330
24D13
100
AcDbEntity
  8
DEFPOINTS
 62
     0
370
    50
100
AcDbPoint
 10
775.6890243145445
 20
-1517.739370024919
 30
0.0
  0
POINT
  5
2535E
330
24D13
100
AcDbEntity
  8
DEFPOINTS
 62
     0
370
    50
100
AcDbPoint
 10
775.6890243145445
 20
-1493.739370024919
 30
0.0
  0
POINT
  5
2535F
330
24D13
100
AcDbEntity
  8
DEFPOINTS
 62
     0
370
    50
100
AcDbPoint
 10
758.9016327503123
 20
-1493.739370024919
 30
0.0
  0
ENDBLK
  5
24D1E
330
24D13
100
AcDbEntity
  8
0
370
    50
100
AcDbBlockEnd
  0
BLOCK
  5
24D34
330
24D29
100
AcDbEntity
  8
0
370
    50
100
AcDbBlockBegin
  2
*D42
 70
     1
 10
0.0
 20
0.0
 30
0.0
  3
*D42
  1

  0
LINE
  5
25360
330
24D29
100
AcDbEntity
  8
0
 62
     4
370
    13
100
AcDbLine
 10
773.6890330990705
 20
-1535.939370024919
 30
0.0
 11
773.6890330990705
 21
-1563.872456197332
 31
0.0
  0
LINE
  5
25361
330
24D29
100
AcDbEntity
  8
0
 62
     4
370
    13
100
AcDbLine
 10
781.6890330990704
 20
-1532.670477058845
 30
0.0
 11
781.6890330990704
 21
-1563.872456197332
 31
0.0
  0
LINE
  5
25362
330
24D29
100
AcDbEntity
  8
0
 62
     4
370
    13
100
AcDbLine
 10
769.9390330990706
 20
-1563.602456197332
 30
0.0
 11
766.1890330990705
 21
-1563.602456197332
 31
0.0
  0
LINE
  5
25363
330
24D29
100
AcDbEntity
  8
0
 62
     4
370
    13
100
AcDbLine
 10
785.4390330990704
 20
-1563.602456197332
 30
0.0
 11
789.1890330990705
 21
-1563.602456197332
 31
0.0
  0
INSERT
  5
25364
330
24D29
100
AcDbEntity
  8
0
 62
     4
370
    13
100
AcDbBlockReference
  2
_Open30
 10
773.6890330990705
 20
-1563.602456197332
 30
0.0
 41
3.75
 42
3.75
 43
3.75
  0
INSERT
  5
25365
330
24D29
100
AcDbEntity
  8
0
 62
     4
370
    13
100
AcDbBlockReference
  2
_Open30
 10
781.6890330990704
 20
-1563.602456197332
 30
0.0
 41
3.75
 42
3.75
 43
3.75
 50
180.0
  0
MTEXT
  5
25366
330
24D29
100
AcDbEntity
  8
0
370
    13
100
AcDbMText
 10
777.6890330990704
 20
-1560.602456197332
 30
0.0
 40
4.5
 41
0.0
 71
     5
 72
     1
  1
\A1;8
  7
まこ
 73
     1
 44
1.0
  0
POINT
  5
25367
330
24D29
100
AcDbEntity
  8
DEFPOINTS
 62
     0
370
    50
100
AcDbPoint
 10
773.6890330990705
 20
-1534.739370024919
 30
0.0
  0
POINT
  5
25368
330
24D29
100
AcDbEntity
  8
DEFPOINTS
 62
     0
370
    50
100
AcDbPoint
 10
781.6890330990704
 20
-1531.470477058845
 30
0.0
  0
POINT
  5
25369
330
24D29
100
AcDbEntity
  8
DEFPOINTS
 62
     0
370
    50
100
AcDbPoint
 10
781.6890330990704
 20
-1563.602456197332
 30
0.0
  0
ENDBLK
  5
24D35
330
24D29
100
AcDbEntity
  8
0
370
    50
100
AcDbBlockEnd
  0
ENDSEC
  0
SECTION
  2
ENTITIES
  0
MTEXT
  5
176FC
330
18
100
AcDbEntity
  8
dimension
 62
     2
100
AcDbMText
 10
-100.7823601383244
 20
171.621314412839
 30
0.0
 40
8.0
 41
0.0
 71
     4
 72
     1
  1

 73
     1
 44
1.0
  0
TEXT
  5
187C8
330
18
100
AcDbEntity
  8
A
100
AcDbText
 10
27.08248755054501
 20
1784.547672862096
 30
0.0
 40
2.5
  1

  7
MSｺﾞｼｯｸ
100
AcDbText
  0
TEXT
  5
187C9
330
18
100
AcDbEntity
  8
A
100
AcDbText
 10
19.25748755054502
 20
1784.547672862096
 30
0.0
 40
2.5
  1

 41
0.5
  7
MSｺﾞｼｯｸ
100
AcDbText
  0
TEXT
  5
187CA
330
18
100
AcDbEntity
  8
A
100
AcDbText
 10
167.1825875009164
 20
2214.514692980458
 30
0.0
 40
3.524999999999999
  1
�    
100
AcDbText
  0
MTEXT
  5
187CB
330
18
100
AcDbEntity
  8
0
  6
ByBlock
100
AcDbMText
 10
325.4874764241681
 20
2232.511722574347
 30
0.0
 40
2.0
 41
0.0
 71
     4
 72
     5
  1

 11
-0.0000000000000002
 21
-1.0
 31
0.0
 73
     1
 44
1.0
1001
ACAD
1000
MTEXTBEGIN
1070
    73
1070
     1
1070
    44
1040
1.0
1070
    74
1070
     0
1000
MTEXTEND
  0
MTEXT
  5
187CC
330
18
100
AcDbEntity
  8
0
  6
ByBlock
100
AcDbMText
 10
360.9528647873208
 20
2221.718414215929
 30
0.0
 40
2.0
 41
0.0
 71
     7
 72
     5
  1

 11
0.0000000000000001
 21
1.0
 31
0.0
 73
     1
 44
1.0
1001
ACAD
1000
MTEXTBEGIN
1070
    73
1070
     1
1070
    44
1040
1.0
1070
    74
1070
     0
1000
MTEXTEND
  0
MTEXT
  5
187CD
330
18
100
AcDbEntity
  8
0
100
AcDbMText
 10
325.1733668026532
 20
2146.93890367364
 30
0.0
 40
2.0
 41
10.1453
 71
     1
 72
     5
  1

 11
-0.0000000000000002
 21
-1.0
 31
0.0
 73
     1
 44
1.0
1001
ACAD
1000
MTEXTBEGIN
1070
    73
1070
     1
1070
    44
1040
1.0
1070
    74
1070
     0
1000
MTEXTEND
  0
MTEXT
  5
187CE
330
18
100
AcDbEntity
  8
0
100
AcDbMText
 10
280.7738750495033
 20
2115.30742008065
 30
0.0
 40
2.0
 41
0.0
 71
     1
 72
     5
  1

 73
     1
 44
1.0
1001
ACAD
1000
MTEXTBEGIN
1070
    73
1070
     1
1070
    44
1040
1.0
1070
    74
1070
     0
1000
MTEXTEND
  0
MTEXT
  5
187CF
330
18
100
AcDbEntity
  8
0
  6
CENTER
100
AcDbMText
 10
606.3621522332663
 20
2216.239946825076
 30
0.0
 40
2.0
 41
15.6417
 71
     1
 72
     5
  1

  7
BIGFONT
 73
     1
 44
1.0
1001
ACAD
1000
MTEXTBEGIN
1070
    73
1070
     1
1070
    44
1040
1.0
1070
    74
1070
     0
1000
MTEXTEND
  0
MTEXT
  5
187D0
330
18
100
AcDbEntity
  8
0
  6
DASHDOT
100
AcDbMText
 10
368.6842112890944
 20
2323.029441652852
 30
0.0
 40
1.0
 41
2.0
 71
     1
 72
     5
  1

  7
BIGFONT
 73
     1
 44
1.0
1001
ACAD
1000
MTEXTBEGIN
1070
    73
1070
     1
1070
    44
1040
1.0
1070
    74
1070
     0
1000
MTEXTEND
  0
MTEXT
  5
187D1
330
18
100
AcDbEntity
  8
0
  6
ByBlock
100
AcDbMText
 10
325.4873894192178
 20
2232.511722574347
 30
0.0
 40
2.0
 41
0.0
 71
     4
 72
     5
  1

 11
-0.0000000000000002
 21
-1.0
 31
0.0
 73
     1
 44
1.0
1001
ACAD
1000
MTEXTBEGIN
1070
    73
1070
     1
1070
    44
1040
1.0
1070
    74
1070
     0
1000
MTEXTEND
  0
MTEXT
  5
187D2
330
18
100
AcDbEntity
  8
0
  6
ByBlock
100
AcDbMText
 10
360.9527777823707
 20
2221.718414215929
 30
0.0
 40
2.0
 41
0.0
 71
     7
 72
     5
  1

 11
0.0000000000000001
 21
1.0
 31
0.0
 73
     1
 44
1.0
1001
ACAD
1000
MTEXTBEGIN
1070
    73
1070
     1
1070
    44
1040
1.0
1070
    74
1070
     0
1000
MTEXTEND
  0
MTEXT
  5
187D3
330
18
100
AcDbEntity
  8
0
100
AcDbMText
 10
325.1732797977028
 20
2146.93890367364
 30
0.0
 40
2.0
 41
10.1453
 71
     1
 72
     5
  1

 11
-0.0000000000000002
 21
-1.0
 31
0.0
 73
     1
 44
1.0
1001
ACAD
1000
MTEXTBEGIN
1070
    73
1070
     1
1070
    44
1040
1.0
1070
    74
1070
     0
1000
MTEXTEND
  0
MTEXT
  5
187D4
330
18
100
AcDbEntity
  8
0
100
AcDbMText
 10
280.773788044553
 20
2115.30742008065
 30
0.0
 40
2.0
 41
0.0
 71
     1
 72
     5
  1

 73
     1
 44
1.0
1001
ACAD
1000
MTEXTBEGIN
1070
    73
1070
     1
1070
    44
1040
1.0
1070
    74
1070
     0
1000
MTEXTEND
  0
MTEXT
  5
187D5
330
18
100
AcDbEntity
  8
0
  6
CENTER
100
AcDbMText
 10
606.3620652283159
 20
2216.239946825076
 30
0.0
 40
2.0
 41
15.6417
 71
     1
 72
     5
  1

  7
BIGFONT
 73
     1
 44
1.0
1001
ACAD
1000
MTEXTBEGIN
1070
    73
1070
     1
1070
    44
1040
1.0
1070
    74
1070
     0
1000
MTEXTEND
  0
MTEXT
  5
187D6
330
18
100
AcDbEntity
  8
0
  6
DASHDOT
100
AcDbMText
 10
368.6841242841443
 20
2323.029441652852
 30
0.0
 40
1.0
 41
2.0
 71
     1
 72
     5
  1

  7
BIGFONT
 73
     1
 44
1.0
1001
ACAD
1000
MTEXTBEGIN
1070
    73
1070
     1
1070
    44
1040
1.0
1070
    74
1070
     0
1000
MTEXTEND
  0
INSERT
  5
187D7
330
18
100
AcDbEntity
  8
FRAME025
100
AcDbBlockReference
  2
機械A4横_LBP
 10
271.0019941658661
 20
2006.88884056487
 30
0.0
  0
TEXT
  5
1FC85
330
18
100
AcDbEntity
  8
0
 62
     2
100
AcDbText
 10
348.5764246880577
 20
-1485.528968106831
 30
0.0
 40
1.44
  1
NIKKI
 50
270.0
 41
1.25
  7
TIMESNR
100
AcDbText
  0
TEXT
  5
1FC86
330
18
100
AcDbEntity
  8
0
 62
     2
100
AcDbText
 10
346.8796622790723
 20
-1485.407554996692
 30
0.0
 40
1.44
  1
DENSO
 50
270.0
 41
1.3
  7
TIMESNR
100
AcDbText
  0
TEXT
  5
1FC87
330
18
100
AcDbEntity
  8
0
 62
     2
100
AcDbText
 10
351.537283521734
 20
-1479.036252729281
 30
0.0
 40
2.0
  1
SER No.******
 50
270.0
 41
1.199999999999999
  7
MSゴシックN
 11
351.1718012882315
 21
-1479.036252729281
 31
0.0
100
AcDbText
 73
     1
  0
LINE
  5
1FC88
330
18
100
AcDbEntity
  8
0
 62
     2
100
AcDbLine
 10
357.978404722487
 20
-1511.739409271227
 30
0.0
 11
357.978404722487
 21
-1477.739409271227
 31
0.0
  0
LINE
  5
1FC89
330
18
100
AcDbEntity
  8
0
 62
     2
100
AcDbLine
 10
350.978404722487
 20
-1477.239409271227
 30
0.0
 11
350.978404722487
 21
-1512.239409271226
 31
0.0
  0
TEXT
  5
1FC8A
330
18
100
AcDbEntity
  8
0
 62
     2
100
AcDbText
 10
354.3613168701654
 20
-1479.063379302093
 30
0.0
 40
2.6
  1
MODEL:CLM250MA
 50
270.0
 41
1.199999999999999
  7
MSゴシックN
 11
353.886189966612
 21
-1479.063379302093
 31
0.0
100
AcDbText
 73
     1
  0
LINE
  5
1FC8B
330
18
100
AcDbEntity
  8
0
 62
     2
100
AcDbLine
 10
345.9784047224871
 20
-1477.739409271227
 30
0.0
 11
345.9784047224871
 21
-1511.739409271227
 31
0.0
  0
LINE
  5
1FC91
330
18
100
AcDbEntity
  8
0
 62
     2
100
AcDbLine
 10
357.478404722487
 20
-1477.239409271227
 30
0.0
 11
346.478404722487
 21
-1477.239409271227
 31
0.0
  0
LINE
  5
1FC92
102
{ACAD_REACTORS
330
1FC99
102
}
330
18
100
AcDbEntity
  8
0
 62
     2
100
AcDbLine
 10
346.8319281404885
 20
-1484.190955772305
 30
0.0
 11
348.8344281404886
 21
-1484.431255772305
 31
0.0
  0
ARC
  5
1FC93
102
{ACAD_REACTORS
330
1FC99
102
}
330
18
100
AcDbEntity
  8
0
 62
     2
100
AcDbCircle
 10
348.2355409311862
 20
-1482.189387167653
 30
0.0
 40
1.00311322310025
100
AcDbArc
 50
23.58977727261417
 51
179.946800591402
  0
ARC
  5
1FC94
330
18
100
AcDbEntity
  8
0
 62
     2
100
AcDbCircle
 10
346.478404722487
 20
-1477.739409271227
 30
0.0
 40
0.5
100
AcDbArc
 50
89.99999999999998
 51
180.0
  0
LINE
  5
1FC95
102
{ACAD_REACTORS
330
1FC99
102
}
330
18
100
AcDbEntity
  8
0
 62
     2
100
AcDbLine
 10
346.8319281404885
 20
-1479.785455772304
 30
0.0
 11
350.0359281404885
 21
-1480.185955772305
 31
0.0
  0
LINE
  5
1FC96
102
{ACAD_REACTORS
330
1FC99
102
}
330
18
100
AcDbEntity
  8
0
 62
     2
100
AcDbLine
 10
350.0359281404885
 20
-1484.591455772305
 30
0.0
 11
349.1548281404886
 21
-1481.787955772305
 31
0.0
  0
CIRCLE
  5
1FC97
102
{ACAD_REACTORS
330
1FC99
102
}
330
18
100
AcDbEntity
  8
0
 62
     2
100
AcDbCircle
 10
348.2336781404885
 20
-1482.188455772305
 30
0.0
 40
0.6007500000000002
  0
LINE
  5
1FC98
102
{ACAD_REACTORS
330
1FC99
102
}
330
18
100
AcDbEntity
  8
0
 62
     2
100
AcDbLine
 10
346.8319281404885
 20
-1479.785455772304
 30
0.0
 11
346.8319281404885
 21
-1484.190955772305
 31
0.0
  0
HATCH
  5
1FC99
330
18
100
AcDbEntity
  8
0
 62
     2
100
AcDbHatch
 10
0.0
 20
0.0
 30
0.0
210
0.0
220
0.0
230
1.0
  2
SOLID
 70
     1
 71
     1
 91
        2
 92
       16
 93
        1
 72
     2
 10
348.2336781404885
 20
-1482.188455772305
 40
0.6007500000000002
 50
0.0
 51
360.0
 73
     1
 97
        1
330
1FC97
 92
        1
 93
        8
 72
     2
 10
348.2355409311862
 20
-1482.189387167653
 40
1.00311322310025
 50
23.58977727261417
 51
179.946800591402
 73
     1
 72
     2
 10
348.0334281404886
 20
-1482.188455772305
 40
0.8009999999999999
 50
180.0
 51
360.0
 73
     1
 72
     1
 10
348.8344281404886
 20
-1482.188455772305
 11
348.8344281404886
 21
-1484.431255772305
 72
     1
 10
348.8344281404886
 20
-1484.431255772305
 11
346.8319281404885
 21
-1484.190955772305
 72
     1
 10
346.8319281404885
 20
-1484.190955772305
 11
346.8319281404885
 21
-1479.785455772304
 72
     1
 10
346.8319281404885
 20
-1479.785455772304
 11
350.0359281404885
 21
-1480.185955772305
 72
     1
 10
350.0359281404885
 20
-1480.185955772305
 11
350.0359281404885
 21
-1484.591455772305
 72
     1
 10
350.0359281404885
 20
-1484.591455772305
 11
349.1548281404886
 21
-1481.787955772305
 97
        8
330
1FC93
330
1FC9B
330
1FC9C
330
1FC92
330
1FC98
330
1FC95
330
1FC9A
330
1FC96
 75
     0
 76
     1
 98
        1
 10
350.7131529562477
 20
-1280.710745678068
  0
LINE
  5
1FC9A
102
{ACAD_REACTORS
330
1FC99
102
}
330
18
100
AcDbEntity
  8
0
 62
     2
100
AcDbLine
 10
350.0359281404885
 20
-1480.185955772305
 30
0.0
 11
350.0359281404885
 21
-1484.591455772305
 31
0.0
  0
ARC
  5
1FC9B
102
{ACAD_REACTORS
330
1FC99
102
}
330
18
100
AcDbEntity
  8
0
 62
     2
100
AcDbCircle
 10
348.0334281404886
 20
-1482.188455772305
 30
0.0
 40
0.8009999999999999
100
AcDbArc
 50
180.0
 51
0.0
  0
LINE
  5
1FC9C
102
{ACAD_REACTORS
330
1FC99
102
}
330
18
100
AcDbEntity
  8
0
 62
     2
100
AcDbLine
 10
348.8344281404886
 20
-1482.188455772305
 30
0.0
 11
348.8344281404886
 21
-1484.431255772305
 31
0.0
  0
ARC
  5
1FC9D
330
18
100
AcDbEntity
  8
0
 62
     2
100
AcDbCircle
 10
357.478404722487
 20
-1477.739409271227
 30
0.0
 40
0.5
100
AcDbArc
 50
0.0
 51
89.99999999999998
  0
LINE
  5
1FCA4
330
18
100
AcDbEntity
  8
0
 62
     2
100
AcDbLine
 10
346.478404722487
 20
-1512.239409271226
 30
0.0
 11
357.478404722487
 21
-1512.239409271226
 31
0.0
  0
ARC
  5
1FCA5
330
18
100
AcDbEntity
  8
0
 62
     2
100
AcDbCircle
 10
346.478404722487
 20
-1511.739409271227
 30
0.0
 40
0.5
100
AcDbArc
 50
180.0
 51
270.0
  0
ARC
  5
1FCA6
330
18
100
AcDbEntity
  8
0
 62
     2
100
AcDbCircle
 10
357.478404722487
 20
-1511.739409271227
 30
0.0
 40
0.5
100
AcDbArc
 50
270.0
 51
0.0
  0
TEXT
  5
1FCD3
330
18
100
AcDbEntity
  8
0
 62
     7
100
AcDbText
 10
348.4829999989243
 20
-1496.861069665778
 30
137.5
 40
1.5
  1
SN-16140
 50
270.0
  7
MSゴシックN
 11
348.2088883237974
 21
-1496.861069665778
 31
137.5
100
AcDbText
 73
     1
  0
TEXT
  5
1FCD4
330
18
100
AcDbEntity
  8
0
 62
     7
100
AcDbText
 10
346.6132139485385
 20
-1496.861069665778
 30
137.5
 40
1.5
  1
MADE IN JAPAN
 50
270.0
  7
MSゴシックN
 11
346.3391022734116
 21
-1496.861069665778
 31
137.5
100
AcDbText
 73
     1
  0
ARC
  5
20D95
330
18
100
AcDbEntity
  8
0
 62
     4
100
AcDbCircle
 10
356.4784047224867
 20
-1531.739409271227
 30
0.0
 40
0.5
100
AcDbArc
 50
270.0
 51
0.0
  0
LINE
  5
20D96
330
18
100
AcDbEntity
  8
0
 62
     4
100
AcDbLine
 10
356.9784047224868
 20
-1531.739409271227
 30
0.0
 11
356.9784047224868
 21
-1517.739409271227
 31
0.0
  0
LINE
  5
20D97
102
{ACAD_REACTORS
330
20D99
102
}
330
18
100
AcDbEntity
  8
0
 62
     4
100
AcDbLine
 10
348.2768988031005
 20
-1518.496482672844
 30
0.0
 11
348.2768988031005
 21
-1522.901982672845
 31
0.0
  0
LINE
  5
20D98
102
{ACAD_REACTORS
330
20D99
102
}
330
18
100
AcDbEntity
  8
0
 62
     4
100
AcDbLine
 10
351.4808988031002
 20
-1518.896982672846
 30
0.0
 11
351.4808988031002
 21
-1523.302482672844
 31
0.0
  0
HATCH
  5
20D99
330
18
100
AcDbEntity
  8
0
 62
     4
100
AcDbHatch
 10
0.0
 20
0.0
 30
0.0
210
0.0
220
0.0
230
1.0
  2
SOLID
 70
     1
 71
     1
 91
        2
 92
       16
 93
        1
 72
     2
 10
349.6786488030995
 20
-1520.899482672844
 40
0.6007500000000002
 50
0.0
 51
360.0
 73
     1
 97
        1
330
20DA5
 92
        1
 93
        8
 72
     2
 10
349.6805115937979
 20
-1520.900414068193
 40
1.00311322310025
 50
23.58977727262236
 51
179.9468005913759
 73
     1
 72
     2
 10
349.4783988030996
 20
-1520.899482672844
 40
0.8009999999999999
 50
180.0
 51
360.0
 73
     1
 72
     1
 10
350.2793988031001
 20
-1520.899482672844
 11
350.2793988031001
 21
-1523.142282672844
 72
     1
 10
350.2793988031001
 20
-1523.142282672844
 11
348.2768988031005
 21
-1522.901982672845
 72
     1
 10
348.2768988031005
 20
-1522.901982672845
 11
348.2768988031005
 21
-1518.496482672844
 72
     1
 10
348.2768988031005
 20
-1518.496482672844
 11
351.4808988031002
 21
-1518.896982672846
 72
     1
 10
351.4808988031002
 20
-1518.896982672846
 11
351.4808988031002
 21
-1523.302482672844
 72
     1
 10
351.4808988031002
 20
-1523.302482672844
 11
350.5997988030997
 21
-1520.498982672844
 97
        8
330
20DA4
330
20DA8
330
20DA9
330
20DA7
330
20D97
330
20D9E
330
20D98
330
20DA6
 75
     0
 76
     1
 98
        1
 10
352.1581236188596
 20
-1319.421772578609
  0
LINE
  5
20D9A
330
18
100
AcDbEntity
  8
0
 62
     4
100
AcDbLine
 10
346.9784047224873
 20
-1517.739409271227
 30
0.0
 11
346.9784047224868
 21
-1531.739409271227
 31
0.0
  0
LINE
  5
20D9B
330
18
100
AcDbEntity
  8
0
 62
     4
100
AcDbLine
 10
352.9784047224873
 20
-1517.239409271227
 30
0.0
 11
352.9784047224873
 21
-1532.239409271227
 31
0.0
  0
TEXT
  5
20D9C
330
18
100
AcDbEntity
  8
0
 62
     4
100
AcDbText
 10
353.9369641734147
 20
-1518.454127750433
 30
0.0
 40
2.0
  1
Certificate
 50
270.0
  7
TIMESNR
 11
353.298175420711
 21
-1518.454127750433
 31
0.0
100
AcDbText
 73
     1
  0
LINE
  5
20D9D
330
18
100
AcDbEntity
  8
0
 62
     4
100
AcDbLine
 10
356.4784047224868
 20
-1517.239409271227
 30
0.0
 11
347.4784047224872
 21
-1517.239409271227
 31
0.0
  0
LINE
  5
20D9E
102
{ACAD_REACTORS
330
20D99
102
}
330
18
100
AcDbEntity
  8
0
 62
     4
100
AcDbLine
 10
348.2768988031005
 20
-1518.496482672844
 30
0.0
 11
351.4808988031002
 21
-1518.896982672846
 31
0.0
  0
ARC
  5
20D9F
330
18
100
AcDbEntity
  8
0
 62
     4
100
AcDbCircle
 10
347.4784047224872
 20
-1517.739409271227
 30
0.0
 40
0.5
100
AcDbArc
 50
89.99999999999998
 51
180.0
  0
ARC
  5
20DA0
330
18
100
AcDbEntity
  8
0
 62
     4
100
AcDbCircle
 10
356.4784047224868
 20
-1517.739409271227
 30
0.0
 40
0.5
100
AcDbArc
 50
0.0
 51
89.99999999999998
  0
LINE
  5
20DA1
330
18
100
AcDbEntity
  8
0
 62
     4
100
AcDbLine
 10
347.4784047224868
 20
-1532.239409271227
 30
0.0
 11
356.4784047224868
 21
-1532.239409271227
 31
0.0
  0
TEXT
  5
20DA2
330
18
100
AcDbEntity
  8
0
 62
     4
100
AcDbText
 10
350.0213953506692
 20
-1524.239995007371
 30
0.0
 40
1.44
  1
NIKKI
 50
270.0
  7
TIMESNR
100
AcDbText
  0
TEXT
  5
20DA3
330
18
100
AcDbEntity
  8
0
 62
     4
100
AcDbText
 10
348.3246329416835
 20
-1524.118581897233
 30
0.0
 40
1.44
  1
DENSO
 50
270.0
  7
TIMESNR
100
AcDbText
  0
ARC
  5
20DA4
102
{ACAD_REACTORS
330
20D99
102
}
330
18
100
AcDbEntity
  8
0
 62
     4
100
AcDbCircle
 10
349.6805115937979
 20
-1520.900414068193
 30
0.0
 40
1.00311322310025
100
AcDbArc
 50
23.58977727262236
 51
179.9468005913759
  0
CIRCLE
  5
20DA5
102
{ACAD_REACTORS
330
20D99
102
}
330
18
100
AcDbEntity
  8
0
 62
     4
100
AcDbCircle
 10
349.6786488030995
 20
-1520.899482672844
 30
0.0
 40
0.6007500000000002
  0
LINE
  5
20DA6
102
{ACAD_REACTORS
330
20D99
102
}
330
18
100
AcDbEntity
  8
0
 62
     4
100
AcDbLine
 10
351.4808988031002
 20
-1523.302482672844
 30
0.0
 11
350.5997988030997
 21
-1520.498982672844
 31
0.0
  0
LINE
  5
20DA7
102
{ACAD_REACTORS
330
20D99
102
}
330
18
100
AcDbEntity
  8
0
 62
     4
100
AcDbLine
 10
348.2768988031005
 20
-1522.901982672845
 30
0.0
 11
350.2793988031001
 21
-1523.142282672844
 31
0.0
  0
ARC
  5
20DA8
102
{ACAD_REACTORS
330
20D99
102
}
330
18
100
AcDbEntity
  8
0
 62
     4
100
AcDbCircle
 10
349.4783988030996
 20
-1520.899482672844
 30
0.0
 40
0.8009999999999999
100
AcDbArc
 50
180.0
 51
0.0
  0
LINE
  5
20DA9
102
{ACAD_REACTORS
330
20D99
102
}
330
18
100
AcDbEntity
  8
0
 62
     4
100
AcDbLine
 10
350.2793988031001
 20
-1520.899482672844
 30
0.0
 11
350.2793988031001
 21
-1523.142282672844
 31
0.0
  0
ARC
  5
20DAA
330
18
100
AcDbEntity
  8
0
 62
     4
100
AcDbCircle
 10
347.4784047224868
 20
-1531.739409271227
 30
0.0
 40
0.5
100
AcDbArc
 50
180.0
 51
270.0
  0
LINE
  5
20DAB
330
18
100
AcDbEntity
  8
0
 62
     2
100
AcDbLine
 10
357.478404722487
 20
-1477.239409271227
 30
0.0
 11
346.478404722487
 21
-1477.239409271227
 31
0.0
  0
LINE
  5
20DAC
330
18
100
AcDbEntity
  8
0
 62
     2
100
AcDbLine
 10
357.978404722487
 20
-1511.739409271227
 30
0.0
 11
357.978404722487
 21
-1477.739409271227
 31
0.0
  0
LINE
  5
20DAD
330
18
100
AcDbEntity
  8
0
 62
     2
100
AcDbLine
 10
346.478404722487
 20
-1512.239409271226
 30
0.0
 11
357.478404722487
 21
-1512.239409271226
 31
0.0
  0
ARC
  5
20DAF
330
18
100
AcDbEntity
  8
0
 62
     2
100
AcDbCircle
 10
357.478404722487
 20
-1477.739409271227
 30
0.0
 40
0.5
100
AcDbArc
 50
0.0
 51
89.99999999999998
  0
ARC
  5
20DB0
330
18
100
AcDbEntity
  8
0
 62
     2
100
AcDbCircle
 10
357.478404722487
 20
-1511.739409271227
 30
0.0
 40
0.5
100
AcDbArc
 50
270.0
 51
0.0
  0
HATCH
  5
20DB1
330
18
100
AcDbEntity
  8
0
 62
     2
100
AcDbHatch
 10
0.0
 20
0.0
 30
0.0
210
0.0
220
0.0
230
1.0
  2
SOLID
 70
     1
 71
     1
 91
        2
 92
       16
 93
        1
 72
     2
 10
348.2336781404887
 20
-1482.188455772305
 40
0.6007500000000002
 50
0.0
 51
360.0
 73
     1
 97
        1
330
20DB9
 92
        1
 93
        8
 72
     2
 10
348.2355409311862
 20
-1482.189387167654
 40
1.00311322310025
 50
23.58977727262236
 51
179.9468005913759
 73
     1
 72
     2
 10
348.0334281404888
 20
-1482.188455772305
 40
0.8009999999999999
 50
180.0
 51
360.0
 73
     1
 72
     1
 10
348.8344281404888
 20
-1482.188455772305
 11
348.8344281404888
 21
-1484.431255772305
 72
     1
 10
348.8344281404888
 20
-1484.431255772305
 11
346.8319281404887
 21
-1484.190955772306
 72
     1
 10
346.8319281404887
 20
-1484.190955772306
 11
346.8319281404887
 21
-1479.785455772305
 72
     1
 10
346.8319281404887
 20
-1479.785455772305
 11
350.0359281404885
 21
-1480.185955772305
 72
     1
 10
350.0359281404885
 20
-1480.185955772305
 11
350.0359281404885
 21
-1484.591455772306
 72
     1
 10
350.0359281404885
 20
-1484.591455772306
 11
349.1548281404889
 21
-1481.787955772305
 97
        8
330
20DB2
330
20DBA
330
20DB7
330
20DBB
330
20DB6
330
20DB3
330
20DC0
330
20DC1
 75
     0
 76
     1
 98
        1
 10
350.7131529562479
 20
-1280.71074567807
  0
ARC
  5
20DB2
102
{ACAD_REACTORS
330
20DB1
102
}
330
18
100
AcDbEntity
  8
0
 62
     2
100
AcDbCircle
 10
348.2355409311862
 20
-1482.189387167654
 30
0.0
 40
1.00311322310025
100
AcDbArc
 50
23.58977727262236
 51
179.9468005913759
  0
LINE
  5
20DB3
102
{ACAD_REACTORS
330
20DB1
102
}
330
18
100
AcDbEntity
  8
0
 62
     2
100
AcDbLine
 10
346.8319281404887
 20
-1479.785455772305
 30
0.0
 11
350.0359281404885
 21
-1480.185955772305
 31
0.0
  0
TEXT
  5
20DB4
330
18
100
AcDbEntity
  8
0
 62
     2
100
AcDbText
 10
348.576424688058
 20
-1485.528968106833
 30
0.0
 40
1.44
  1
NIKKI
 50
270.0
 41
1.25
  7
TIMESNR
100
AcDbText
  0
LINE
  5
20DB5
330
18
100
AcDbEntity
  8
0
 62
     2
100
AcDbLine
 10
345.9784047224871
 20
-1477.739409271227
 30
0.0
 11
345.9784047224871
 21
-1511.739409271227
 31
0.0
  0
LINE
  5
20DB6
102
{ACAD_REACTORS
330
20DB1
102
}
330
18
100
AcDbEntity
  8
0
 62
     2
100
AcDbLine
 10
346.8319281404887
 20
-1479.785455772305
 30
0.0
 11
346.8319281404887
 21
-1484.190955772306
 31
0.0
  0
LINE
  5
20DB7
102
{ACAD_REACTORS
330
20DB1
102
}
330
18
100
AcDbEntity
  8
0
 62
     2
100
AcDbLine
 10
348.8344281404888
 20
-1482.188455772305
 30
0.0
 11
348.8344281404888
 21
-1484.431255772305
 31
0.0
  0
ARC
  5
20DB8
330
18
100
AcDbEntity
  8
0
 62
     2
100
AcDbCircle
 10
346.478404722487
 20
-1477.739409271227
 30
0.0
 40
0.5
100
AcDbArc
 50
89.99999999999998
 51
180.0
  0
CIRCLE
  5
20DB9
102
{ACAD_REACTORS
330
20DB1
102
}
330
18
100
AcDbEntity
  8
0
 62
     2
100
AcDbCircle
 10
348.2336781404887
 20
-1482.188455772305
 30
0.0
 40
0.6007500000000002
  0
ARC
  5
20DBA
102
{ACAD_REACTORS
330
20DB1
102
}
330
18
100
AcDbEntity
  8
0
 62
     2
100
AcDbCircle
 10
348.0334281404888
 20
-1482.188455772305
 30
0.0
 40
0.8009999999999999
100
AcDbArc
 50
180.0
 51
0.0
  0
LINE
  5
20DBB
102
{ACAD_REACTORS
330
20DB1
102
}
330
18
100
AcDbEntity
  8
0
 62
     2
100
AcDbLine
 10
346.8319281404887
 20
-1484.190955772306
 30
0.0
 11
348.8344281404888
 21
-1484.431255772305
 31
0.0
  0
TEXT
  5
20DBC
330
18
100
AcDbEntity
  8
0
 62
     2
100
AcDbText
 10
346.8796622790727
 20
-1485.407554996692
 30
0.0
 40
1.44
  1
DENSO
 50
270.0
 41
1.3
  7
TIMESNR
100
AcDbText
  0
ARC
  5
20DBD
330
18
100
AcDbEntity
  8
0
 62
     2
100
AcDbCircle
 10
346.478404722487
 20
-1511.739409271227
 30
0.0
 40
0.5
100
AcDbArc
 50
180.0
 51
270.0
  0
LINE
  5
20DBE
330
18
100
AcDbEntity
  8
0
 62
     2
100
AcDbLine
 10
350.978404722487
 20
-1477.239409271227
 30
0.0
 11
350.978404722487
 21
-1512.239409271226
 31
0.0
  0
TEXT
  5
20DBF
330
18
100
AcDbEntity
  8
0
 62
     2
100
AcDbText
 10
351.537283521734
 20
-1479.036252729281
 30
0.0
 40
2.0
  1
SER No.******
 50
270.0
 41
1.199999999999999
  7
MSｺﾞｼｯｸN
 11
351.1718012882315
 21
-1479.036252729281
 31
0.0
100
AcDbText
 73
     1
  0
LINE
  5
20DC0
102
{ACAD_REACTORS
330
20DB1
102
}
330
18
100
AcDbEntity
  8
0
 62
     2
100
AcDbLine
 10
350.0359281404885
 20
-1480.185955772305
 30
0.0
 11
350.0359281404885
 21
-1484.591455772306
 31
0.0
  0
LINE
  5
20DC1
102
{ACAD_REACTORS
330
20DB1
102
}
330
18
100
AcDbEntity
  8
0
 62
     2
100
AcDbLine
 10
350.0359281404885
 20
-1484.591455772306
 30
0.0
 11
349.1548281404889
 21
-1481.787955772305
 31
0.0
  0
TEXT
  5
216E7
330
18
100
AcDbEntity
  8
FRAME020
  6
Continuous
100
AcDbText
 10
1272.84444499335
 20
-2736.187561819853
 30
0.0
 40
3.0
  1

 50
270.0
100
AcDbText
  0
MTEXT
  5
21ACC
330
18
100
AcDbEntity
  8
0
100
AcDbMText
 10
62.91095225984048
 20
-1280.130762802907
 30
0.0
 40
2.5
 41
0.625
 71
     9
 72
     1
  1

 73
     1
 44
1.0
1001
ACAD
1000
MTEXTBEGIN
1070
    73
1070
     1
1070
    44
1040
1.0
1070
    74
1070
     0
1000
MTEXTEND
1000
MTEXTBEGIN
1070
    73
1070
     1
1070
    44
1040
1.0
1070
    74
1070
     0
1000
MTEXTEND
1000
MTEXTBEGIN
1070
    73
1070
     1
1070
    44
1040
1.0
1070
    74
1070
     0
1000
MTEXTEND
1000
MTEXTBEGIN
1070
    73
1070
     1
1070
    44
1040
1.0
1070
    74
1070
     0
1000
MTEXTEND
1000
MTEXTBEGIN
1070
    73
1070
     1
1070
    44
1040
1.0
1070
    74
1070
     0
1000
MTEXTEND
1000
MTEXTBEGIN
1070
    73
1070
     1
1070
    44
1040
1.0
1070
    74
1070
     0
1000
MTEXTEND
  0
LWPOLYLINE
  5
21E88
330
18
100
AcDbEntity
  8
0
370
    50
100
AcDbPolyline
 90
        2
 70
     0
 43
0.0
 10
623.7041998229626
 20
-1516.742142196792
 10
463.7041604427404
 20
-1516.742142196792
  0
LWPOLYLINE
  5
21E8A
330
18
100
AcDbEntity
  8
0
370
    50
100
AcDbPolyline
 90
        2
 70
     0
 43
0.0
 10
463.7041604427404
 20
-1607.448498369816
 10
623.7041998229626
 20
-1607.448498369816
  0
LWPOLYLINE
  5
21E8B
330
18
100
AcDbEntity
  8
0
370
    50
100
AcDbPolyline
 90
        2
 70
     0
 43
0.0
 10
623.7041998229626
 20
-1472.736597853046
 10
463.7041604427404
 20
-1472.736597853046
  0
LINE
  5
21E99
330
18
100
AcDbEntity
  8
0
370
    50
100
AcDbLine
 10
449.6819774229625
 20
-1609.439905896676
 30
0.0
 11
464.7041604427403
 21
-1609.439905896676
 31
0.0
  0
LWPOLYLINE
  5
21E9E
330
18
100
AcDbEntity
  8
0
370
    50
100
AcDbPolyline
 90
        2
 70
     0
 43
0.0
 10
496.2967087384048
 20
-1633.448498369815
 10
464.7041604427403
 20
-1633.448498369816
  0
LINE
  5
21EA2
330
18
100
AcDbEntity
  8
0
370
    50
100
AcDbLine
 10
464.7041604427403
 20
-1607.448498369816
 30
0.0
 11
464.7041604427403
 21
-1633.448498369816
 31
0.0
  0
LINE
  5
21EA5
330
18
100
AcDbEntity
  8
隠れ線
 48
0.45
370
    13
100
AcDbLine
 10
477.6842995213924
 20
-1617.448498369815
 30
0.0
 11
481.6768220121984
 21
-1617.448498369815
 31
0.0
  0
LINE
  5
21EA7
330
18
100
AcDbEntity
  8
隠れ線
 48
0.45
370
    13
100
AcDbLine
 10
478.1842995213924
 20
-1607.448498369816
 30
0.0
 11
478.1842995213925
 21
-1618.948498369815
 31
0.0
  0
LINE
  5
21EA8
330
18
100
AcDbEntity
  8
隠れ線
 48
0.45
370
    13
100
AcDbLine
 10
477.6842995213924
 20
-1607.448498369816
 30
0.0
 11
477.6842995213924
 21
-1617.448498369815
 31
0.0
  0
LINE
  5
21EAB
330
18
100
AcDbEntity
  8
隠れ線
 48
0.45
370
    13
100
AcDbLine
 10
481.1842995213925
 20
-1607.448498369816
 30
0.0
 11
481.1842995213925
 21
-1618.948498369815
 31
0.0
  0
LINE
  5
21EAC
330
18
100
AcDbEntity
  8
隠れ線
 48
0.45
370
    13
100
AcDbLine
 10
481.6768220121984
 20
-1617.448498369815
 30
0.0
 11
481.6768220121984
 21
-1607.448498369816
 31
0.0
  0
LINE
  5
21EBF
330
18
100
AcDbEntity
  8
0
370
    50
100
AcDbLine
 10
449.6819774229626
 20
-1472.736597853046
 30
0.0
 11
463.7041604427404
 21
-1472.736597853046
 31
0.0
  0
LINE
  5
21EC0
330
18
100
AcDbEntity
  8
0
370
    50
100
AcDbLine
 10
449.6819774229625
 20
-1516.742142196792
 30
0.0
 11
463.7041604427404
 21
-1516.742142196792
 31
0.0
  0
LINE
  5
21ED2
330
18
100
AcDbEntity
  8
0
100
AcDbLine
 10
464.7041604427403
 20
-1516.742142196792
 30
0.0
 11
464.7041604427403
 21
-1534.7253873391
 31
0.0
  0
LINE
  5
21ED4
330
18
100
AcDbEntity
  8
0
  6
CENTER
 62
     1
 48
0.3
370
    13
100
AcDbLine
 10
475.4336718790233
 20
-1527.239370024919
 30
0.0
 11
483.7206118510255
 21
-1527.239370024919
 31
0.0
  0
CIRCLE
  5
21ED5
330
18
100
AcDbEntity
  8
0
370
     9
100
AcDbCircle
 10
479.6819774229627
 20
-1527.239370024919
 30
0.0
 40
2.5
  0
CIRCLE
  5
21ED6
330
18
100
AcDbEntity
  8
0
370
    20
100
AcDbCircle
 10
479.6819774229627
 20
-1527.247504820762
 30
0.0
 40
2.0
  0
LINE
  5
21ED8
330
18
100
AcDbEntity
  8
0
  6
CENTER
 62
     1
 48
0.3
370
    13
100
AcDbLine
 10
479.6819774229627
 20
-1530.909583215827
 30
0.0
 11
479.6819774229627
 21
-1523.806278051677
 31
0.0
  0
LINE
  5
21ED9
330
18
100
AcDbEntity
  8
0
100
AcDbLine
 10
464.7041602695013
 20
-1454.73918632051
 30
0.0
 11
464.7041604427403
 21
-1472.736597853046
 31
0.0
  0
CIRCLE
  5
21EDA
330
18
100
AcDbEntity
  8
0
370
    20
100
AcDbCircle
 10
479.6819774229627
 20
-1462.259288329225
 30
0.0
 40
2.0
  0
CIRCLE
  5
21EDD
330
18
100
AcDbEntity
  8
0
370
     9
100
AcDbCircle
 10
479.6819774229627
 20
-1462.239370024919
 30
0.0
 40
2.5
  0
LINE
  5
21EE0
330
18
100
AcDbEntity
  8
0
370
    50
100
AcDbLine
 10
623.7041998229626
 20
-1472.736597853046
 30
0.0
 11
637.6819774229625
 21
-1472.736597853046
 31
0.0
  0
LINE
  5
21EE1
330
18
100
AcDbEntity
  8
0
370
    50
100
AcDbLine
 10
623.7241604427404
 20
-1516.742142196792
 30
0.0
 11
637.6819774229626
 21
-1516.742142196792
 31
0.0
  0
LINE
  5
21EE3
330
18
100
AcDbEntity
  8
0
370
    50
100
AcDbLine
 10
622.7041998229626
 20
-1609.439905896676
 30
0.0
 11
637.6819774229625
 21
-1609.439905896676
 31
0.0
  0
LWPOLYLINE
  5
21EE9
330
18
100
AcDbEntity
  8
0
370
    50
100
AcDbPolyline
 90
        2
 70
     0
 43
0.0
 10
531.8522642939447
 20
-1633.448498369815
 10
496.2967087384048
 20
-1633.448498369815
  0
LINE
  5
21EF0
330
18
100
AcDbEntity
  8
隠れ線
 48
0.45
370
    13
100
AcDbLine
 10
541.6842995213924
 20
-1617.448498369815
 30
0.0
 11
545.6768220121984
 21
-1617.448498369815
 31
0.0
  0
LWPOLYLINE
  5
21EF1
330
18
100
AcDbEntity
  8
0
370
    50
100
AcDbPolyline
 90
        2
 70
     0
 43
0.0
 10
567.4078198494847
 20
-1633.448498369815
 10
531.8522642939447
 20
-1633.448498369815
  0
LINE
  5
21EF5
330
18
100
AcDbEntity
  8
隠れ線
 48
0.45
370
    13
100
AcDbLine
 10
542.1842995213924
 20
-1607.448498369816
 30
0.0
 11
542.1842995213924
 21
-1618.948498369815
 31
0.0
  0
LINE
  5
21EF6
330
18
100
AcDbEntity
  8
隠れ線
 48
0.45
370
    13
100
AcDbLine
 10
541.6842995213924
 20
-1607.448498369816
 30
0.0
 11
541.6842995213924
 21
-1617.448498369815
 31
0.0
  0
LINE
  5
21EF9
330
18
100
AcDbEntity
  8
隠れ線
 48
0.45
370
    13
100
AcDbLine
 10
545.6768220121984
 20
-1617.448498369815
 30
0.0
 11
545.6768220121984
 21
-1607.448498369816
 31
0.0
  0
LINE
  5
21EFA
330
18
100
AcDbEntity
  8
隠れ線
 48
0.45
370
    13
100
AcDbLine
 10
545.1842995213923
 20
-1607.448498369816
 30
0.0
 11
545.1842995213923
 21
-1618.948498369815
 31
0.0
  0
LWPOLYLINE
  5
21EFE
330
18
100
AcDbEntity
  8
0
370
    50
100
AcDbPolyline
 90
        2
 70
     0
 43
0.0
 10
602.9633754050247
 20
-1633.448498369815
 10
567.4078198494847
 20
-1633.448498369815
  0
LWPOLYLINE
  5
21F05
330
18
100
AcDbEntity
  8
0
370
    50
100
AcDbPolyline
 90
        2
 70
     0
 43
0.0
 10
622.7041998229626
 20
-1633.448498369815
 10
602.9633754050247
 20
-1633.448498369815
  0
LINE
  5
21F0A
330
18
100
AcDbEntity
  8
隠れ線
 48
0.45
370
    13
100
AcDbLine
 10
605.6842995213925
 20
-1617.448498369815
 30
0.0
 11
609.6768220121985
 21
-1617.448498369815
 31
0.0
  0
LINE
  5
21F0D
330
18
100
AcDbEntity
  8
隠れ線
 48
0.45
370
    13
100
AcDbLine
 10
606.1842995213925
 20
-1607.448498369816
 30
0.0
 11
606.1842995213926
 21
-1618.948498369815
 31
0.0
  0
LINE
  5
21F0E
330
18
100
AcDbEntity
  8
隠れ線
 48
0.45
370
    13
100
AcDbLine
 10
605.6842995213925
 20
-1607.448498369816
 30
0.0
 11
605.6842995213925
 21
-1617.448498369815
 31
0.0
  0
LINE
  5
21F0F
330
18
100
AcDbEntity
  8
隠れ線
 48
0.45
370
    13
100
AcDbLine
 10
609.6768220121985
 20
-1617.448498369815
 30
0.0
 11
609.6768220121985
 21
-1607.448498369816
 31
0.0
  0
LINE
  5
21F10
330
18
100
AcDbEntity
  8
隠れ線
 48
0.45
370
    13
100
AcDbLine
 10
609.1842995213925
 20
-1607.448498369816
 30
0.0
 11
609.1842995213926
 21
-1618.948498369815
 31
0.0
  0
LINE
  5
21F12
330
18
100
AcDbEntity
  8
0
370
    50
100
AcDbLine
 10
622.7041998229626
 20
-1607.448498369816
 30
0.0
 11
622.7041998229626
 21
-1633.448498369815
 31
0.0
  0
LINE
  5
21F15
330
18
100
AcDbEntity
  8
0
  6
CENTER
 62
     1
 48
0.3
370
    13
100
AcDbLine
 10
539.8817765009131
 20
-1527.239370024919
 30
0.0
 11
547.7095879720178
 21
-1527.239370024919
 31
0.0
  0
CIRCLE
  5
21F16
330
18
100
AcDbEntity
  8
0
370
     9
100
AcDbCircle
 10
543.6819774229626
 20
-1527.239370024919
 30
0.0
 40
2.5
  0
CIRCLE
  5
21F17
330
18
100
AcDbEntity
  8
0
370
    20
100
AcDbCircle
 10
543.6819774229626
 20
-1527.247504820762
 30
0.0
 40
2.0
  0
LINE
  5
21F18
330
18
100
AcDbEntity
  8
0
  6
CENTER
 62
     1
 48
0.3
370
    13
100
AcDbLine
 10
543.6819774229626
 20
-1530.867766597046
 30
0.0
 11
543.6819774229626
 21
-1523.425999332718
 31
0.0
  0
CIRCLE
  5
21F19
330
18
100
AcDbEntity
  8
0
370
    20
100
AcDbCircle
 10
543.6819774229626
 20
-1462.259288329225
 30
0.0
 40
2.0
  0
CIRCLE
  5
21F1A
330
18
100
AcDbEntity
  8
0
370
     9
100
AcDbCircle
 10
543.6819774229626
 20
-1462.239370024919
 30
0.0
 40
2.5
  0
LINE
  5
21F1D
330
18
100
AcDbEntity
  8
0
  6
CENTER
 62
     1
370
    13
100
AcDbLine
 10
543.6819774229626
 20
-1458.701407507555
 30
0.0
 11
543.6819774229626
 21
-1465.900031927204
 31
0.0
  0
CIRCLE
  5
21F1E
330
18
100
AcDbEntity
  8
0
370
     9
100
AcDbCircle
 10
607.6819774229626
 20
-1527.239370024919
 30
0.0
 40
2.5
  0
CIRCLE
  5
21F1F
330
18
100
AcDbEntity
  8
0
370
    20
100
AcDbCircle
 10
607.6819774229626
 20
-1527.247504820762
 30
0.0
 40
2.0
  0
LINE
  5
21F21
330
18
100
AcDbEntity
  8
0
  6
CENTER
 62
     1
 48
0.3
370
    13
100
AcDbLine
 10
604.0777016973039
 20
-1527.239370024919
 30
0.0
 11
611.3146990831752
 21
-1527.239370024919
 31
0.0
  0
LINE
  5
21F23
330
18
100
AcDbEntity
  8
0
  6
CENTER
 62
     1
 48
0.3
370
    13
100
AcDbLine
 10
607.6819774229626
 20
-1530.841319574265
 30
0.0
 11
607.6819774229626
 21
-1523.935454194232
 31
0.0
  0
LINE
  5
21F24
330
18
100
AcDbEntity
  8
0
100
AcDbLine
 10
622.7241604427404
 20
-1516.742142196792
 30
0.0
 11
622.7042128769595
 21
-1534.74157360325
 31
0.0
  0
CIRCLE
  5
21F25
330
18
100
AcDbEntity
  8
0
370
    20
100
AcDbCircle
 10
607.6819774229626
 20
-1462.259288329225
 30
0.0
 40
2.0
  0
CIRCLE
  5
21F26
330
18
100
AcDbEntity
  8
0
370
     9
100
AcDbCircle
 10
607.6819774229626
 20
-1462.239370024919
 30
0.0
 40
2.5
  0
LINE
  5
21F29
330
18
100
AcDbEntity
  8
0
  6
CENTER
 62
     1
370
    13
100
AcDbLine
 10
607.6819774229626
 20
-1459.739370024919
 30
0.0
 11
607.6819774229626
 21
-1464.739370024919
 31
0.0
  0
LINE
  5
21F2A
330
18
100
AcDbEntity
  8
0
  6
CENTER
 62
     1
370
    13
100
AcDbLine
 10
607.6819774229626
 20
-1458.810457433743
 30
0.0
 11
607.6819774229626
 21
-1465.764812581219
 31
0.0
  0
LINE
  5
21F2B
330
18
100
AcDbEntity
  8
0
100
AcDbLine
 10
622.7041996260953
 20
-1454.737254157646
 30
0.0
 11
622.7041998229626
 21
-1472.736597853046
 31
0.0
  0
LINE
  5
234B8
330
18
100
AcDbEntity
  8
0
370
    50
100
AcDbLine
 10
637.6819758992382
 20
-1454.73707099628
 30
0.0
 11
449.6819774229627
 21
-1454.739370024919
 31
0.0
  0
LINE
  5
234BA
330
18
100
AcDbEntity
  8
0
370
    50
100
AcDbLine
 10
449.6819774229625
 20
-1534.739370024919
 30
0.0
 11
637.6819774229622
 21
-1534.739366711337
 31
0.0
  0
LINE
  5
234C9
330
18
100
AcDbEntity
  8
0
370
    50
100
AcDbLine
 10
623.7041998229625
 20
-1534.739370024919
 30
0.0
 11
637.6819774229623
 21
-1534.739370024919
 31
0.0
  0
LINE
  5
234CA
330
18
100
AcDbEntity
  8
0
370
    50
100
AcDbLine
 10
637.6819774229623
 20
-1534.739370024919
 30
0.0
 11
637.6819758992382
 21
-1454.73707099628
 31
0.0
  0
LINE
  5
234CC
330
18
100
AcDbEntity
  8
0
370
    50
100
AcDbLine
 10
449.6819774229624
 20
-1534.739370024919
 30
0.0
 11
449.6819774229627
 21
-1454.739370024919
 31
0.0
  0
LINE
  5
234CD
330
18
100
AcDbEntity
  8
0
370
    50
100
AcDbLine
 10
449.6819774229625
 20
-1607.448498369816
 30
0.0
 11
637.6819774229625
 21
-1607.448498369816
 31
0.0
  0
LINE
  5
234CE
330
18
100
AcDbEntity
  8
0
370
    50
100
AcDbLine
 10
637.6819774229625
 20
-1607.448498369816
 30
0.0
 11
637.6819774229625
 21
-1647.448498369815
 31
0.0
  0
LINE
  5
234CF
330
18
100
AcDbEntity
  8
0
370
    50
100
AcDbLine
 10
637.6819774229625
 20
-1647.448498369815
 30
0.0
 11
449.6819774229625
 21
-1647.448498369815
 31
0.0
  0
LINE
  5
234D1
330
18
100
AcDbEntity
  8
0
370
    50
100
AcDbLine
 10
449.6819774229625
 20
-1607.448498369816
 30
0.0
 11
449.6819774229625
 21
-1647.448498369815
 31
0.0
  0
LINE
  5
2353C
330
18
100
AcDbEntity
  8
0
  6
CENTER
 62
     1
 48
0.45
370
    13
100
AcDbLine
 10
432.3613204890652
 20
-1494.739370024919
 30
0.0
 11
663.4347127099199
 21
-1494.739370024919
 31
0.0
  0
LINE
  5
2353D
330
18
100
AcDbEntity
  8
0
  6
CENTER
 62
     1
 48
0.3
370
    13
100
AcDbLine
 10
475.4336718790233
 20
-1462.239370024919
 30
0.0
 11
483.7206118510255
 21
-1462.239370024919
 31
0.0
  0
LINE
  5
2353E
330
18
100
AcDbEntity
  8
0
  6
CENTER
 62
     1
 48
0.3
370
    13
100
AcDbLine
 10
479.6819774229627
 20
-1465.909583215827
 30
0.0
 11
479.6819774229627
 21
-1458.806278051677
 31
0.0
  0
LINE
  5
2353F
330
18
100
AcDbEntity
  8
0
  6
CENTER
 62
     1
 48
0.3
370
    13
100
AcDbLine
 10
539.8817765009131
 20
-1462.259288329225
 30
0.0
 11
547.7095879720178
 21
-1462.259288329225
 31
0.0
  0
LINE
  5
23540
330
18
100
AcDbEntity
  8
0
  6
CENTER
 62
     1
 48
0.3
370
    13
100
AcDbLine
 10
604.0777016973039
 20
-1462.259288329225
 30
0.0
 11
611.3146990831752
 21
-1462.259288329225
 31
0.0
  0
LINE
  5
2356C
330
18
100
AcDbEntity
  8
隠れ線
 48
0.45
370
    13
100
AcDbLine
 10
477.6842995213924
 20
-1617.448498369815
 30
0.0
 11
478.1842995213924
 21
-1618.137191024087
 31
0.0
  0
LINE
  5
2356E
330
18
100
AcDbEntity
  8
隠れ線
 48
0.45
370
    13
100
AcDbLine
 10
481.1842995213925
 20
-1618.137191024087
 30
0.0
 11
481.6768220121984
 21
-1617.448498369815
 31
0.0
  0
LINE
  5
2356F
330
18
100
AcDbEntity
  8
隠れ線
 48
0.45
370
    13
100
AcDbLine
 10
541.6842995213924
 20
-1617.448498369815
 30
0.0
 11
542.1842995213924
 21
-1618.137191024087
 31
0.0
  0
LINE
  5
23570
330
18
100
AcDbEntity
  8
隠れ線
 48
0.45
370
    13
100
AcDbLine
 10
545.1842995213923
 20
-1618.137191024087
 30
0.0
 11
545.6768220121984
 21
-1617.448498369815
 31
0.0
  0
LINE
  5
23571
330
18
100
AcDbEntity
  8
隠れ線
 48
0.45
370
    13
100
AcDbLine
 10
605.6842995213924
 20
-1617.448498369815
 30
0.0
 11
606.1842995213924
 21
-1618.137191024087
 31
0.0
  0
LINE
  5
23572
330
18
100
AcDbEntity
  8
隠れ線
 48
0.45
370
    13
100
AcDbLine
 10
609.1842995213924
 20
-1618.137191024087
 30
0.0
 11
609.6768220121985
 21
-1617.448498369815
 31
0.0
  0
LINE
  5
23573
330
18
100
AcDbEntity
  8
0
  6
CENTER
 62
     1
 48
0.45
370
    13
100
AcDbLine
 10
479.6850354412504
 20
-1621.216032338584
 30
0.0
 11
479.6850354412504
 21
-1605.698185667673
 31
0.0
  0
LINE
  5
23574
330
18
100
AcDbEntity
  8
0
  6
CENTER
 62
     1
 48
0.45
370
    13
100
AcDbLine
 10
543.6850354412504
 20
-1621.174215719803
 30
0.0
 11
543.6850354412504
 21
-1605.589253188902
 31
0.0
  0
LINE
  5
23575
330
18
100
AcDbEntity
  8
0
  6
CENTER
 62
     1
 48
0.45
370
    13
100
AcDbLine
 10
607.6850354412504
 20
-1621.147768697023
 30
0.0
 11
607.6850354412504
 21
-1605.389816798705
 31
0.0
  0
DIMENSION
  5
23600
330
18
100
AcDbEntity
  8
文字
370
    13
100
AcDbDimension
  2
*D22
 10
425.324343464832
 20
-1527.239370024919
 30
0.0
 11
422.3243434648322
 21
-1494.739370024919
 31
0.0
 70
    32
 71
     5
 42
65.0
  3
まこ
100
AcDbAlignedDimension
 13
475.4367298973112
 23
-1462.239370024919
 33
0.0
 14
469.1542010216972
 24
-1527.239370024919
 34
0.0
 50
90.0
100
AcDbRotatedDimension
1001
ACAD
1000
DSTYLE
1002
{
1070
   271
1070
     6
1002
}
  0
DIMENSION
  5
23667
330
18
100
AcDbEntity
  8
文字
370
    13
100
AcDbDimension
  2
*D23
 10
425.324343464832
 20
-1454.739370024921
 30
0.0
 11
422.3243434648322
 21
-1437.21079859635
 31
0.0
 70
    32
  1
（<>）
 71
     5
 42
7.499999999998408
  3
まこ
100
AcDbAlignedDimension
 13
475.4367298973112
 23
-1462.239370024919
 33
0.0
 14
449.68197725197
 24
-1454.739370024921
 34
0.0
 50
90.0
100
AcDbRotatedDimension
1001
ACAD
1000
DSTYLE
1002
{
1070
   271
1070
     6
1002
}
  0
DIMENSION
  5
23675
330
18
100
AcDbEntity
  8
文字
370
    13
100
AcDbDimension
  2
*D24
 10
425.324343464832
 20
-1534.739370024919
 30
0.0
 11
422.3243434648322
 21
-1552.26794145349
 31
0.0
 70
    32
  1
（<>）
 71
     5
 42
7.5
  3
まこ
100
AcDbAlignedDimension
 13
475.4367298973112
 23
-1527.239370024919
 33
0.0
 14
449.6819774229624
 24
-1534.739370024919
 34
0.0
 50
90.0
100
AcDbRotatedDimension
1001
ACAD
1000
DSTYLE
1002
{
1070
   271
1070
     6
1002
}
  0
LINE
  5
236A9
330
18
100
AcDbEntity
  8
0
 62
     4
370
    13
100
AcDbLine
 10
425.324343464832
 20
-1454.753352710739
 30
0.0
 11
425.324343464832
 21
-1462.243478270688
 31
0.0
  0
LINE
  5
236AA
330
18
100
AcDbEntity
  8
0
 62
     4
370
    13
100
AcDbLine
 10
425.324343464832
 20
-1534.725387339099
 30
0.0
 11
425.324343464832
 21
-1527.235261779151
 31
0.0
  0
DIMENSION
  5
236AB
330
18
100
AcDbEntity
  8
文字
370
    13
100
AcDbDimension
  2
*D25
 10
415.0735706482009
 20
-1534.739370024919
 30
0.0
 11
412.0735706482012
 21
-1494.739370024919
 31
0.0
 70
    32
 71
     5
 42
80.00000000000023
  3
まこ
100
AcDbAlignedDimension
 13
449.6819774229626
 23
-1454.739370024919
 33
0.0
 14
449.6819774229624
 24
-1534.739370024919
 34
0.0
 50
90.0
100
AcDbRotatedDimension
1001
ACAD
1000
DSTYLE
1002
{
1070
   271
1070
     6
1002
}
  0
DIMENSION
  5
2372B
330
18
100
AcDbEntity
  8
文字
370
    13
100
AcDbDimension
  2
*D26
 10
479.6819774229627
 20
-1565.30614296678
 30
0.0
 11
464.6835064321065
 21
-1565.30614296678
 31
0.0
 70
   160
 71
     5
 42
30.00000000000017
  3
まこ
100
AcDbAlignedDimension
 13
449.6819774229625
 23
-1534.725387339099
 33
0.0
 14
479.6819774229627
 24
-1530.909583215827
 34
0.0
100
AcDbRotatedDimension
1001
ACAD
1000
DSTYLE
1002
{
1070
   271
1070
     6
1002
}
  0
DIMENSION
  5
23770
330
18
100
AcDbEntity
  8
文字
370
    13
100
AcDbDimension
  2
*D27
 10
607.6819774229626
 20
-1565.30614296678
 30
0.0
 11
543.6819774229626
 21
-1562.30614296678
 31
0.0
 70
    32
  1
2xP64=<>
 71
     5
 42
127.9999999999999
  3
まこ
100
AcDbAlignedDimension
 13
479.6819774229627
 23
-1530.909583215827
 33
0.0
 14
607.6819774229626
 24
-1530.841319574265
 34
0.0
100
AcDbRotatedDimension
1001
ACAD
1000
DSTYLE
1002
{
1070
   271
1070
     6
1002
}
  0
DIMENSION
  5
2377D
330
18
100
AcDbEntity
  8
文字
370
    13
100
AcDbDimension
  2
*D28
 10
637.6819774229625
 20
-1565.30614296678
 30
0.0
 11
622.6819774229625
 21
-1562.30614296678
 31
0.0
 70
    32
  1
（<>）
 71
     5
 42
29.99999999999988
  3
まこ
100
AcDbAlignedDimension
 13
607.6819774229626
 23
-1530.841319574265
 33
0.0
 14
637.6819774229625
 24
-1534.7253873391
 34
0.0
100
AcDbRotatedDimension
1001
ACAD
1000
DSTYLE
1002
{
1070
   271
1070
     6
1002
}
  0
DIMENSION
  5
23793
330
18
100
AcDbEntity
  8
文字
370
    13
100
AcDbDimension
  2
*D29
 10
637.6819774229625
 20
-1575.941904950195
 30
0.0
 11
543.6819774229625
 21
-1572.941904950194
 31
0.0
 70
    32
 71
     5
 42
188.0
  3
まこ
100
AcDbAlignedDimension
 13
449.6819774229625
 23
-1534.725387339099
 33
0.0
 14
637.6819774229625
 24
-1534.7253873391
 34
0.0
100
AcDbRotatedDimension
1001
ACAD
1000
DSTYLE
1002
{
1070
   271
1070
     8
1002
}
  0
DIMENSION
  5
237B6
330
18
100
AcDbEntity
  8
文字
370
    13
100
AcDbDimension
  2
*D30
 10
705.8761862019523
 20
-1575.941904950195
 30
0.0
 11
671.7790818124574
 21
-1572.941904950194
 31
0.0
 70
    32
  1
（200）
 71
     5
 42
68.19420877898983
  3
まこ
100
AcDbAlignedDimension
 13
637.6819774229625
 23
-1534.7253873391
 33
0.0
 14
705.8761862019523
 24
-1535.573589228104
 34
0.0
100
AcDbRotatedDimension
  0
LINE
  5
237D7
102
{ACAD_REACTORS
330
23A77
102
}
330
18
100
AcDbEntity
  8
0
  6
PHANTOM
 48
0.45
370
     5
100
AcDbLine
 10
819.8890330990705
 20
-1534.739413889174
 30
0.0
 11
819.8890330990705
 21
-1454.739413889174
 31
0.0
  0
LINE
  5
237D8
102
{ACAD_REACTORS
330
23A77
102
}
330
18
100
AcDbEntity
  8
0
  6
PHANTOM
 48
0.45
370
     5
100
AcDbLine
 10
827.6890330990706
 20
-1454.739413889174
 30
0.0
 11
827.6890330990706
 21
-1534.739413889174
 31
0.0
  0
LINE
  5
237D9
330
18
100
AcDbEntity
  8
0
 48
0.3
370
    50
100
AcDbLine
 10
774.1890243145444
 20
-1472.739370024509
 30
0.0
 11
774.1890243145444
 21
-1516.739370024509
 31
0.0
  0
LWPOLYLINE
  5
237DC
102
{ACAD_REACTORS
330
23A77
102
}
330
18
100
AcDbEntity
  8
0
  6
PHANTOM
 48
0.45
370
     5
100
AcDbPolyline
 90
        4
 70
     1
 43
0.0
 10
814.8890330990706
 20
-1469.764459066824
 10
819.8890330990705
 20
-1469.764459066824
 10
819.8890330990705
 20
-1519.739942749828
 10
814.8890330990706
 20
-1519.739942749828
  0
LINE
  5
237DD
330
18
100
AcDbEntity
  8
0
 48
0.3
370
    50
100
AcDbLine
 10
774.1890243145444
 20
-1516.739370024509
 30
0.0
 11
773.6890330990705
 21
-1516.739370024919
 31
0.0
  0
CIRCLE
  5
237E1
330
18
100
AcDbEntity
  8
0
  6
HIDDEN
 48
0.45
370
    13
100
AcDbCircle
 10
781.6886529084016
 20
-1524.751497063748
 30
0.0
 40
4.0
  0
LINE
  5
237E3
330
18
100
AcDbEntity
  8
0
  6
CENTER
 62
     1
 48
0.45
370
    13
100
AcDbLine
 10
837.5669142102132
 20
-1527.240070024919
 30
0.0
 11
810.6066087411377
 21
-1527.240070024919
 31
0.0
  0
MTEXT
  5
237E4
102
{ACAD_REACTORS
330
237E5
102
}
330
18
100
AcDbEntity
  8
文字
370
    13
100
AcDbMText
 10
816.236534086258
 20
-1577.491952718616
 30
0.0
 40
4.5
 41
0.0
 71
     7
 72
     1
  1
組合せマグネットベース\PＭＢＭＡシリーズ
  7
まこ
 73
     1
 44
1.0
  0
LEADER
  5
237E5
330
18
100
AcDbEntity
  8
文字
370
    13
100
AcDbLeader
  3
まこ
 73
     0
 74
     0
 75
     1
 40
13.37055837563451
 41
63.91370558375633
 76
     3
 10
824.7890330990706
 20
-1534.739413889174
 30
0.0
 10
808.27251170624
 20
-1578.12513617821
 30
0.0
 10
812.02251170624
 20
-1578.12513617821
 30
0.0
340
237E4
213
-3.464022380017922
223
0.1168165404051251
233
0.0
1001
ACAD
1000
DSTYLE
1002
{
1070
   147
1040
0.5
1070
    77
1070
     1
1002
}
  0
LINE
  5
237E9
102
{ACAD_REACTORS
330
23A77
102
}
330
18
100
AcDbEntity
  8
0
  6
PHANTOM
 48
0.45
370
     5
100
AcDbLine
 10
827.6890330990706
 20
-1534.739413889174
 30
0.0
 11
819.8890330990705
 21
-1534.739413889174
 31
0.0
  0
DIMENSION
  5
237EC
330
18
100
AcDbEntity
  8
文字
370
    13
100
AcDbDimension
  2
*D33
 10
813.6890330990706
 20
-1426.312748381246
 30
0.0
 11
793.6890330990705
 21
-1423.312748381246
 31
0.0
 70
    32
 71
     5
 42
40.00000000000011
  3
まこ
100
AcDbAlignedDimension
 13
773.6890330990704
 23
-1454.739413889174
 33
0.0
 14
813.6890330990706
 24
-1454.739413889174
 34
0.0
100
AcDbRotatedDimension
1001
ACAD
1000
DSTYLE
1002
{
1070
   271
1070
     6
1002
}
  0
DIMENSION
  5
237ED
330
18
100
AcDbEntity
  8
文字
370
    13
100
AcDbDimension
  2
*D31
 10
827.6890330990706
 20
-1405.728764645376
 30
0.0
 11
801.6890287068076
 21
-1405.728764645376
 31
0.0
 70
   160
  1
<>（取付寸法）
 71
     5
 42
54.0
  3
まこ
100
AcDbAlignedDimension
 13
773.6890330990705
 23
-1454.739413889174
 33
0.0
 14
827.6890330990706
 24
-1454.739413889174
 34
0.0
100
AcDbRotatedDimension
1001
ACAD
1000
DSTYLE
1002
{
1070
   271
1070
     6
1002
}
  0
LINE
  5
237EE
330
18
100
AcDbEntity
  8
0
 48
0.3
370
    50
100
AcDbLine
 10
773.6890243145445
 20
-1472.739370024919
 30
0.0
 11
774.1890243145444
 21
-1472.739370332606
 31
0.0
  0
CIRCLE
  5
237F2
330
18
100
AcDbEntity
  8
0
  6
HIDDEN
 48
0.45
370
    13
100
AcDbCircle
 10
781.6886529084016
 20
-1464.751497063748
 30
0.0
 40
4.0
  0
DIMENSION
  5
237F4
330
18
100
AcDbEntity
  8
文字
370
    13
100
AcDbDimension
  2
*D32
 10
814.8890330990706
 20
-1426.312748381246
 30
0.0
 11
789.351015711858
 21
-1414.463233027754
 31
0.0
 70
   160
 71
     5
 42
1.200000000000045
  3
まこ
100
AcDbAlignedDimension
 13
813.6890330990706
 23
-1454.739413889174
 33
0.0
 14
814.8890330990706
 24
-1469.764459066824
 34
0.0
100
AcDbRotatedDimension
1001
ACAD
1000
DSTYLE
1002
{
1070
   344
1005
153E2
1070
   342
1005
0
1070
   173
1070
     1
1070
   343
1005
1215D
1070
   271
1070
     6
1070
   279
1070
     2
1002
}
  0
DIMENSION
  5
237F5
330
18
100
AcDbEntity
  8
文字
370
    13
100
AcDbDimension
  2
*D35
 10
827.6890330990706
 20
-1426.312748381246
 30
0.0
 11
842.6281040900368
 21
-1429.493085097316
 31
0.0
 70
   160
 71
     5
 42
12.79999999999995
  3
まこ
100
AcDbAlignedDimension
 13
814.8890330990706
 23
-1469.764459066824
 33
0.0
 14
827.6890330990706
 24
-1454.739413889174
 34
0.0
100
AcDbRotatedDimension
1001
ACAD
1000
DSTYLE
1002
{
1070
   343
1005
153E2
1070
   342
1005
0
1070
   173
1070
     1
1070
   344
1005
1215D
1070
   271
1070
     6
1070
   279
1070
     1
1002
}
  0
LINE
  5
237F6
330
18
100
AcDbEntity
  8
0
  6
CENTER
 62
     1
 48
0.45
370
    13
100
AcDbLine
 10
837.5669142102132
 20
-1462.240070024919
 30
0.0
 11
810.648752864931
 21
-1462.240070024919
 31
0.0
  0
LINE
  5
237F7
330
18
100
AcDbEntity
  8
0
 62
     4
370
    13
100
AcDbLine
 10
813.6890330990706
 20
-1426.312748381246
 30
0.0
 11
814.6890330990705
 21
-1426.312748381246
 31
0.0
  0
TEXT
  5
237F8
330
18
100
AcDbEntity
  8
文字
370
    13
100
AcDbText
 10
794.4581404120325
 20
-1416.737619286261
 30
0.0
 40
4.5
  1
（ギャップ）
 41
0.6
  7
ｽﾀｲﾙ3
100
AcDbText
  0
LINE
  5
237FC
330
18
100
AcDbEntity
  8
0
 62
     4
370
    13
100
AcDbLine
 10
779.8929281172608
 20
-1417.985072857078
 30
0.0
 11
811.5973367628402
 21
-1417.985072857078
 31
0.0
  0
DIMENSION
  5
237FD
330
18
100
AcDbEntity
  8
文字
370
    13
100
AcDbDimension
  2
*D34
 10
827.6890330990706
 20
-1436.312748381246
 30
0.0
 11
840.6533188133561
 21
-1433.312748381246
 31
0.0
 70
    32
 71
     5
 42
7.799999999999954
  3
まこ
100
AcDbAlignedDimension
 13
819.8890330990705
 23
-1454.739413889174
 33
0.0
 14
827.6890330990706
 24
-1454.739413889174
 34
0.0
100
AcDbRotatedDimension
1001
ACAD
1000
DSTYLE
1002
{
1070
   271
1070
     6
1002
}
  0
LINE
  5
237FE
102
{ACAD_REACTORS
330
23A77
102
}
330
18
100
AcDbEntity
  8
0
  6
PHANTOM
 48
0.45
370
     5
100
AcDbLine
 10
819.8890330990705
 20
-1454.739413889174
 30
0.0
 11
827.6890330990706
 21
-1454.739413889174
 31
0.0
  0
LINE
  5
23801
330
18
100
AcDbEntity
  8
0
  6
CENTER
 62
     1
 48
0.45
370
    13
100
AcDbLine
 10
768.5574770034357
 20
-1494.739370024919
 30
0.0
 11
836.1437323389482
 21
-1494.739370024919
 31
0.0
  0
DIMENSION
  5
238A5
330
18
100
AcDbEntity
  8
文字
370
    13
100
AcDbDimension
  2
*D36
 10
749.158840634427
 20
-1472.739370024919
 30
0.0
 11
746.1588406344272
 21
-1463.739370024919
 31
0.0
 70
    32
  1
（<>）
 71
     5
 42
18.0
  3
まこ
100
AcDbAlignedDimension
 13
773.6890243145445
 23
-1454.739370024919
 33
0.0
 14
773.6890243145445
 24
-1472.739370024919
 34
0.0
 50
90.0
100
AcDbRotatedDimension
1001
ACAD
1000
DSTYLE
1002
{
1070
   271
1070
     8
1002
}
  0
DIMENSION
  5
238B2
330
18
100
AcDbEntity
  8
文字
370
    13
100
AcDbDimension
  2
*D37
 10
749.158840634427
 20
-1516.739370024919
 30
0.0
 11
746.1588406344272
 21
-1494.739370024919
 31
0.0
 70
    32
 71
     5
 42
44.0
  3
まこ
100
AcDbAlignedDimension
 13
773.6890243145445
 23
-1472.739370024919
 33
0.0
 14
773.6890243145445
 24
-1516.739370024919
 34
0.0
 50
90.0
100
AcDbRotatedDimension
1001
ACAD
1000
DSTYLE
1002
{
1070
   271
1070
     8
1070
   279
1070
     1
1002
}
  0
DIMENSION
  5
238BF
330
18
100
AcDbEntity
  8
文字
370
    13
100
AcDbDimension
  2
*D38
 10
749.158840634427
 20
-1534.739370024919
 30
0.0
 11
746.1588406344272
 21
-1525.739370024919
 31
0.0
 70
    32
  1
（<>）
 71
     5
 42
18.0
  3
まこ
100
AcDbAlignedDimension
 13
773.6890243145445
 23
-1516.739370024919
 33
0.0
 14
773.6890330990705
 24
-1534.739370024919
 34
0.0
 50
90.0
100
AcDbRotatedDimension
1001
ACAD
1000
DSTYLE
1002
{
1070
   271
1070
     8
1070
   279
1070
     1
1002
}
  0
DIMENSION
  5
238E7
330
18
100
AcDbEntity
  8
文字
370
    13
100
AcDbDimension
  2
*D39
 10
774.1890243145444
 20
-1485.814866269387
 30
0.0
 11
759.1984050277956
 21
-1485.814866269387
 31
0.0
 70
   160
 71
     5
 42
0.4999999999998864
  3
まこ
100
AcDbAlignedDimension
 13
773.6890243145445
 23
-1472.750615167226
 33
0.0
 14
774.1890243145444
 24
-1472.739370024509
 34
0.0
100
AcDbRotatedDimension
1001
ACAD
1000
DSTYLE
1002
{
1070
   271
1070
     6
1002
}
  0
LINE
  5
2390B
330
18
100
AcDbEntity
  8
0
 62
     4
370
    13
100
AcDbLine
 10
773.6890243145445
 20
-1485.814866269387
 30
0.0
 11
774.1898647557653
 21
-1485.814866269387
 31
0.0
  0
LINE
  5
23A75
330
18
100
AcDbEntity
  8
0
  6
CENTER
 62
     1
 48
0.45
370
    13
100
AcDbLine
 10
770.0093880158273
 20
-1462.263396574994
 30
0.0
 11
791.9854399209051
 21
-1462.263396574994
 31
0.0
  0
LINE
  5
23A76
330
18
100
AcDbEntity
  8
0
  6
CENTER
 62
     1
 48
0.45
370
    13
100
AcDbLine
 10
770.0093880158273
 20
-1527.235261779151
 30
0.0
 11
786.8700828852378
 21
-1527.235261779151
 31
0.0
  0
LEADER
  5
23A8C
330
18
100
AcDbEntity
  8
文字
370
    13
100
AcDbLeader
  3
まこ
 73
     0
 75
     1
 40
5.390862944162436
 41
52.05837563451776
 76
     3
 10
605.7359621022119
 20
-1460.677875153979
 30
0.0
 10
587.0521733234563
 20
-1439.475842180718
 30
0.0
 10
583.3021733234564
 20
-1439.475842180718
 30
0.0
340
23A8D
213
-1.362317807982549
223
-1.044910310990644
233
0.0
1001
ACAD
1000
DSTYLE
1002
{
1070
   147
1040
0.5
1070
    77
1070
     1
1002
}
  0
MTEXT
  5
23A8D
102
{ACAD_REACTORS
330
23A8C
102
}
330
18
100
AcDbEntity
  8
文字
370
    13
100
AcDbMText
 10
583.9144911314389
 20
-1434.985500397647
 30
0.0
 40
4.5
 41
0.0
 71
     6
 72
     1
  1
\A1;取付穴6-M5ネジ深10
  7
まこ
 73
     1
 44
1.0
  0
LINE
  5
23BB6
102
{ACAD_REACTORS
330
23CC2
102
}
330
18
100
AcDbEntity
  8
0
  6
PHANTOM
 48
0.45
370
     5
100
AcDbLine
 10
334.7784047224868
 20
-1534.739413889174
 30
0.0
 11
334.7784047224868
 21
-1454.739413889174
 31
0.0
  0
LINE
  5
23BB7
102
{ACAD_REACTORS
330
23CC2
102
}
330
18
100
AcDbEntity
  8
0
  6
PHANTOM
 48
0.45
370
     5
100
AcDbLine
 10
326.978404722487
 20
-1454.739413889174
 30
0.0
 11
326.978404722487
 21
-1534.739413889174
 31
0.0
  0
LWPOLYLINE
  5
23BB8
102
{ACAD_REACTORS
330
23CC2
102
}
330
18
100
AcDbEntity
  8
0
  6
PHANTOM
 48
0.45
370
     5
100
AcDbPolyline
 90
        4
 70
     1
 43
0.0
 10
339.778404722487
 20
-1469.764459066824
 10
334.7784047224868
 20
-1469.764459066824
 10
334.7784047224868
 20
-1519.739942749827
 10
339.778404722487
 20
-1519.739942749827
  0
LINE
  5
23BBA
330
18
100
AcDbEntity
  8
0
 48
0.3
370
    50
100
AcDbLine
 10
380.478404722487
 20
-1472.739370024919
 30
0.0
 11
380.478404722487
 21
-1516.739370024919
 31
0.0
  0
LWPOLYLINE
  5
23BBB
330
18
100
AcDbEntity
  8
0
  6
HIDDEN
 48
0.45
370
    13
100
AcDbPolyline
 90
        4
 70
     1
 43
0.0
 10
366.9784135070131
 20
-1458.767370024919
 10
378.9784135070131
 20
-1458.767370024919
 10
378.9784135070131
 20
-1530.767370024919
 10
366.9784135070131
 20
-1530.767370024919
  0
LINE
  5
23BBF
330
18
100
AcDbEntity
  8
0
  6
CENTER
 62
     1
 48
0.45
370
    13
100
AcDbLine
 10
385.3946506046655
 20
-1494.739370024919
 30
0.0
 11
323.2261250103592
 21
-1494.739370024919
 31
0.0
  0
CIRCLE
  5
23BC1
330
18
100
AcDbEntity
  8
0
  6
HIDDEN
 48
0.45
370
    13
100
AcDbCircle
 10
372.9787849131557
 20
-1524.751497063747
 30
0.0
 40
4.0
  0
LINE
  5
23BC6
330
18
100
AcDbEntity
  8
0
  6
CENTER
 62
     1
 48
0.45
370
    13
100
AcDbLine
 10
384.6580498057301
 20
-1527.23526177915
 30
0.0
 11
361.9482515109375
 21
-1527.23526177915
 31
0.0
  0
LINE
  5
23BC7
330
18
100
AcDbEntity
  8
0
 48
0.3
370
    50
100
AcDbLine
 10
380.478404722487
 20
-1516.739370024919
 30
0.0
 11
380.9784135070131
 21
-1516.739370024919
 31
0.0
  0
LINE
  5
23BD1
330
18
100
AcDbEntity
  8
0
  6
CENTER
 62
     1
 48
0.45
370
    13
100
AcDbLine
 10
317.1005236113442
 20
-1527.240070024919
 30
0.0
 11
344.0608290804198
 21
-1527.240070024919
 31
0.0
  0
LINE
  5
23BD2
102
{ACAD_REACTORS
330
23CC2
102
}
330
18
100
AcDbEntity
  8
0
  6
PHANTOM
 48
0.45
370
     5
100
AcDbLine
 10
326.978404722487
 20
-1534.739413889174
 30
0.0
 11
334.7784047224868
 21
-1534.739413889174
 31
0.0
  0
CIRCLE
  5
23BDC
330
18
100
AcDbEntity
  8
0
  6
HIDDEN
 48
0.45
370
    13
100
AcDbCircle
 10
372.9787849131557
 20
-1464.751497063748
 30
0.0
 40
4.0
  0
LINE
  5
23BE2
330
18
100
AcDbEntity
  8
0
  6
CENTER
 62
     1
 48
0.45
370
    13
100
AcDbLine
 10
384.6580498057301
 20
-1462.263396574994
 30
0.0
 11
362.6819979006522
 21
-1462.263396574994
 31
0.0
  0
LINE
  5
23BE4
330
18
100
AcDbEntity
  8
0
 48
0.3
370
    50
100
AcDbLine
 10
380.9784047224871
 20
-1472.739370024919
 30
0.0
 11
380.4784047224871
 21
-1472.739370024919
 31
0.0
  0
LINE
  5
23BEE
330
18
100
AcDbEntity
  8
0
  6
CENTER
 62
     1
 48
0.45
370
    13
100
AcDbLine
 10
317.1005236113442
 20
-1462.240070024919
 30
0.0
 11
344.0186849566266
 21
-1462.240070024919
 31
0.0
  0
LINE
  5
23BF2
102
{ACAD_REACTORS
330
23CC2
102
}
330
18
100
AcDbEntity
  8
0
  6
PHANTOM
 48
0.45
370
     5
100
AcDbLine
 10
334.7784047224868
 20
-1454.739413889174
 30
0.0
 11
326.978404722487
 21
-1454.739413889174
 31
0.0
  0
LINE
  5
23D27
330
18
100
AcDbEntity
  8
0
 48
0.3
370
    50
100
AcDbLine
 10
380.978404722487
 20
-1454.739370024919
 30
0.0
 11
340.978404722487
 21
-1454.739370024919
 31
0.0
  0
LINE
  5
23D28
330
18
100
AcDbEntity
  8
0
 48
0.3
370
    50
100
AcDbLine
 10
340.978404722487
 20
-1454.739413889174
 30
0.0
 11
340.978404722487
 21
-1534.739370024919
 31
0.0
  0
LINE
  5
23D29
330
18
100
AcDbEntity
  8
0
 48
0.3
370
    50
100
AcDbLine
 10
340.978404722487
 20
-1534.739370024919
 30
0.0
 11
380.978404722487
 21
-1534.739370024919
 31
0.0
  0
LEADER
  5
23D2F
330
18
100
AcDbEntity
  8
文字
370
    13
100
AcDbLeader
  3
まこ
 73
     0
 75
     1
 40
5.368020304568527
 41
11.28426395939086
 76
     3
 10
345.9784047224871
 20
-1494.739370024919
 30
0.0
 10
322.6106882405222
 20
-1479.730961365238
 30
0.0
 10
318.8606882405222
 20
-1479.730961365238
 30
0.0
340
23D30
213
-2.518882052669795
223
-0.1235070673301379
233
0.0
1001
ACAD
1000
DSTYLE
1002
{
1070
   147
1040
0.5
1070
    77
1070
     1
1002
}
  0
MTEXT
  5
23D30
102
{ACAD_REACTORS
330
23D2F
102
}
330
18
100
AcDbEntity
  8
文字
370
    13
100
AcDbMText
 10
320.629570293192
 20
-1476.173444145624
 30
0.0
 40
4.5
 41
0.0
 71
     6
 72
     1
  1
\A1;銘板
  7
まこ
 73
     1
 44
1.0
  0
LEADER
  5
23D31
330
18
100
AcDbEntity
  8
文字
370
    13
100
AcDbLeader
  3
まこ
 73
     0
 75
     1
 40
5.253807106598983
 41
16.74365482233502
 76
     3
 10
346.978404722487
 20
-1524.739409271226
 30
0.0
 10
323.6385712408648
 20
-1508.257125423554
 30
0.0
 10
319.8885712408648
 20
-1508.257125423554
 30
0.0
340
23D32
213
-1.714865502134898
223
-0.229764422735343
233
0.0
1001
ACAD
1000
DSTYLE
1002
{
1070
   147
1040
0.5
1070
    77
1070
     1
1002
}
  0
MTEXT
  5
23D32
102
{ACAD_REACTORS
330
23D31
102
}
330
18
100
AcDbEntity
  8
文字
370
    13
100
AcDbMText
 10
320.8534367429997
 20
-1504.650457447519
 30
0.0
 40
4.5
 41
0.0
 71
     6
 72
     1
  1
\A1;合格証
  7
まこ
 73
     1
 44
1.0
  0
LINE
  5
23D61
330
18
100
AcDbEntity
  8
0
 48
0.3
370
    50
100
AcDbLine
 10
773.6890330990705
 20
-1454.739370024919
 30
0.0
 11
813.6890330990706
 21
-1454.739370024919
 31
0.0
  0
LINE
  5
23D62
330
18
100
AcDbEntity
  8
0
 48
0.3
370
    50
100
AcDbLine
 10
813.6890330990704
 20
-1454.739370024919
 30
0.0
 11
813.6890330990706
 21
-1534.739370024919
 31
0.0
  0
LINE
  5
23D63
330
18
100
AcDbEntity
  8
0
 48
0.3
370
    50
100
AcDbLine
 10
813.6890330990706
 20
-1534.739370024919
 30
0.0
 11
773.6890330990705
 21
-1534.739370024919
 31
0.0
  0
LINE
  5
23D65
102
{ACAD_REACTORS
330
25724
102
}
330
18
100
AcDbEntity
  8
0
  6
CENTER
 62
     1
 48
0.3
370
    13
100
AcDbLine
 10
793.6890330990705
 20
-1523.699797618947
 30
0.0
 11
793.6890330990705
 21
-1533.179074695234
 31
0.0
  0
LINE
  5
23D66
102
{ACAD_REACTORS
330
25724
102
}
330
18
100
AcDbEntity
  8
0
  6
CENTER
 62
     1
 48
0.3
370
    13
100
AcDbLine
 10
798.3167529711083
 20
-1528.739370024919
 30
0.0
 11
788.1846911705929
 21
-1528.739370024919
 31
0.0
  0
CIRCLE
  5
23D87
102
{ACAD_REACTORS
330
25724
102
}
330
18
100
AcDbEntity
  8
実線
370
    50
100
AcDbCircle
 10
793.6890330990705
 20
-1528.612964521587
 30
0.0
 40
3.74
  0
LINE
  5
23D88
102
{ACAD_REACTORS
330
25724
102
}
330
18
100
AcDbEntity
  8
細線
100
AcDbLine
 10
793.6890330990705
 20
-1527.855486548436
 30
0.0
 11
795.9276127365925
 21
-1525.616906910914
 31
0.0
  0
LINE
  5
23D89
102
{ACAD_REACTORS
330
25724
102
}
330
18
100
AcDbEntity
  8
細線
100
AcDbLine
 10
793.6890330990705
 20
-1528.739370024919
 30
0.0
 11
796.3960598638248
 21
-1526.032343260165
 31
0.0
  0
LINE
  5
23D8A
102
{ACAD_REACTORS
330
25724
102
}
330
18
100
AcDbEntity
  8
細線
100
AcDbLine
 10
794.5729165755539
 20
-1528.739370024919
 30
0.0
 11
796.7900645365004
 21
-1526.522222063973
 31
0.0
  0
LINE
  5
23D8B
102
{ACAD_REACTORS
330
25724
102
}
330
18
100
AcDbEntity
  8
細線
100
AcDbLine
 10
793.6890330990705
 20
-1526.971603071953
 30
0.0
 11
795.3823697067137
 21
-1525.278266464309
 31
0.0
  0
LINE
  5
23D8C
102
{ACAD_REACTORS
330
25724
102
}
330
18
100
AcDbEntity
  8
細線
100
AcDbLine
 10
795.4568000520374
 20
-1528.739370024919
 30
0.0
 11
797.105294832616
 21
-1527.090875244339
 31
0.0
  0
LINE
  5
23D8D
102
{ACAD_REACTORS
330
25724
102
}
330
18
100
AcDbEntity
  8
細線
100
AcDbLine
 10
792.1669438218233
 20
-1532.029226255133
 30
0.0
 11
793.6890330990705
 21
-1530.507136977886
 31
0.0
  0
LINE
  5
23D8E
102
{ACAD_REACTORS
330
25724
102
}
330
18
100
AcDbEntity
  8
細線
100
AcDbLine
 10
791.5982906414563
 20
-1531.713995959017
 30
0.0
 11
793.6890330990705
 21
-1529.623253501403
 31
0.0
  0
LINE
  5
23D8F
102
{ACAD_REACTORS
330
25724
102
}
330
18
100
AcDbEntity
  8
細線
100
AcDbLine
 10
791.1084118376483
 20
-1531.319991286341
 30
0.0
 11
793.6890330990705
 21
-1528.739370024919
 31
0.0
  0
LINE
  5
23D90
102
{ACAD_REACTORS
330
25724
102
}
330
18
100
AcDbEntity
  8
細線
100
AcDbLine
 10
790.6929754883978
 20
-1530.85154415911
 30
0.0
 11
792.8051496225876
 21
-1528.739370024919
 31
0.0
  0
LINE
  5
23D91
102
{ACAD_REACTORS
330
25724
102
}
330
18
100
AcDbEntity
  8
細線
100
AcDbLine
 10
790.3543350417923
 20
-1530.306301129231
 30
0.0
 11
791.9212661461046
 21
-1528.739370024918
 31
0.0
  0
LINE
  5
23DA0
102
{ACAD_REACTORS
330
25724
102
}
330
18
100
AcDbEntity
  8
細線
100
AcDbLine
 10
796.340683528521
 20
-1528.739370024919
 30
0.0
 11
797.328483538817
 21
-1527.751570014623
 31
0.0
  0
LINE
  5
23DA2
102
{ACAD_REACTORS
330
25724
102
}
330
18
100
AcDbEntity
  8
細線
100
AcDbLine
 10
793.6890330990705
 20
-1526.087719595469
 30
0.0
 11
794.7501112440452
 21
-1525.026641450494
 31
0.0
  0
LINE
  5
23DA4
102
{ACAD_REACTORS
330
25724
102
}
330
18
100
AcDbEntity
  8
細線
100
AcDbLine
 10
792.8276385921059
 20
-1532.252414961334
 30
0.0
 11
793.6890330990705
 21
-1531.391020454369
 31
0.0
  0
LEADER
  5
23DA9
330
18
100
AcDbEntity
  8
0
370
    13
100
AcDbLeader
  3
まこ
 73
     0
 75
     1
 40
5.459390862944161
 41
34.19543147208122
 76
     3
 10
793.9453982104563
 20
-1532.607705163844
 30
0.0
 10
801.3524317195784
 20
-1578.615629090785
 30
0.0
 10
797.6024317195784
 20
-1578.615629090785
 30
0.0
340
23DAA
213
-0.4840735498709137
223
-0.3290817182380579
233
0.0
1001
ACAD
1000
DSTYLE
1002
{
1070
   147
1040
0.5
1070
    77
1070
     1
1002
}
  0
MTEXT
  5
23DAA
102
{ACAD_REACTORS
330
23DA9
102
}
330
18
100
AcDbEntity
  8
0
 62
     2
370
    13
100
AcDbMText
 10
797.3365052694492
 20
-1574.806851941074
 30
0.0
 40
4.5
 41
0.0
 71
     6
 72
     1
  1
\A1;ケーブル位置
  7
まこ
 73
     1
 44
1.0
  0
LINE
  5
24261
330
18
100
AcDbEntity
  8
隠れ線
 48
0.45
370
    13
100
AcDbLine
 10
464.7041604427403
 20
-1609.439905896676
 30
0.0
 11
622.7041998229626
 21
-1609.439905896676
 31
0.0
  0
LINE
  5
24262
330
18
100
AcDbEntity
  8
隠れ線
 48
0.45
370
    13
100
AcDbLine
 10
464.7041604427403
 20
-1618.948498369815
 30
0.0
 11
622.7041998229626
 21
-1618.948498369815
 31
0.0
  0
CIRCLE
  5
24270
330
18
100
AcDbEntity
  8
0
  6
HIDDEN
 48
0.45
370
    13
100
AcDbCircle
 10
490.3450354412504
 20
-1614.948498369815
 30
0.0
 40
6.0
  0
CIRCLE
  5
24276
330
18
100
AcDbEntity
  8
0
  6
HIDDEN
 48
0.45
370
    13
100
AcDbCircle
 10
525.9050354412504
 20
-1614.948498369815
 30
0.0
 40
6.0
  0
CIRCLE
  5
2427A
330
18
100
AcDbEntity
  8
0
  6
HIDDEN
 48
0.45
370
    13
100
AcDbCircle
 10
561.4650354412503
 20
-1614.948498369815
 30
0.0
 40
6.0
  0
CIRCLE
  5
2427E
330
18
100
AcDbEntity
  8
0
  6
HIDDEN
 48
0.45
370
    13
100
AcDbCircle
 10
597.0250354412503
 20
-1614.948498369815
 30
0.0
 40
6.0
  0
LINE
  5
24C8D
330
18
100
AcDbEntity
  8
0
 62
     4
370
    13
100
AcDbLine
 10
819.8890330990705
 20
-1436.312748381246
 30
0.0
 11
829.6890330990706
 21
-1436.312748381246
 31
0.0
  0
LINE
  5
24CB8
330
18
100
AcDbEntity
  8
0
 62
     4
370
    13
100
AcDbLine
 10
814.1890330990705
 20
-1426.312748381246
 30
0.0
 11
811.5973367628402
 21
-1417.985072857078
 31
0.0
  0
LINE
  5
24CE1
330
18
100
AcDbEntity
  8
0
  6
HIDDEN
 48
0.45
370
    13
100
AcDbLine
 10
787.6890243145445
 20
-1530.767370024919
 30
0.0
 11
787.6890243145445
 21
-1458.767370024919
 31
0.0
  0
LINE
  5
24CE2
330
18
100
AcDbEntity
  8
0
  6
HIDDEN
 48
0.45
370
    13
100
AcDbLine
 10
787.6890243145445
 20
-1458.767370024919
 30
0.0
 11
775.6890243145445
 21
-1458.767370024919
 31
0.0
  0
LINE
  5
24CE3
330
18
100
AcDbEntity
  8
0
  6
HIDDEN
 48
0.45
370
    13
100
AcDbLine
 10
775.6890243145445
 20
-1458.767370024919
 30
0.0
 11
775.6890243145445
 21
-1530.767370024919
 31
0.0
  0
LINE
  5
24CE4
330
18
100
AcDbEntity
  8
0
  6
HIDDEN
 48
0.45
370
    13
100
AcDbLine
 10
775.6890243145445
 20
-1530.767370024919
 30
0.0
 11
787.6890243145445
 21
-1530.767370024919
 31
0.0
  0
LINE
  5
24CE8
330
18
100
AcDbEntity
  8
0
  6
CENTER
 62
     1
 48
0.45
370
    13
100
AcDbLine
 10
781.689349408867
 20
-1489.406573142789
 30
0.0
 11
781.6890330990704
 21
-1531.470477058845
 31
0.0
  0
LINE
  5
24CE9
330
18
100
AcDbEntity
  8
0
  6
CENTER
 62
     1
 48
0.45
370
    13
100
AcDbLine
 10
775.6890243145445
 20
-1517.739370024919
 30
0.0
 11
787.6890243145445
 21
-1517.739370024919
 31
0.0
  0
LINE
  5
24CEA
330
18
100
AcDbEntity
  8
0
  6
CENTER
 62
     1
 48
0.45
370
    13
100
AcDbLine
 10
775.6893247409887
 20
-1493.739370024919
 30
0.0
 11
787.6893247409888
 21
-1493.739370024919
 31
0.0
  0
CIRCLE
  5
24CEB
102
{ACAD_REACTORS
330
24CED
102
}
330
18
100
AcDbEntity
  8
0
370
     9
100
AcDbCircle
 10
781.6893247409888
 20
-1493.739370024919
 30
0.0
 40
2.0
  0
CIRCLE
  5
24CEC
102
{ACAD_REACTORS
330
24CED
102
}
330
18
100
AcDbEntity
  8
0
370
    20
100
AcDbCircle
 10
781.6893247409888
 20
-1493.739370024919
 30
0.0
 40
1.6
  0
CIRCLE
  5
24CEE
102
{ACAD_REACTORS
330
24CF0
102
}
330
18
100
AcDbEntity
  8
0
370
    20
100
AcDbCircle
 10
781.6890243145445
 20
-1517.739370024919
 30
0.0
 40
1.6
  0
CIRCLE
  5
24CEF
102
{ACAD_REACTORS
330
24CF0
102
}
330
18
100
AcDbEntity
  8
0
370
     9
100
AcDbCircle
 10
781.6890243145445
 20
-1517.739370024919
 30
0.0
 40
2.0
  0
DIMENSION
  5
24CF1
330
18
100
AcDbEntity
  8
0
370
    13
100
AcDbDimension
  2
*D40
 10
758.9016327503124
 20
-1517.739370024919
 30
0.0
 11
758.9016327503125
 21
-1526.239387339099
 31
0.0
 70
   160
 71
     5
 42
16.99999999999977
  3
まこ
100
AcDbAlignedDimension
 13
773.6890330990705
 23
-1534.739370024919
 33
0.0
 14
775.6890243145445
 24
-1517.739370024919
 34
0.0
 50
90.0
100
AcDbRotatedDimension
1001
ACAD
1000
DSTYLE
1002
{
1070
   271
1070
     6
1002
}
  0
DIMENSION
  5
24D12
330
18
100
AcDbEntity
  8
0
370
    13
100
AcDbDimension
  2
*D41
 10
758.9016327503123
 20
-1493.739370024919
 30
0.0
 11
755.9016327503124
 21
-1505.739370024919
 31
0.0
 70
    32
 71
     5
 42
23.99999999999977
  3
まこ
100
AcDbAlignedDimension
 13
775.6890243145445
 23
-1517.739370024919
 33
0.0
 14
775.6890243145445
 24
-1493.739370024919
 34
0.0
 50
90.0
100
AcDbRotatedDimension
1001
ACAD
1000
DSTYLE
1002
{
1070
   271
1070
     6
1070
   279
1070
     1
1002
}
  0
DIMENSION
  5
24D28
330
18
100
AcDbEntity
  8
0
370
    13
100
AcDbDimension
  2
*D42
 10
781.6890330990704
 20
-1563.602456197332
 30
0.0
 11
777.6890330990704
 21
-1560.602456197332
 31
0.0
 70
    32
 71
     5
 42
7.999999999999886
  3
まこ
100
AcDbAlignedDimension
 13
773.6890330990705
 23
-1534.739370024919
 33
0.0
 14
781.6890330990704
 24
-1531.470477058845
 34
0.0
100
AcDbRotatedDimension
1001
ACAD
1000
DSTYLE
1002
{
1070
   271
1070
     6
1002
}
  0
LINE
  5
24D41
330
18
100
AcDbEntity
  8
0
 62
     4
370
    13
100
AcDbLine
 10
773.6890243145445
 20
-1563.602456197332
 30
0.0
 11
781.688674399816
 21
-1563.602456197332
 31
0.0
  0
LEADER
  5
24D59
330
18
100
AcDbEntity
  8
0
370
    50
100
AcDbLeader
  3
まこ
 73
     0
 75
     1
 40
13.05076142131979
 41
55.21065989847715
 76
     3
 10
781.0730624724709
 20
-1519.216052458318
 30
0.0
 10
766.562587384031
 20
-1554.002888589655
 30
0.0
 10
762.8125873840311
 20
-1554.002888589655
 30
0.0
340
24D5A
213
3.000163450973559
223
-1.005116262412457
233
0.0
1001
ACAD
1000
DSTYLE
1002
{
1070
   147
1040
0.5
1070
    77
1070
     1
1002
}
  0
MTEXT
  5
24D5A
102
{ACAD_REACTORS
330
24D59
102
}
330
18
100
AcDbEntity
  8
0
370
    13
100
AcDbMText
 10
759.0624239330574
 20
-1552.247772327243
 30
0.0
 40
4.5
 41
0.0
 71
     9
 72
     1
  1
\A1;2-M4ネジ深10\Pｵﾌﾟｼｮﾝ磁極ｾﾝｻ取付用
  7
まこ
 73
     1
 44
1.0
  0
LINE
  5
24D67
330
18
100
AcDbEntity
  8
0
  6
CENTER
 62
     1
 48
0.45
370
    13
100
AcDbLine
 10
631.6820339373537
 20
-1517.767370024919
 30
0.0
 11
643.6820339373537
 21
-1517.767370024919
 31
0.0
  0
LINE
  5
24D68
330
18
100
AcDbEntity
  8
0
  6
CENTER
 62
     1
 48
0.45
370
    13
100
AcDbLine
 10
631.6820339373537
 20
-1493.767370024919
 30
0.0
 11
643.6820339373537
 21
-1493.767370024919
 31
0.0
  0
LINE
  5
24F23
330
18
100
AcDbEntity
  8
0
 48
0.3
370
    50
100
AcDbLine
 10
773.6890330990704
 20
-1454.739370024919
 30
0.0
 11
773.6890243145445
 21
-1472.739370024919
 31
0.0
  0
LINE
  5
24F3F
330
18
100
AcDbEntity
  8
0
 48
0.3
370
    50
100
AcDbLine
 10
773.6890330990705
 20
-1516.756159510973
 30
0.0
 11
773.6890330990704
 21
-1534.739370024919
 31
0.0
  0
LINE
  5
24F41
330
18
100
AcDbEntity
  8
0
 48
0.3
370
    50
100
AcDbLine
 10
773.6890330990705
 20
-1516.739370024919
 30
0.0
 11
773.6890330990705
 21
-1534.739370024919
 31
0.0
  0
LINE
  5
2506D
330
18
100
AcDbEntity
  8
0
 62
     4
370
    13
100
AcDbLine
 10
749.158840634427
 20
-1454.739370024919
 30
0.0
 11
749.158840634427
 21
-1472.739370024919
 31
0.0
  0
LINE
  5
25222
330
18
100
AcDbEntity
  8
0
 48
0.3
370
    50
100
AcDbLine
 10
380.978404722487
 20
-1454.739370024919
 30
0.0
 11
380.9784047224871
 21
-1472.739370024919
 31
0.0
  0
LINE
  5
25224
330
18
100
AcDbEntity
  8
0
 48
0.3
370
    50
100
AcDbLine
 10
380.9784135070131
 20
-1516.739370024919
 30
0.0
 11
380.978404722487
 21
-1534.739370024919
 31
0.0
  0
LINE
  5
254E6
330
18
100
AcDbEntity
  8
隠れ線
  6
HIDDEN
 48
0.45
370
     5
100
AcDbLine
 10
827.6890330990704
 20
-1459.240070024919
 30
0.0
 11
819.8890330990705
 21
-1459.240070024919
 31
0.0
  0
LINE
  5
254E7
330
18
100
AcDbEntity
  8
隠れ線
  6
HIDDEN
 48
0.45
370
     5
100
AcDbLine
 10
827.6890330990704
 20
-1465.240070024919
 30
0.0
 11
819.8890330990705
 21
-1465.240070024919
 31
0.0
  0
LINE
  5
254E8
330
18
100
AcDbEntity
  8
隠れ線
  6
HIDDEN
 48
0.45
370
     5
100
AcDbLine
 10
827.6890330990704
 20
-1524.240070024919
 30
0.0
 11
819.8890330990705
 21
-1524.240070024919
 31
0.0
  0
LINE
  5
254E9
330
18
100
AcDbEntity
  8
隠れ線
  6
HIDDEN
 48
0.45
370
     5
100
AcDbLine
 10
827.6890330990704
 20
-1530.240070024919
 30
0.0
 11
819.8890330990705
 21
-1530.240070024919
 31
0.0
  0
TEXT
  5
2552D
330
18
100
AcDbEntity
  8
文字
370
    13
100
AcDbText
 10
814.817330700529
 20
-1416.074714428996
 30
0.0
 40
4.5
  1
注：1
 41
0.6
  7
ｽﾀｲﾙ3
100
AcDbText
  0
TEXT
  5
25531
330
18
100
AcDbEntity
  8
文字
370
    13
100
AcDbText
 10
851.0482439704119
 20
-1421.848169396274
 30
0.0
 40
4.5
  1
注：1
 41
0.6
  7
ｽﾀｲﾙ3
100
AcDbText
  0
LINE
  5
2556E
330
18
100
AcDbEntity
  8
隠れ線
  6
HIDDEN
 48
0.45
370
     5
100
AcDbLine
 10
326.978404722487
 20
-1459.240070024919
 30
0.0
 11
334.7784047224868
 21
-1459.240070024919
 31
0.0
  0
LINE
  5
2556F
330
18
100
AcDbEntity
  8
隠れ線
  6
HIDDEN
 48
0.45
370
     5
100
AcDbLine
 10
326.978404722487
 20
-1465.240070024919
 30
0.0
 11
334.7784047224868
 21
-1465.240070024919
 31
0.0
  0
LINE
  5
25570
330
18
100
AcDbEntity
  8
隠れ線
  6
HIDDEN
 48
0.45
370
     5
100
AcDbLine
 10
326.978404722487
 20
-1524.240070024919
 30
0.0
 11
334.7784047224868
 21
-1524.240070024919
 31
0.0
  0
LINE
  5
25571
330
18
100
AcDbEntity
  8
隠れ線
  6
HIDDEN
 48
0.45
370
     5
100
AcDbLine
 10
326.978404722487
 20
-1530.240070024919
 30
0.0
 11
334.7784047224868
 21
-1530.240070024919
 31
0.0
  0
LINE
  5
25671
102
{ACAD_REACTORS
330
256A8
102
}
330
18
100
AcDbEntity
  8
0
  6
CENTER
 62
     1
 48
0.45
370
    13
100
AcDbLine
 10
633.5505522988508
 20
-1528.739366711337
 30
0.0
 11
701.7124621423294
 21
-1528.739366711337
 31
0.0
  0
LINE
  5
25673
102
{ACAD_REACTORS
330
256A8
102
}
330
18
100
AcDbEntity
  8
0
370
    50
100
AcDbLine
 10
657.6819798138798
 20
-1524.239366711337
 30
0.0
 11
657.6819798138798
 21
-1533.239366711337
 31
0.0
  0
LINE
  5
25674
102
{ACAD_REACTORS
330
256A8
102
}
330
18
100
AcDbEntity
  8
0
 48
10.0
370
    50
100
AcDbLine
 10
637.6819798138797
 20
-1524.239366711337
 30
0.0
 11
657.6819798138798
 21
-1524.239366711337
 31
0.0
  0
LINE
  5
25675
102
{ACAD_REACTORS
330
256A8
102
}
330
18
100
AcDbEntity
  8
0
 48
10.0
370
    50
100
AcDbLine
 10
657.6819798138798
 20
-1533.239366711337
 30
0.0
 11
637.6819798138797
 21
-1533.239366711337
 31
0.0
  0
LINE
  5
25676
102
{ACAD_REACTORS
330
256A8
102
}
330
18
100
AcDbEntity
  8
0
  6
CENTER
 62
     1
 48
0.45
370
    13
100
AcDbLine
 10
686.4862503657885
 20
-1515.518924822936
 30
0.0
 11
677.8925440490923
 21
-1543.052349799883
 31
0.0
  0
LINE
  5
25677
102
{ACAD_REACTORS
330
256A8
102
}
330
18
100
AcDbEntity
  8
0
  6
CENTER
 62
     1
 48
0.45
370
    13
100
AcDbLine
 10
691.1800731144106
 20
-1515.518924822936
 30
0.0
 11
682.5863667977145
 21
-1543.052349799883
 31
0.0
  0
LINE
  5
25679
102
{ACAD_REACTORS
330
256A8
102
}
330
18
100
AcDbEntity
  8
0
370
    50
100
AcDbLine
 10
721.8878776754085
 20
-1529.305555453841
 30
0.0
 11
712.8859995002378
 21
-1529.305555453841
 31
0.0
  0
LINE
  5
2567A
102
{ACAD_REACTORS
330
256A8
102
}
330
18
100
AcDbEntity
  8
0
370
    50
100
AcDbLine
 10
712.8859995002378
 20
-1528.293580327438
 30
0.0
 11
721.8878776754085
 21
-1528.293580327438
 31
0.0
  0
LINE
  5
2567B
102
{ACAD_REACTORS
330
256A8
102
}
330
18
100
AcDbEntity
  8
0
370
    50
100
AcDbLine
 10
711.8879888581417
 20
-1532.271752547761
 30
0.0
 11
719.4318256575662
 21
-1532.271752547761
 31
0.0
  0
LINE
  5
2567C
102
{ACAD_REACTORS
330
256A8
102
}
330
18
100
AcDbEntity
  8
0
370
    50
100
AcDbLine
 10
719.4318256575662
 20
-1525.291594531448
 30
0.0
 11
711.8879888581417
 21
-1525.291594531448
 31
0.0
  0
LINE
  5
2567D
102
{ACAD_REACTORS
330
256A8
102
}
330
18
100
AcDbEntity
  8
0
370
    50
100
AcDbLine
 10
706.8818933395674
 20
-1533.79456298124
 30
0.0
 11
719.8761885928696
 21
-1533.79456298124
 31
0.0
  0
LINE
  5
2567E
102
{ACAD_REACTORS
330
256A8
102
}
330
18
100
AcDbEntity
  8
0
370
    50
100
AcDbLine
 10
706.8818933395674
 20
-1523.797476467218
 30
0.0
 11
717.7318258077174
 21
-1523.797476467218
 31
0.0
  0
LWPOLYLINE
  5
2567F
102
{ACAD_REACTORS
330
256A8
102
}
330
18
100
AcDbEntity
  8
0
370
    50
100
AcDbPolyline
 90
        4
 70
     0
 43
0.0
 10
706.8818933395674
 20
-1534.797476467218
 10
705.8761885928696
 20
-1534.797476467218
 10
705.8761885928696
 20
-1522.797476467218
 10
706.8818933395674
 20
-1522.797476467218
  0
LWPOLYLINE
  5
25680
102
{ACAD_REACTORS
330
256A8
102
}
330
18
100
AcDbEntity
  8
0
370
    50
100
AcDbPolyline
 90
        4
 70
     1
 43
0.0
 10
700.8555192738993
 20
-1526.153684744256
 10
705.8761885928696
 20
-1526.153684744256
 10
705.8761885928696
 20
-1531.444947949302
 10
700.8555192738995
 20
-1531.444947949302
  0
LINE
  5
25681
102
{ACAD_REACTORS
330
256A8
102
}
330
18
100
AcDbEntity
  8
0
370
    50
100
AcDbLine
 10
700.8555192738993
 20
-1530.056164983319
 30
0.0
 11
705.8761885928696
 21
-1530.056164983319
 31
0.0
  0
LINE
  5
25682
102
{ACAD_REACTORS
330
256A8
102
}
330
18
100
AcDbEntity
  8
0
370
    50
100
AcDbLine
 10
700.8555192738993
 20
-1528.739366711337
 30
0.0
 11
705.866466327274
 21
-1528.739366711337
 31
0.0
  0
LINE
  5
25683
102
{ACAD_REACTORS
330
256A8
102
}
330
18
100
AcDbEntity
  8
0
370
    50
100
AcDbLine
 10
700.8555192738993
 20
-1527.467975930398
 30
0.0
 11
705.8761885928696
 21
-1527.467975930398
 31
0.0
  0
LINE
  5
25684
102
{ACAD_REACTORS
330
256A8
102
}
330
18
100
AcDbEntity
  8
0
370
    50
100
AcDbLine
 10
712.8859995002378
 20
-1529.305555453841
 30
0.0
 11
712.8859995002378
 21
-1532.271752547761
 31
0.0
  0
LINE
  5
25685
102
{ACAD_REACTORS
330
256A8
102
}
330
18
100
AcDbEntity
  8
0
370
    50
100
AcDbLine
 10
711.8879888581417
 20
-1525.291594531448
 30
0.0
 11
711.8879888581417
 21
-1532.271752547761
 31
0.0
  0
LINE
  5
25686
102
{ACAD_REACTORS
330
256A8
102
}
330
18
100
AcDbEntity
  8
0
370
    50
100
AcDbLine
 10
712.8859995002378
 20
-1525.291594531448
 30
0.0
 11
712.8859995002378
 21
-1528.293580327438
 31
0.0
  0
LINE
  5
25687
102
{ACAD_REACTORS
330
256A8
102
}
330
18
100
AcDbEntity
  8
0
370
    50
100
AcDbLine
 10
706.8818933395674
 20
-1534.797476467218
 30
0.0
 11
706.8818933395674
 21
-1533.79456298124
 31
0.0
  0
LINE
  5
25688
102
{ACAD_REACTORS
330
256A8
102
}
330
18
100
AcDbEntity
  8
0
370
    50
100
AcDbLine
 10
706.8818933395674
 20
-1522.797476467218
 30
0.0
 11
706.8818933395674
 21
-1523.797476467218
 31
0.0
  0
LINE
  5
25689
102
{ACAD_REACTORS
330
256A8
102
}
330
18
100
AcDbEntity
  8
0
370
    50
100
AcDbLine
 10
721.8878776754085
 20
-1530.326462587343
 30
0.0
 11
724.8910973113384
 21
-1530.326462587343
 31
0.0
  0
LINE
  5
2568A
102
{ACAD_REACTORS
330
256A8
102
}
330
18
100
AcDbEntity
  8
0
370
    50
100
AcDbLine
 10
724.8910973113384
 20
-1527.179670215928
 30
0.0
 11
721.8878776754085
 21
-1527.179670215928
 31
0.0
  0
LWPOLYLINE
  5
2568B
102
{ACAD_REACTORS
330
256A8
102
}
330
18
100
AcDbEntity
  8
0
370
    50
100
AcDbPolyline
 90
        5
 70
     0
 43
0.0
 10
724.8910973113384
 20
-1529.305555453841
 10
728.8761885928696
 20
-1529.305555453841
 10
728.8761885928696
 20
-1532.79456298124
 10
719.8761885928696
 20
-1532.79456298124
 10
719.8761885928696
 20
-1531.919799596216
  0
LWPOLYLINE
  5
2568C
102
{ACAD_REACTORS
330
256A8
102
}
330
18
100
AcDbEntity
  8
0
370
    50
100
AcDbPolyline
 90
        5
 70
     0
 43
0.0
 10
719.8761885928696
 20
-1525.633195949958
 10
719.8761885928696
 20
-1524.797476467218
 10
728.8761885928696
 20
-1524.797476467218
 10
728.8761885928696
 20
-1528.293580327438
 10
724.8910973113384
 20
-1528.293580327438
  0
LINE
  5
2568D
102
{ACAD_REACTORS
330
256A8
102
}
330
18
100
AcDbEntity
  8
0
370
    50
100
AcDbLine
 10
719.8761885928696
 20
-1523.797476467218
 30
0.0
 11
719.8761885928696
 21
-1525.633195949958
 31
0.0
  0
LWPOLYLINE
  5
2568E
102
{ACAD_REACTORS
330
256A8
102
}
330
18
100
AcDbEntity
  8
0
370
    50
100
AcDbPolyline
 90
        2
 70
     0
 43
0.0
 10
719.8761885928696
 20
-1529.305555453841
 10
721.8878776754085
 20
-1529.305555453841
  0
LWPOLYLINE
  5
2568F
102
{ACAD_REACTORS
330
256A8
102
}
330
18
100
AcDbEntity
  8
0
370
    50
100
AcDbPolyline
 90
        2
 70
     0
 43
0.0
 10
721.8878776754085
 20
-1528.293580327438
 10
719.8761885928696
 20
-1528.293580327438
  0
LINE
  5
25690
102
{ACAD_REACTORS
330
256A8
102
}
330
18
100
AcDbEntity
  8
0
370
    50
100
AcDbLine
 10
721.8878776754085
 20
-1527.179670215928
 30
0.0
 11
719.4318256575662
 21
-1525.291594531448
 31
0.0
  0
LINE
  5
25691
102
{ACAD_REACTORS
330
256A8
102
}
330
18
100
AcDbEntity
  8
0
370
    50
100
AcDbLine
 10
719.4318256575662
 20
-1532.271752547761
 30
0.0
 11
721.8878776754085
 21
-1530.326462587343
 31
0.0
  0
LINE
  5
25692
102
{ACAD_REACTORS
330
256A8
102
}
330
18
100
AcDbEntity
  8
0
370
    50
100
AcDbLine
 10
719.8761885928696
 20
-1531.919799596216
 30
0.0
 11
719.8761885928696
 21
-1533.79456298124
 31
0.0
  0
LINE
  5
25693
102
{ACAD_REACTORS
330
256A8
102
}
330
18
100
AcDbEntity
  8
0
370
    50
100
AcDbLine
 10
721.8878776754085
 20
-1528.293580327438
 30
0.0
 11
721.8878776754085
 21
-1529.305555453841
 31
0.0
  0
LINE
  5
25694
102
{ACAD_REACTORS
330
256A8
102
}
330
18
100
AcDbEntity
  8
0
370
    50
100
AcDbLine
 10
717.7318258077174
 20
-1523.797476467218
 30
0.0
 11
719.8761885928696
 21
-1523.797476467218
 31
0.0
  0
LINE
  5
25695
102
{ACAD_REACTORS
330
256A8
102
}
330
18
100
AcDbEntity
  8
0
370
    50
100
AcDbLine
 10
724.8910973113384
 20
-1530.326462587343
 30
0.0
 11
724.8910973113384
 21
-1527.179670215928
 31
0.0
  0
LINE
  5
2569F
102
{ACAD_REACTORS
330
256A8
102
}
330
18
100
AcDbEntity
  8
0
370
    50
100
AcDbLine
 10
681.1929764211803
 20
-1532.489366711337
 30
0.0
 11
657.6819798138798
 21
-1532.489366711337
 31
0.0
  0
LINE
  5
256A0
102
{ACAD_REACTORS
330
256A8
102
}
330
18
100
AcDbEntity
  8
0
370
    50
100
AcDbLine
 10
657.6819798138798
 20
-1532.478075585762
 30
0.0
 11
657.6819798138798
 21
-1525.000657836911
 31
0.0
  0
LINE
  5
256A1
102
{ACAD_REACTORS
330
256A8
102
}
330
18
100
AcDbEntity
  8
0
370
    50
100
AcDbLine
 10
657.6819798138798
 20
-1524.989366711337
 30
0.0
 11
683.5268209100036
 21
-1524.989366711337
 31
0.0
  0
LINE
  5
256A2
102
{ACAD_REACTORS
330
256A8
102
}
330
18
100
AcDbEntity
  8
0
370
    50
100
AcDbLine
 10
688.2206436586258
 20
-1524.989366711337
 30
0.0
 11
700.8555192738993
 21
-1524.989366711337
 31
0.0
  0
LINE
  5
256A3
102
{ACAD_REACTORS
330
256A8
102
}
330
18
100
AcDbEntity
  8
0
370
    50
100
AcDbLine
 10
700.8555192738993
 20
-1524.989366711337
 30
0.0
 11
700.8555192738995
 21
-1532.489366711337
 31
0.0
  0
LINE
  5
256A4
102
{ACAD_REACTORS
330
256A8
102
}
330
18
100
AcDbEntity
  8
0
370
    50
100
AcDbLine
 10
700.8555192738995
 20
-1532.489366711337
 30
0.0
 11
685.8867991698025
 21
-1532.489366711337
 31
0.0
  0
LINE
  5
256A7
102
{ACAD_REACTORS
330
256A8
102
}
330
18
100
AcDbEntity
  8
0
 48
10.0
370
    50
100
AcDbLine
 10
637.6819798138797
 20
-1524.239366711337
 30
0.0
 11
637.6819798138797
 21
-1533.239366711337
 31
0.0
  0
LINE
  5
256B9
102
{ACAD_REACTORS
330
25723
102
}
330
18
100
AcDbEntity
  8
0
 48
10.0
370
    50
100
AcDbLine
 10
637.6819798138797
 20
-1622.948498369815
 30
0.0
 11
657.6819798138798
 21
-1622.948498369815
 31
0.0
  0
LINE
  5
256BA
102
{ACAD_REACTORS
330
25723
102
}
330
18
100
AcDbEntity
  8
0
 48
10.0
370
    50
100
AcDbLine
 10
657.6819798138798
 20
-1631.948498369815
 30
0.0
 11
637.6819798138797
 21
-1631.948498369815
 31
0.0
  0
LINE
  5
256BB
102
{ACAD_REACTORS
330
25723
102
}
330
18
100
AcDbEntity
  8
0
  6
CENTER
 62
     1
 48
0.45
370
    13
100
AcDbLine
 10
633.5505522988508
 20
-1627.448498369815
 30
0.0
 11
701.7124621423294
 21
-1627.448498369815
 31
0.0
  0
LINE
  5
256BC
102
{ACAD_REACTORS
330
25723
102
}
330
18
100
AcDbEntity
  8
0
 48
10.0
370
    50
100
AcDbLine
 10
637.6819798138797
 20
-1622.948498369815
 30
0.0
 11
637.6819798138797
 21
-1631.948498369815
 31
0.0
  0
LINE
  5
256BD
102
{ACAD_REACTORS
330
25723
102
}
330
18
100
AcDbEntity
  8
0
370
    50
100
AcDbLine
 10
681.1929764211803
 20
-1631.198498369815
 30
0.0
 11
657.6819798138798
 21
-1631.198498369815
 31
0.0
  0
LINE
  5
256BE
102
{ACAD_REACTORS
330
25723
102
}
330
18
100
AcDbEntity
  8
0
370
    50
100
AcDbLine
 10
657.6819798138798
 20
-1623.698498369815
 30
0.0
 11
683.5268209100036
 21
-1623.698498369816
 31
0.0
  0
LINE
  5
256BF
102
{ACAD_REACTORS
330
25723
102
}
330
18
100
AcDbEntity
  8
0
  6
CENTER
 62
     1
 48
0.45
370
    13
100
AcDbLine
 10
686.4862503657885
 20
-1614.228056481415
 30
0.0
 11
677.8925440490923
 21
-1641.761481458362
 31
0.0
  0
LINE
  5
256C0
102
{ACAD_REACTORS
330
25723
102
}
330
18
100
AcDbEntity
  8
0
370
    50
100
AcDbLine
 10
657.6819798138798
 20
-1631.187207244241
 30
0.0
 11
657.6819798138798
 21
-1623.709789495389
 31
0.0
  0
LINE
  5
256C1
102
{ACAD_REACTORS
330
25723
102
}
330
18
100
AcDbEntity
  8
0
370
    50
100
AcDbLine
 10
657.6819798138798
 20
-1622.948498369815
 30
0.0
 11
657.6819798138798
 21
-1631.948498369815
 31
0.0
  0
LINE
  5
256C2
102
{ACAD_REACTORS
330
25723
102
}
330
18
100
AcDbEntity
  8
0
370
    50
100
AcDbLine
 10
700.8555192738995
 20
-1631.198498369815
 30
0.0
 11
685.8867991698025
 21
-1631.198498369815
 31
0.0
  0
LINE
  5
256C3
102
{ACAD_REACTORS
330
25723
102
}
330
18
100
AcDbEntity
  8
0
370
    50
100
AcDbLine
 10
688.2206436586258
 20
-1623.698498369815
 30
0.0
 11
700.8555192738993
 21
-1623.698498369815
 31
0.0
  0
LINE
  5
256C4
102
{ACAD_REACTORS
330
25723
102
}
330
18
100
AcDbEntity
  8
0
  6
CENTER
 62
     1
 48
0.45
370
    13
100
AcDbLine
 10
691.1800731144106
 20
-1614.228056481415
 30
0.0
 11
682.5863667977145
 21
-1641.761481458362
 31
0.0
  0
LWPOLYLINE
  5
256C5
102
{ACAD_REACTORS
330
25723
102
}
330
18
100
AcDbEntity
  8
0
370
    50
100
AcDbPolyline
 90
        4
 70
     1
 43
0.0
 10
700.8555192738993
 20
-1624.862816402734
 10
705.8761885928696
 20
-1624.862816402734
 10
705.8761885928696
 20
-1630.15407960778
 10
700.8555192738995
 20
-1630.15407960778
  0
LINE
  5
256C9
102
{ACAD_REACTORS
330
25723
102
}
330
18
100
AcDbEntity
  8
0
370
    50
100
AcDbLine
 10
700.8555192738993
 20
-1623.698498369815
 30
0.0
 11
700.8555192738995
 21
-1631.198498369815
 31
0.0
  0
LINE
  5
256CA
102
{ACAD_REACTORS
330
25723
102
}
330
18
100
AcDbEntity
  8
0
370
    50
100
AcDbLine
 10
700.8555192738993
 20
-1628.765296641798
 30
0.0
 11
705.8761885928696
 21
-1628.765296641798
 31
0.0
  0
LINE
  5
256CB
102
{ACAD_REACTORS
330
25723
102
}
330
18
100
AcDbEntity
  8
0
370
    50
100
AcDbLine
 10
700.8555192738993
 20
-1627.448498369815
 30
0.0
 11
705.866466327274
 21
-1627.448498369815
 31
0.0
  0
LINE
  5
256CC
102
{ACAD_REACTORS
330
25723
102
}
330
18
100
AcDbEntity
  8
0
370
    50
100
AcDbLine
 10
700.8555192738993
 20
-1626.177107588877
 30
0.0
 11
705.8761885928696
 21
-1626.177107588877
 31
0.0
  0
LINE
  5
25703
102
{ACAD_REACTORS
330
25723
102
}
330
18
100
AcDbEntity
  8
0
370
    50
100
AcDbLine
 10
711.8879888581417
 20
-1620.043066555413
 30
0.0
 11
717.9318258077174
 21
-1621.011582989504
 31
0.0
  0
LINE
  5
25704
102
{ACAD_REACTORS
330
25723
102
}
330
18
100
AcDbEntity
  8
0
370
    50
100
AcDbLine
 10
712.8859995002378
 20
-1618.527830429925
 30
0.0
 11
721.6878776754084
 21
-1618.527830429925
 31
0.0
  0
LINE
  5
25705
102
{ACAD_REACTORS
330
25723
102
}
330
18
100
AcDbEntity
  8
0
370
    50
100
AcDbLine
 10
712.8859995002378
 20
-1619.035649636406
 30
0.0
 11
723.8910973113384
 21
-1619.035649636406
 31
0.0
  0
LINE
  5
25706
102
{ACAD_REACTORS
330
25723
102
}
330
18
100
AcDbEntity
  8
0
370
    50
100
AcDbLine
 10
706.8818933395674
 20
-1632.503694639719
 30
0.0
 11
719.8761885928696
 21
-1632.503694639719
 31
0.0
  0
LINE
  5
25707
102
{ACAD_REACTORS
330
25723
102
}
330
18
100
AcDbEntity
  8
0
370
    50
100
AcDbLine
 10
706.8818933395674
 20
-1622.506608125697
 30
0.0
 11
717.7318258077174
 21
-1622.506608125697
 31
0.0
  0
LWPOLYLINE
  5
25708
102
{ACAD_REACTORS
330
25723
102
}
330
18
100
AcDbEntity
  8
0
370
    50
100
AcDbPolyline
 90
        4
 70
     0
 43
0.0
 10
706.8818933395674
 20
-1633.506608125697
 10
705.8761885928696
 20
-1633.506608125697
 10
705.8761885928696
 20
-1621.506608125697
 10
706.8818933395674
 20
-1621.506608125697
  0
LINE
  5
25709
102
{ACAD_REACTORS
330
25723
102
}
330
18
100
AcDbEntity
  8
0
370
    50
100
AcDbLine
 10
706.8818933395674
 20
-1633.506608125697
 30
0.0
 11
706.8818933395674
 21
-1632.503694639719
 31
0.0
  0
LINE
  5
2570A
102
{ACAD_REACTORS
330
25723
102
}
330
18
100
AcDbEntity
  8
0
370
    50
100
AcDbLine
 10
712.8859995002378
 20
-1618.527830429925
 30
0.0
 11
712.8859995002378
 21
-1619.035649636406
 31
0.0
  0
LINE
  5
2570B
102
{ACAD_REACTORS
330
25723
102
}
330
18
100
AcDbEntity
  8
0
370
    50
100
AcDbLine
 10
711.8879888581417
 20
-1618.527830429925
 30
0.0
 11
712.8859995002378
 21
-1618.527830429925
 31
0.0
  0
LINE
  5
2570C
102
{ACAD_REACTORS
330
25723
102
}
330
18
100
AcDbEntity
  8
0
370
    50
100
AcDbLine
 10
711.8879888581417
 20
-1618.527830429925
 30
0.0
 11
711.8879888581417
 21
-1620.043066555413
 31
0.0
  0
LINE
  5
2570D
102
{ACAD_REACTORS
330
25723
102
}
330
18
100
AcDbEntity
  8
0
370
    50
100
AcDbLine
 10
706.8818933395674
 20
-1621.506608125697
 30
0.0
 11
706.8818933395674
 21
-1622.506608125697
 31
0.0
  0
LINE
  5
2570E
102
{ACAD_REACTORS
330
25723
102
}
330
18
100
AcDbEntity
  8
0
370
    50
100
AcDbLine
 10
719.8761885928696
 20
-1622.506608125697
 30
0.0
 11
719.8761885928696
 21
-1632.503694639719
 31
0.0
  0
LWPOLYLINE
  5
2570F
102
{ACAD_REACTORS
330
25723
102
}
330
18
100
AcDbEntity
  8
0
370
    50
100
AcDbPolyline
 90
        4
 70
     1
 43
0.0
 10
719.8761885928696
 20
-1628.014687112319
 10
728.8761885928696
 20
-1628.014687112319
 10
728.8761885928696
 20
-1631.503694639719
 10
719.8761885928696
 20
-1631.503694639719
  0
LINE
  5
25710
102
{ACAD_REACTORS
330
25723
102
}
330
18
100
AcDbEntity
  8
0
370
    50
100
AcDbLine
 10
723.8910973113384
 20
-1621.506608125697
 30
0.0
 11
721.8878776754085
 21
-1621.506608125697
 31
0.0
  0
LWPOLYLINE
  5
25711
102
{ACAD_REACTORS
330
25723
102
}
330
18
100
AcDbEntity
  8
0
370
    50
100
AcDbPolyline
 90
        4
 70
     1
 43
0.0
 10
719.8761885928696
 20
-1623.506608125697
 10
728.8761885928696
 20
-1623.506608125697
 10
728.8761885928696
 20
-1627.002711985916
 10
719.8761885928696
 20
-1627.002711985916
  0
LINE
  5
25712
102
{ACAD_REACTORS
330
25723
102
}
330
18
100
AcDbEntity
  8
0
370
    50
100
AcDbLine
 10
719.4318256575662
 20
-1619.779063770398
 30
0.0
 11
721.8878776754085
 21
-1619.779063770398
 31
0.0
  0
LINE
  5
25713
102
{ACAD_REACTORS
330
25723
102
}
330
18
100
AcDbEntity
  8
0
370
    50
100
AcDbLine
 10
721.8878776754085
 20
-1621.011582989504
 30
0.0
 11
719.4318256575662
 21
-1621.011582989504
 31
0.0
  0
LINE
  5
25714
102
{ACAD_REACTORS
330
25723
102
}
330
18
100
AcDbEntity
  8
0
370
    50
100
AcDbLine
 10
719.4318256575662
 20
-1621.011582989504
 30
0.0
 11
719.4318256575662
 21
-1619.779063770398
 31
0.0
  0
LINE
  5
25715
102
{ACAD_REACTORS
330
25723
102
}
330
18
100
AcDbEntity
  8
0
370
    50
100
AcDbLine
 10
719.4318256575662
 20
-1622.306608125697
 30
0.0
 11
719.6318256575661
 21
-1622.506608125697
 31
0.0
  0
LINE
  5
25716
102
{ACAD_REACTORS
330
25723
102
}
330
18
100
AcDbEntity
  8
0
370
    50
100
AcDbLine
 10
719.4318256575662
 20
-1621.011582989504
 30
0.0
 11
719.4318256575662
 21
-1622.306608125697
 31
0.0
  0
LINE
  5
25717
102
{ACAD_REACTORS
330
25723
102
}
330
18
100
AcDbEntity
  8
0
370
    50
100
AcDbLine
 10
719.6318256575661
 20
-1622.506608125697
 30
0.0
 11
719.8761885928696
 21
-1622.506608125697
 31
0.0
  0
LINE
  5
25718
102
{ACAD_REACTORS
330
25723
102
}
330
18
100
AcDbEntity
  8
0
370
    50
100
AcDbLine
 10
721.8878776754085
 20
-1621.506608125697
 30
0.0
 11
721.8878776754085
 21
-1621.011582989504
 31
0.0
  0
LINE
  5
25719
102
{ACAD_REACTORS
330
25723
102
}
330
18
100
AcDbEntity
  8
0
370
    50
100
AcDbLine
 10
721.8878776754085
 20
-1619.779063770398
 30
0.0
 11
721.8878776754085
 21
-1619.035649636406
 31
0.0
  0
LINE
  5
2571A
102
{ACAD_REACTORS
330
25723
102
}
330
18
100
AcDbEntity
  8
0
370
    50
100
AcDbLine
 10
721.6878776754084
 20
-1618.527830429925
 30
0.0
 11
721.8878776754085
 21
-1618.727830429926
 31
0.0
  0
LINE
  5
2571B
102
{ACAD_REACTORS
330
25723
102
}
330
18
100
AcDbEntity
  8
0
370
    50
100
AcDbLine
 10
721.8878776754085
 20
-1618.727830429926
 30
0.0
 11
721.8878776754085
 21
-1619.035649636406
 31
0.0
  0
LINE
  5
2571C
102
{ACAD_REACTORS
330
25723
102
}
330
18
100
AcDbEntity
  8
0
370
    50
100
AcDbLine
 10
717.9318258077174
 20
-1622.306608125697
 30
0.0
 11
717.7318258077174
 21
-1622.506608125697
 31
0.0
  0
LINE
  5
2571D
102
{ACAD_REACTORS
330
25723
102
}
330
18
100
AcDbEntity
  8
0
370
    50
100
AcDbLine
 10
717.9318258077174
 20
-1621.506608125697
 30
0.0
 11
717.9318258077174
 21
-1622.306608125697
 31
0.0
  0
LINE
  5
2571E
102
{ACAD_REACTORS
330
25723
102
}
330
18
100
AcDbEntity
  8
0
370
    50
100
AcDbLine
 10
717.9318258077174
 20
-1621.011582989504
 30
0.0
 11
717.9318258077174
 21
-1621.506608125697
 31
0.0
  0
LINE
  5
2571F
102
{ACAD_REACTORS
330
25723
102
}
330
18
100
AcDbEntity
  8
0
370
    50
100
AcDbLine
 10
717.7318258077174
 20
-1622.506608125697
 30
0.0
 11
719.6318256575661
 21
-1622.506608125697
 31
0.0
  0
LINE
  5
25720
102
{ACAD_REACTORS
330
25723
102
}
330
18
100
AcDbEntity
  8
0
370
    50
100
AcDbLine
 10
724.8910973113384
 20
-1620.035649636406
 30
0.0
 11
724.8910973113384
 21
-1620.506608125697
 31
0.0
  0
LINE
  5
25721
102
{ACAD_REACTORS
330
25723
102
}
330
18
100
AcDbEntity
  8
0
370
    50
100
AcDbLine
 10
723.8910973113384
 20
-1621.506608125697
 30
0.0
 11
724.8910973113384
 21
-1620.506608125697
 31
0.0
  0
LINE
  5
25722
102
{ACAD_REACTORS
330
25723
102
}
330
18
100
AcDbEntity
  8
0
370
    50
100
AcDbLine
 10
723.8910973113384
 20
-1619.035649636406
 30
0.0
 11
724.8910973113384
 21
-1620.035649636406
 31
0.0
  0
VIEWPORT
  5
23
330
15
100
AcDbEntity
 67
     1
  8
0
100
AcDbViewport
 10
202.252807187203
 20
143.9953656426365
 30
0.0
 40
580.5684887768012
 41
291.4430637272764
 68
     1
 69
     1
 12
202.252807187203
 22
143.9953656426365
 13
0.0
 23
0.0
 14
10.0
 24
10.0
 15
10.0
 25
10.0
 16
0.0
 26
0.0
 36
1.0
 17
0.0
 27
0.0
 37
0.0
 42
50.0
 43
0.0
 44
0.0
 45
291.4430637272764
 50
0.0
 51
0.0
 72
   100
 90
    32768
  1

281
     0
 71
     1
 74
     0
110
0.0
120
0.0
130
0.0
111
1.0
121
0.0
131
0.0
112
0.0
122
1.0
132
0.0
 79
     0
146
0.0
  0
VIEWPORT
  5
2E
330
15
100
AcDbEntity
 67
     1
  8
M_VIEW
100
AcDbViewport
 10
200.0
 20
144.0
 30
0.0
 40
400.0
 41
288.0
 68
     2
 69
     2
 12
588.1101652725918
 22
-1563.454803375556
 13
0.0
 23
0.0
 14
10.0
 24
10.0
 15
10.0
 25
10.0
 16
0.0
 26
0.0
 36
1.0
 17
0.0
 27
0.0
 37
0.0
 42
50.0
 43
0.0
 44
0.0
 45
429.8507463679833
 50
0.0
 51
0.0
 72
   100
 90
    32768
  1

281
     0
 71
     1
 74
     0
110
0.0
120
0.0
130
0.0
111
1.0
121
0.0
131
0.0
112
0.0
122
1.0
132
0.0
 79
     0
146
0.0
  0
LWPOLYLINE
  5
5BD
330
15
100
AcDbEntity
 67
     1
  8
FRAME050
100
AcDbPolyline
 90
        2
 70
     0
 43
0.5
 10
404.4999999999998
 20
146.5
 10
394.5
 20
146.5
  0
INSERT
  5
115F
330
15
100
AcDbEntity
 67
     1
  8
FRAME025
100
AcDbBlockReference
  2
機械A4横_LBP
 10
82.74908858651452
 20
152.030959079227
 30
0.0
  0
TEXT
  5
AA6A
330
15
100
AcDbEntity
 67
     1
  8
文字
  6
ByBlock
 62
     0
100
AcDbText
 10
32.81885892396519
 20
73.01882819621747
 30
0.0
 40
3.2
  1

 50
90.0
 41
0.625
  7
MSｺﾞｼｯｸ
100
AcDbText
  0
TEXT
  5
AA6C
330
15
100
AcDbEntity
 67
     1
  8
文字
  6
ByBlock
 62
     0
100
AcDbText
 10
37.25020936743055
 20
73.01882819621747
 30
0.0
 40
3.2
  1

 50
90.0
 41
0.625
  7
MSｺﾞｼｯｸ
100
AcDbText
  0
TEXT
  5
FCA5
330
15
100
AcDbEntity
 67
     1
  8
FRAME020
  6
Continuous
100
AcDbText
 10
126.6213117262079
 20
29.63926951973459
 30
0.0
 40
2.5
  1

 41
0.625
  7
MSｺﾞｼｯｸ
100
AcDbText
  0
TEXT
  5
12229
330
15
100
AcDbEntity
 67
     1
  8
0
100
AcDbText
 10
303.8618981349821
 20
10.6316829925787
 30
0.0
 40
6.0
  1
ＳＥ－３７９１０Ｂ
 41
1.1
100
AcDbText
  0
MTEXT
  5
21047
330
15
100
AcDbEntity
 67
     1
  8
0
 48
10.0
100
AcDbMText
 10
327.7719738752167
 20
55.46212977036839
 30
0.0
 40
6.0
 41
50.05040000000001
 71
     1
 72
     5
  1
{\L質量：3.0kg}
 73
     1
 44
1.0
  0
TEXT
  5
25506
330
15
100
AcDbEntity
 67
     1
  8
wakumoji
  6
Continuous
100
AcDbText
 10
19.53487108163415
 20
31.41713572360471
 30
0.0
 40
2.88
  1
1.本図は、オプション（マグネットカバー）未装着です。
 41
0.9
  7
まこ
100
AcDbText
  0
LINE
  5
25507
330
15
100
AcDbEntity
 67
     1
  8
細線
  6
Continuous
100
AcDbLine
 10
17.43438746271434
 20
20.34467421753242
 30
0.0
 11
107.7165685218278
 21
20.34467421753242
 31
0.0
  0
TEXT
  5
25508
330
15
100
AcDbEntity
 67
     1
  8
wakumoji
  6
Continuous
100
AcDbText
 10
19.53487108163415
 20
21.41713572360471
 30
0.0
 40
2.88
  1
  全高は13mm、ギャップは1mmになります。
 41
0.9
  7
まこ
100
AcDbText
  0
TEXT
  5
25509
330
15
100
AcDbEntity
 67
     1
  8
wakumoji
  6
Continuous
100
AcDbText
 10
19.53487108163415
 20
26.41713572360471
 30
0.0
 40
2.88
  1
  マグネットカバーを付けた場合は、マグネットベースの
 41
0.9
  7
まこ
100
AcDbText
  0
LINE
  5
2550A
330
15
100
AcDbEntity
 67
     1
  8
細線
  6
Continuous
100
AcDbLine
 10
17.43438746271434
 20
25.34467421753243
 30
0.0
 11
107.7165685218278
 21
25.34467421753243
 31
0.0
  0
LINE
  5
2550B
330
15
100
AcDbEntity
 67
     1
  8
細線
  6
Continuous
100
AcDbLine
 10
17.43438746271434
 20
30.34467421753243
 30
0.0
 11
107.7165685218278
 21
30.34467421753243
 31
0.0
  0
TEXT
  5
2550C
330
15
100
AcDbEntity
 67
     1
  8
wakumoji
  6
Continuous
100
AcDbText
 10
18.39326712426958
 20
37.16127201058196
 30
0.0
 40
2.88
  1
注　　記
  7
まこ
100
AcDbText
  0
LINE
  5
2550D
330
15
100
AcDbEntity
 67
     1
  8
細線
  6
Continuous
100
AcDbLine
 10
17.43438746271434
 20
35.7446742175324
 30
0.0
 11
33.13123620262848
 21
35.7446742175324
 31
0.0
  0
TEXT
  5
25743
330
15
100
AcDbEntity
 67
     1
  8
文字
100
AcDbText
 10
222.5556882992606
 20
29.21331798681319
 30
0.0
 40
3.5
  1

 72
     1
 11
222.5556882992606
 21
30.96331798681319
 31
0.0
100
AcDbText
 73
     2
  0
MTEXT
  5
2578F
330
15
100
AcDbEntity
 67
     1
  8
dimension
100
AcDbMText
 10
210.3156431419886
 20
28.85159170172676
 30
0.0
 40
6.0
 41
183.2992
 71
     1
 72
     5
  1
τﾘﾆｱﾓｰﾀ ｺｱ付M NLA-MA CLﾕﾆｯﾄ CLM250MA (250N)
  7
ｽﾀｲﾙ3
 73
     1
 44
1.0
1001
ACAD
1000
MTEXTBEGIN
1070
    73
1070
     1
1070
    44
1040
1.0
1070
    74
1070
     0
1000
MTEXTEND
  0
ENDSEC
  0
SECTION
  2
OBJECTS
  0
DICTIONARY
  5
C
330
0
100
AcDbDictionary
281
     1
  3
ACAD_GROUP
350
D
  3
ACAD_LAYOUT
350
DB2
  3
ACAD_MLINESTYLE
350
1B
  3
ACAD_PLOTSETTINGS
350
DB3
  3
ACAD_PLOTSTYLENAME
350
FB5B
  3
AcadDim
350
23DA7
  3
AcDbVariableDictionary
350
106A6
  3
ASE_INDEX_DICTIONARY
350
1A99F
  3
DWGPROPS
350
15EC9
1001
ACAD
1000
TREAT_AS_HARD
1070
     0
  0
DICTIONARY
  5
254EC
330
2
100
AcDbDictionary
280
     1
281
     1
  3
ACAD_LAYERFILTERS
360
254ED
  3
ACAD_LAYERSTATES
360
254F9
  0
DICTIONARY
  5
EFC6
330
18
100
AcDbDictionary
280
     1
281
     1
  0
DICTIONARY
  5
EFC4
330
15
100
AcDbDictionary
280
     1
281
     1
  0
DICTIONARY
  5
D
102
{ACAD_REACTORS
330
C
102
}
330
C
100
AcDbDictionary
281
     1
  3
*A1
350
AC8A
  3
*A10
350
242D2
  3
*A100
350
2471B
  3
*A101
350
249F3
  3
*A102
350
2001F
  3
*A103
350
1B74D
  3
*A104
350
25724
  3
*A105
350
1A695
  3
*A106
350
24AB6
  3
*A107
350
24ABC
  3
*A108
350
24AC2
  3
*A109
350
24A7A
  3
*A11
350
1D6DE
  3
*A110
350
1998A
  3
*A111
350
24AC8
  3
*A112
350
24AA4
  3
*A113
350
FC95
  3
*A114
350
24A46
  3
*A115
350
24ACE
  3
*A116
350
20013
  3
*A117
350
24A48
  3
*A118
350
1B73B
  3
*A119
350
16059
  3
*A12
350
242D8
  3
*A120
350
1F904
  3
*A121
350
24721
  3
*A122
350
242AF
  3
*A123
350
24A4E
  3
*A124
350
1D67A
  3
*A125
350
1F91D
  3
*A126
350
24A09
  3
*A127
350
24A1E
  3
*A128
350
24A43
  3
*A129
350
24A9E
  3
*A13
350
1D6CA
  3
*A130
350
ACB4
  3
*A131
350
24AD4
  3
*A132
350
24ADA
  3
*A133
350
23BB2
  3
*A134
350
2021D
  3
*A135
350
106B3
  3
*A136
350
24A5C
  3
*A137
350
249F2
  3
*A138
350
242CA
  3
*A139
350
106A5
  3
*A14
350
1F8F5
  3
*A140
350
2020E
  3
*A141
350
19861
  3
*A142
350
16068
  3
*A143
350
24A80
  3
*A144
350
1606A
  3
*A145
350
24A4F
  3
*A146
350
242B5
  3
*A147
350
1EB7E
  3
*A148
350
24A8C
  3
*A149
350
24AE0
  3
*A15
350
24913
  3
*A150
350
24AE6
  3
*A151
350
24A45
  3
*A152
350
23A77
  3
*A153
350
24730
  3
*A154
350
24A44
  3
*A155
350
1AA94
  3
*A156
350
24728
  3
*A157
350
24AAA
  3
*A158
350
1D6D4
  3
*A159
350
24722
  3
*A16
350
1F913
  3
*A160
350
24AEC
  3
*A161
350
24AF2
  3
*A162
350
20231
  3
*A163
350
24AF8
  3
*A164
350
24B10
  3
*A165
350
19A86
  3
*A166
350
249FB
  3
*A167
350
24A50
  3
*A168
350
24B0A
  3
*A169
350
2471C
  3
*A17
350
24AB0
  3
*A170
350
24AFE
  3
*A171
350
1B720
  3
*A172
350
1EB7F
  3
*A173
350
24A47
  3
*A174
350
24A86
  3
*A175
350
1D6FC
  3
*A176
350
24A62
  3
*A177
350
24A4D
  3
*A178
350
2002B
  3
*A179
350
1A09A
  3
*A18
350
215A2
  3
*A180
350
24723
  3
*A181
350
1B732
  3
*A182
350
19FAB
  3
*A183
350
240F0
  3
*A184
350
1B744
  3
*A185
350
1EB80
  3
*A186
350
19787
  3
*A187
350
2022C
  3
*A188
350
1606B
  3
*A189
350
24B04
  3
*A19
350
18F1F
  3
*A190
350
19989
  3
*A191
350
19F55
  3
*A192
350
1B756
  3
*A193
350
1D6F2
  3
*A194
350
19988
  3
*A195
350
106C7
  3
*A196
350
1A692
  3
*A197
350
FC91
  3
*A198
350
24A4A
  3
*A199
350
16069
  3
*A2
350
18FA7
  3
*A20
350
FC9B
  3
*A200
350
23CC2
  3
*A201
350
24727
  3
*A202
350
1D706
  3
*A203
350
24724
  3
*A204
350
17BFF
  3
*A205
350
1F8F0
  3
*A206
350
1D6E8
  3
*A207
350
20236
  3
*A208
350
24A92
  3
*A209
350
240F2
  3
*A21
350
19259
  3
*A210
350
1EB7D
  3
*A211
350
FBFF
  3
*A212
350
19881
  3
*A213
350
23BB3
  3
*A214
350
1F90E
  3
*A215
350
ACAB
  3
*A216
350
18F22
  3
*A217
350
1B729
  3
*A218
350
18FA6
  3
*A219
350
17B11
  3
*A22
350
20010
  3
*A220
350
24725
  3
*A221
350
20222
  3
*A222
350
240EF
  3
*A223
350
22AAC
  3
*A224
350
FC9A
  3
*A225
350
1EB7C
  3
*A226
350
24A03
  3
*A227
350
20209
  3
*A228
350
ACA2
  3
*A229
350
2001C
  3
*A23
350
24A98
  3
*A230
350
24B44
  3
*A231
350
17901
  3
*A232
350
24B56
  3
*A233
350
1D6B6
  3
*A234
350
23BB4
  3
*A235
350
1D670
  3
*A236
350
18FA8
  3
*A237
350
232CA
  3
*A238
350
242B6
  3
*A239
350
20016
  3
*A24
350
1D68E
  3
*A240
350
20022
  3
*A241
350
19F87
  3
*A242
350
169DA
  3
*A243
350
24CED
  3
*A244
350
ACA1
  3
*A245
350
24CF0
  3
*A246
350
1F8FA
  3
*A247
350
18F23
  3
*A248
350
AC9A
  3
*A249
350
FB6B
  3
*A25
350
224AC
  3
*A250
350
1738A
  3
*A251
350
1A691
  3
*A252
350
18F20
  3
*A253
350
2472A
  3
*A254
350
240ED
  3
*A255
350
173BF
  3
*A256
350
20025
  3
*A257
350
20CA6
  3
*A258
350
240F1
  3
*A259
350
20028
  3
*A26
350
1D6AC
  3
*A260
350
2244A
  3
*A261
350
16058
  3
*A262
350
24A0A
  3
*A263
350
1F8FF
  3
*A264
350
22E4B
  3
*A265
350
19256
  3
*A266
350
19794
  3
*A267
350
242BC
  3
*A268
350
1D710
  3
*A27
350
20218
  3
*A28
350
196C2
  3
*A29
350
24A02
  3
*A3
350
173BD
  3
*A30
350
17389
  3
*A31
350
242D9
  3
*A32
350
242DF
  3
*A33
350
242E0
  3
*A34
350
242BD
  3
*A35
350
249FA
  3
*A36
350
2472D
  3
*A37
350
19729
  3
*A38
350
1D698
  3
*A39
350
24A1F
  3
*A4
350
FB6C
  3
*A40
350
2471E
  3
*A41
350
227B2
  3
*A42
350
19A52
  3
*A43
350
20213
  3
*A44
350
24726
  3
*A45
350
19F67
  3
*A46
350
24A11
  3
*A47
350
2472B
  3
*A48
350
22498
  3
*A49
350
224D1
  3
*A5
350
242CB
  3
*A50
350
242E6
  3
*A51
350
242E7
  3
*A52
350
24717
  3
*A53
350
1D6A2
  3
*A54
350
24A17
  3
*A55
350
242AE
  3
*A56
350
1D6C0
  3
*A57
350
ACBD
  3
*A58
350
24A68
  3
*A59
350
106C6
  3
*A6
350
24914
  3
*A60
350
20227
  3
*A61
350
242C3
  3
*A62
350
24A10
  3
*A63
350
19A51
  3
*A64
350
1F909
  3
*A65
350
2472C
  3
*A66
350
24718
  3
*A67
350
24719
  3
*A68
350
19F99
  3
*A69
350
173BE
  3
*A7
350
19255
  3
*A70
350
1F918
  3
*A71
350
18F21
  3
*A72
350
1D684
  3
*A73
350
24A49
  3
*A74
350
FCB8
  3
*A75
350
2471A
  3
*A76
350
2472E
  3
*A77
350
2471D
  3
*A78
350
2472F
  3
*A79
350
2471F
  3
*A8
350
242D1
  3
*A80
350
19A5A
  3
*A81
350
242A8
  3
*A82
350
20019
  3
*A83
350
19786
  3
*A84
350
24A18
  3
*A85
350
1738B
  3
*A86
350
227B1
  3
*A87
350
242C4
  3
*A88
350
198F1
  3
*A89
350
24729
  3
*A9
350
242A7
  3
*A90
350
20CA2
  3
*A91
350
24A4B
  3
*A92
350
24A4C
  3
*A93
350
19AA4
  3
*A94
350
24A6E
  3
*A95
350
24A74
  3
*A96
350
240EE
  3
*A97
350
256A8
  3
*A98
350
25723
  3
*A99
350
24720
1001
ACAD
1000
TREAT_AS_HARD
1070
     0
  0
DICTIONARY
  5
DB2
102
{ACAD_REACTORS
330
C
102
}
330
C
100
AcDbDictionary
281
     1
  3
Model
350
FB5D
  3
外形図
350
FB5E
1001
ACAD
1000
TREAT_AS_HARD
1070
     0
  0
DICTIONARY
  5
1B
102
{ACAD_REACTORS
330
C
102
}
330
C
100
AcDbDictionary
281
     1
  3
STANDARD
350
1C
1001
ACAD
1000
TREAT_AS_HARD
1070
     0
  0
DICTIONARY
  5
DB3
102
{ACAD_REACTORS
330
C
102
}
330
C
100
AcDbDictionary
281
     1
1001
ACAD
1000
TREAT_AS_HARD
1070
     0
  0
ACDBDICTIONARYWDFLT
  5
FB5B
102
{ACAD_REACTORS
330
C
102
}
330
C
100
AcDbDictionary
281
     1
  3
Normal
350
FB5C
100
AcDbDictionaryWithDefault
340
FB5C
  0
XRECORD
  5
23DA7
102
{ACAD_REACTORS
330
C
102
}
330
C
100
AcDbXrecord
280
     1
 90
   990106
  3

 60
     0
 61
     0
 62
     4
 63
     4
 64
     1
 65
     0
 66
     0
 67
     3
 68
     1
 69
     0
 70
     0
 71
     0
 72
     0
 40
0.0
170
     2
340
24D5A
  0
DICTIONARY
  5
106A6
102
{ACAD_REACTORS
330
C
102
}
330
C
100
AcDbDictionary
281
     1
  3
SORTENTS
350
106A7
  0
DICTIONARY
  5
1A99F
102
{ACAD_REACTORS
330
C
102
}
330
C
100
AcDbDictionary
281
     1
  3
ASEBlockHierarchyIndexRecord
350
1A9A1
1001
DCO15
1040
1464612067.17
  0
XRECORD
  5
15EC9
102
{ACAD_REACTORS
330
C
102
}
330
C
100
AcDbXrecord
280
     1
  1
DWGPROPS COOKIE
  2

  3

  4

  6

  7

  8

  9

300
=
301
=
302
=
303
=
304
=
305
=
306
=
307
=
308
=
309
=
 40
12.65185717592592
 41
2451224.660162384
 42
2452395.660827315
  1

 90
        0
  0
DICTIONARY
  5
254ED
102
{ACAD_REACTORS
330
254EC
102
}
330
254EC
100
AcDbDictionary
280
     1
281
     1
  3
0
360
254EE
  3
11
360
254EF
  3
150_
360
254F0
  3
160_
360
254F1
  3
170_
360
254F2
  3
171_
360
254F3
  3
350_
360
254F4
  3
4
360
254F5
  3
5
360
254F6
  3
7
360
254F7
  3
kiseki
360
254F8
  0
DICTIONARY
  5
254F9
102
{ACAD_REACTORS
330
254EC
102
}
330
254EC
100
AcDbDictionary
281
     1
  0
GROUP
  5
AC8A
102
{ACAD_REACTORS
330
D
102
}
330
D
100
AcDbGroup
300

 70
     1
 71
     1
  0
GROUP
  5
242D2
102
{ACAD_REACTORS
330
D
102
}
330
D
100
AcDbGroup
300

 70
     1
 71
     1
  0
GROUP
  5
2471B
102
{ACAD_REACTORS
330
D
102
}
330
D
100
AcDbGroup
300

 70
     1
 71
     1
  0
GROUP
  5
249F3
102
{ACAD_REACTORS
330
D
102
}
330
D
100
AcDbGroup
300

 70
     1
 71
     1
  0
GROUP
  5
2001F
102
{ACAD_REACTORS
330
D
102
}
330
D
100
AcDbGroup
300

 70
     1
 71
     1
  0
GROUP
  5
1B74D
102
{ACAD_REACTORS
330
D
102
}
330
D
100
AcDbGroup
300

 70
     1
 71
     1
  0
GROUP
  5
25724
102
{ACAD_REACTORS
330
D
102
}
330
D
100
AcDbGroup
300

 70
     1
 71
     1
340
23D87
340
23D8D
340
23D89
340
23D66
340
23DA4
340
23D91
340
23D90
340
23D8F
340
23D8E
340
23D65
340
23DA2
340
23D8B
340
23D8A
340
23D88
340
23DA0
340
23D8C
  0
GROUP
  5
1A695
102
{ACAD_REACTORS
330
D
102
}
330
D
100
AcDbGroup
300

 70
     1
 71
     1
  0
GROUP
  5
24AB6
102
{ACAD_REACTORS
330
D
102
}
330
D
100
AcDbGroup
300

 70
     1
 71
     1
  0
GROUP
  5
24ABC
102
{ACAD_REACTORS
330
D
102
}
330
D
100
AcDbGroup
300

 70
     1
 71
     1
  0
GROUP
  5
24AC2
102
{ACAD_REACTORS
330
D
102
}
330
D
100
AcDbGroup
300

 70
     1
 71
     1
  0
GROUP
  5
24A7A
102
{ACAD_REACTORS
330
D
102
}
330
D
100
AcDbGroup
300

 70
     1
 71
     1
  0
GROUP
  5
1D6DE
102
{ACAD_REACTORS
330
D
102
}
330
D
100
AcDbGroup
300

 70
     1
 71
     1
  0
GROUP
  5
1998A
102
{ACAD_REACTORS
330
D
102
}
330
D
100
AcDbGroup
300

 70
     1
 71
     1
  0
GROUP
  5
24AC8
102
{ACAD_REACTORS
330
D
102
}
330
D
100
AcDbGroup
300

 70
     1
 71
     1
  0
GROUP
  5
24AA4
102
{ACAD_REACTORS
330
D
102
}
330
D
100
AcDbGroup
300

 70
     1
 71
     1
  0
GROUP
  5
FC95
102
{ACAD_REACTORS
330
D
102
}
330
D
100
AcDbGroup
300

 70
     1
 71
     1
  0
GROUP
  5
24A46
102
{ACAD_REACTORS
330
D
102
}
330
D
100
AcDbGroup
300

 70
     1
 71
     1
  0
GROUP
  5
24ACE
102
{ACAD_REACTORS
330
D
102
}
330
D
100
AcDbGroup
300

 70
     1
 71
     1
  0
GROUP
  5
20013
102
{ACAD_REACTORS
330
D
102
}
330
D
100
AcDbGroup
300

 70
     1
 71
     1
  0
GROUP
  5
24A48
102
{ACAD_REACTORS
330
D
102
}
330
D
100
AcDbGroup
300

 70
     1
 71
     1
  0
GROUP
  5
1B73B
102
{ACAD_REACTORS
330
D
102
}
330
D
100
AcDbGroup
300

 70
     1
 71
     1
  0
GROUP
  5
16059
102
{ACAD_REACTORS
330
D
102
}
330
D
100
AcDbGroup
300

 70
     1
 71
     1
  0
GROUP
  5
242D8
102
{ACAD_REACTORS
330
D
102
}
330
D
100
AcDbGroup
300

 70
     1
 71
     1
  0
GROUP
  5
1F904
102
{ACAD_REACTORS
330
D
102
}
330
D
100
AcDbGroup
300

 70
     1
 71
     1
  0
GROUP
  5
24721
102
{ACAD_REACTORS
330
D
102
}
330
D
100
AcDbGroup
300

 70
     1
 71
     1
  0
GROUP
  5
242AF
102
{ACAD_REACTORS
330
D
102
}
330
D
100
AcDbGroup
300

 70
     1
 71
     1
  0
GROUP
  5
24A4E
102
{ACAD_REACTORS
330
D
102
}
330
D
100
AcDbGroup
300

 70
     1
 71
     1
  0
GROUP
  5
1D67A
102
{ACAD_REACTORS
330
D
102
}
330
D
100
AcDbGroup
300

 70
     1
 71
     1
  0
GROUP
  5
1F91D
102
{ACAD_REACTORS
330
D
102
}
330
D
100
AcDbGroup
300

 70
     1
 71
     1
  0
GROUP
  5
24A09
102
{ACAD_REACTORS
330
D
102
}
330
D
100
AcDbGroup
300

 70
     1
 71
     1
  0
GROUP
  5
24A1E
102
{ACAD_REACTORS
330
D
102
}
330
D
100
AcDbGroup
300

 70
     1
 71
     1
  0
GROUP
  5
24A43
102
{ACAD_REACTORS
330
D
102
}
330
D
100
AcDbGroup
300

 70
     1
 71
     1
  0
GROUP
  5
24A9E
102
{ACAD_REACTORS
330
D
102
}
330
D
100
AcDbGroup
300

 70
     1
 71
     1
  0
GROUP
  5
1D6CA
102
{ACAD_REACTORS
330
D
102
}
330
D
100
AcDbGroup
300

 70
     1
 71
     1
  0
GROUP
  5
ACB4
102
{ACAD_REACTORS
330
D
102
}
330
D
100
AcDbGroup
300

 70
     1
 71
     1
  0
GROUP
  5
24AD4
102
{ACAD_REACTORS
330
D
102
}
330
D
100
AcDbGroup
300

 70
     1
 71
     1
  0
GROUP
  5
24ADA
102
{ACAD_REACTORS
330
D
102
}
330
D
100
AcDbGroup
300

 70
     1
 71
     1
  0
GROUP
  5
23BB2
102
{ACAD_REACTORS
330
D
102
}
330
D
100
AcDbGroup
300

 70
     1
 71
     1
  0
GROUP
  5
2021D
102
{ACAD_REACTORS
330
D
102
}
330
D
100
AcDbGroup
300

 70
     1
 71
     1
  0
GROUP
  5
106B3
102
{ACAD_REACTORS
330
D
102
}
330
D
100
AcDbGroup
300

 70
     1
 71
     1
  0
GROUP
  5
24A5C
102
{ACAD_REACTORS
330
D
102
}
330
D
100
AcDbGroup
300

 70
     1
 71
     1
  0
GROUP
  5
249F2
102
{ACAD_REACTORS
330
D
102
}
330
D
100
AcDbGroup
300

 70
     1
 71
     1
  0
GROUP
  5
242CA
102
{ACAD_REACTORS
330
D
102
}
330
D
100
AcDbGroup
300

 70
     1
 71
     1
  0
GROUP
  5
106A5
102
{ACAD_REACTORS
330
D
102
}
330
D
100
AcDbGroup
300

 70
     1
 71
     1
  0
GROUP
  5
1F8F5
102
{ACAD_REACTORS
330
D
102
}
330
D
100
AcDbGroup
300

 70
     1
 71
     1
  0
GROUP
  5
2020E
102
{ACAD_REACTORS
330
D
102
}
330
D
100
AcDbGroup
300

 70
     1
 71
     1
  0
GROUP
  5
19861
102
{ACAD_REACTORS
330
D
102
}
330
D
100
AcDbGroup
300

 70
     1
 71
     1
  0
GROUP
  5
16068
102
{ACAD_REACTORS
330
D
102
}
330
D
100
AcDbGroup
300

 70
     1
 71
     1
  0
GROUP
  5
24A80
102
{ACAD_REACTORS
330
D
102
}
330
D
100
AcDbGroup
300

 70
     1
 71
     1
  0
GROUP
  5
1606A
102
{ACAD_REACTORS
330
D
102
}
330
D
100
AcDbGroup
300

 70
     1
 71
     1
  0
GROUP
  5
24A4F
102
{ACAD_REACTORS
330
D
102
}
330
D
100
AcDbGroup
300

 70
     1
 71
     1
  0
GROUP
  5
242B5
102
{ACAD_REACTORS
330
D
102
}
330
D
100
AcDbGroup
300

 70
     1
 71
     1
  0
GROUP
  5
1EB7E
102
{ACAD_REACTORS
330
D
102
}
330
D
100
AcDbGroup
300

 70
     1
 71
     1
  0
GROUP
  5
24A8C
102
{ACAD_REACTORS
330
D
102
}
330
D
100
AcDbGroup
300

 70
     1
 71
     1
  0
GROUP
  5
24AE0
102
{ACAD_REACTORS
330
D
102
}
330
D
100
AcDbGroup
300

 70
     1
 71
     1
  0
GROUP
  5
24913
102
{ACAD_REACTORS
330
D
102
}
330
D
100
AcDbGroup
300

 70
     1
 71
     1
  0
GROUP
  5
24AE6
102
{ACAD_REACTORS
330
D
102
}
330
D
100
AcDbGroup
300

 70
     1
 71
     1
  0
GROUP
  5
24A45
102
{ACAD_REACTORS
330
D
102
}
330
D
100
AcDbGroup
300

 70
     1
 71
     1
  0
GROUP
  5
23A77
102
{ACAD_REACTORS
330
D
102
}
330
D
100
AcDbGroup
300

 70
     1
 71
     1
340
237D8
340
237FE
340
237D7
340
237DC
340
237E9
  0
GROUP
  5
24730
102
{ACAD_REACTORS
330
D
102
}
330
D
100
AcDbGroup
300

 70
     1
 71
     1
  0
GROUP
  5
24A44
102
{ACAD_REACTORS
330
D
102
}
330
D
100
AcDbGroup
300

 70
     1
 71
     1
  0
GROUP
  5
1AA94
102
{ACAD_REACTORS
330
D
102
}
330
D
100
AcDbGroup
300

 70
     1
 71
     1
  0
GROUP
  5
24728
102
{ACAD_REACTORS
330
D
102
}
330
D
100
AcDbGroup
300

 70
     1
 71
     1
  0
GROUP
  5
24AAA
102
{ACAD_REACTORS
330
D
102
}
330
D
100
AcDbGroup
300

 70
     1
 71
     1
  0
GROUP
  5
1D6D4
102
{ACAD_REACTORS
330
D
102
}
330
D
100
AcDbGroup
300

 70
     1
 71
     1
  0
GROUP
  5
24722
102
{ACAD_REACTORS
330
D
102
}
330
D
100
AcDbGroup
300

 70
     1
 71
     1
  0
GROUP
  5
1F913
102
{ACAD_REACTORS
330
D
102
}
330
D
100
AcDbGroup
300

 70
     1
 71
     1
  0
GROUP
  5
24AEC
102
{ACAD_REACTORS
330
D
102
}
330
D
100
AcDbGroup
300

 70
     1
 71
     1
  0
GROUP
  5
24AF2
102
{ACAD_REACTORS
330
D
102
}
330
D
100
AcDbGroup
300

 70
     1
 71
     1
  0
GROUP
  5
20231
102
{ACAD_REACTORS
330
D
102
}
330
D
100
AcDbGroup
300

 70
     1
 71
     1
  0
GROUP
  5
24AF8
102
{ACAD_REACTORS
330
D
102
}
330
D
100
AcDbGroup
300

 70
     1
 71
     1
  0
GROUP
  5
24B10
102
{ACAD_REACTORS
330
D
102
}
330
D
100
AcDbGroup
300

 70
     1
 71
     1
  0
GROUP
  5
19A86
102
{ACAD_REACTORS
330
D
102
}
330
D
100
AcDbGroup
300

 70
     1
 71
     1
  0
GROUP
  5
249FB
102
{ACAD_REACTORS
330
D
102
}
330
D
100
AcDbGroup
300

 70
     1
 71
     1
  0
GROUP
  5
24A50
102
{ACAD_REACTORS
330
D
102
}
330
D
100
AcDbGroup
300

 70
     1
 71
     1
  0
GROUP
  5
24B0A
102
{ACAD_REACTORS
330
D
102
}
330
D
100
AcDbGroup
300

 70
     1
 71
     1
  0
GROUP
  5
2471C
102
{ACAD_REACTORS
330
D
102
}
330
D
100
AcDbGroup
300

 70
     1
 71
     1
  0
GROUP
  5
24AB0
102
{ACAD_REACTORS
330
D
102
}
330
D
100
AcDbGroup
300

 70
     1
 71
     1
  0
GROUP
  5
24AFE
102
{ACAD_REACTORS
330
D
102
}
330
D
100
AcDbGroup
300

 70
     1
 71
     1
  0
GROUP
  5
1B720
102
{ACAD_REACTORS
330
D
102
}
330
D
100
AcDbGroup
300

 70
     1
 71
     1
  0
GROUP
  5
1EB7F
102
{ACAD_REACTORS
330
D
102
}
330
D
100
AcDbGroup
300

 70
     1
 71
     1
  0
GROUP
  5
24A47
102
{ACAD_REACTORS
330
D
102
}
330
D
100
AcDbGroup
300

 70
     1
 71
     1
  0
GROUP
  5
24A86
102
{ACAD_REACTORS
330
D
102
}
330
D
100
AcDbGroup
300

 70
     1
 71
     1
  0
GROUP
  5
1D6FC
102
{ACAD_REACTORS
330
D
102
}
330
D
100
AcDbGroup
300

 70
     1
 71
     1
  0
GROUP
  5
24A62
102
{ACAD_REACTORS
330
D
102
}
330
D
100
AcDbGroup
300

 70
     1
 71
     1
  0
GROUP
  5
24A4D
102
{ACAD_REACTORS
330
D
102
}
330
D
100
AcDbGroup
300

 70
     1
 71
     1
  0
GROUP
  5
2002B
102
{ACAD_REACTORS
330
D
102
}
330
D
100
AcDbGroup
300

 70
     1
 71
     1
  0
GROUP
  5
1A09A
102
{ACAD_REACTORS
330
D
102
}
330
D
100
AcDbGroup
300

 70
     1
 71
     1
  0
GROUP
  5
215A2
102
{ACAD_REACTORS
330
D
102
}
330
D
100
AcDbGroup
300

 70
     1
 71
     1
  0
GROUP
  5
24723
102
{ACAD_REACTORS
330
D
102
}
330
D
100
AcDbGroup
300

 70
     1
 71
     1
  0
GROUP
  5
1B732
102
{ACAD_REACTORS
330
D
102
}
330
D
100
AcDbGroup
300

 70
     1
 71
     1
  0
GROUP
  5
19FAB
102
{ACAD_REACTORS
330
D
102
}
330
D
100
AcDbGroup
300

 70
     1
 71
     1
  0
GROUP
  5
240F0
102
{ACAD_REACTORS
330
D
102
}
330
D
100
AcDbGroup
300

 70
     1
 71
     1
  0
GROUP
  5
1B744
102
{ACAD_REACTORS
330
D
102
}
330
D
100
AcDbGroup
300

 70
     1
 71
     1
  0
GROUP
  5
1EB80
102
{ACAD_REACTORS
330
D
102
}
330
D
100
AcDbGroup
300

 70
     1
 71
     1
  0
GROUP
  5
19787
102
{ACAD_REACTORS
330
D
102
}
330
D
100
AcDbGroup
300

 70
     1
 71
     1
  0
GROUP
  5
2022C
102
{ACAD_REACTORS
330
D
102
}
330
D
100
AcDbGroup
300

 70
     1
 71
     1
  0
GROUP
  5
1606B
102
{ACAD_REACTORS
330
D
102
}
330
D
100
AcDbGroup
300

 70
     1
 71
     1
  0
GROUP
  5
24B04
102
{ACAD_REACTORS
330
D
102
}
330
D
100
AcDbGroup
300

 70
     1
 71
     1
  0
GROUP
  5
18F1F
102
{ACAD_REACTORS
330
D
102
}
330
D
100
AcDbGroup
300

 70
     1
 71
     1
  0
GROUP
  5
19989
102
{ACAD_REACTORS
330
D
102
}
330
D
100
AcDbGroup
300

 70
     1
 71
     1
  0
GROUP
  5
19F55
102
{ACAD_REACTORS
330
D
102
}
330
D
100
AcDbGroup
300

 70
     1
 71
     1
  0
GROUP
  5
1B756
102
{ACAD_REACTORS
330
D
102
}
330
D
100
AcDbGroup
300

 70
     1
 71
     1
  0
GROUP
  5
1D6F2
102
{ACAD_REACTORS
330
D
102
}
330
D
100
AcDbGroup
300

 70
     1
 71
     1
  0
GROUP
  5
19988
102
{ACAD_REACTORS
330
D
102
}
330
D
100
AcDbGroup
300

 70
     1
 71
     1
  0
GROUP
  5
106C7
102
{ACAD_REACTORS
330
D
102
}
330
D
100
AcDbGroup
300

 70
     1
 71
     1
  0
GROUP
  5
1A692
102
{ACAD_REACTORS
330
D
102
}
330
D
100
AcDbGroup
300

 70
     1
 71
     1
  0
GROUP
  5
FC91
102
{ACAD_REACTORS
330
D
102
}
330
D
100
AcDbGroup
300

 70
     1
 71
     1
  0
GROUP
  5
24A4A
102
{ACAD_REACTORS
330
D
102
}
330
D
100
AcDbGroup
300

 70
     1
 71
     1
  0
GROUP
  5
16069
102
{ACAD_REACTORS
330
D
102
}
330
D
100
AcDbGroup
300

 70
     1
 71
     1
  0
GROUP
  5
18FA7
102
{ACAD_REACTORS
330
D
102
}
330
D
100
AcDbGroup
300

 70
     1
 71
     1
  0
GROUP
  5
FC9B
102
{ACAD_REACTORS
330
D
102
}
330
D
100
AcDbGroup
300

 70
     1
 71
     1
  0
GROUP
  5
23CC2
102
{ACAD_REACTORS
330
D
102
}
330
D
100
AcDbGroup
300

 70
     1
 71
     1
340
23BB7
340
23BF2
340
23BB6
340
23BB8
340
23BD2
  0
GROUP
  5
24727
102
{ACAD_REACTORS
330
D
102
}
330
D
100
AcDbGroup
300

 70
     1
 71
     1
  0
GROUP
  5
1D706
102
{ACAD_REACTORS
330
D
102
}
330
D
100
AcDbGroup
300

 70
     1
 71
     1
  0
GROUP
  5
24724
102
{ACAD_REACTORS
330
D
102
}
330
D
100
AcDbGroup
300

 70
     1
 71
     1
  0
GROUP
  5
17BFF
102
{ACAD_REACTORS
330
D
102
}
330
D
100
AcDbGroup
300

 70
     1
 71
     1
  0
GROUP
  5
1F8F0
102
{ACAD_REACTORS
330
D
102
}
330
D
100
AcDbGroup
300

 70
     1
 71
     1
  0
GROUP
  5
1D6E8
102
{ACAD_REACTORS
330
D
102
}
330
D
100
AcDbGroup
300

 70
     1
 71
     1
  0
GROUP
  5
20236
102
{ACAD_REACTORS
330
D
102
}
330
D
100
AcDbGroup
300

 70
     1
 71
     1
  0
GROUP
  5
24A92
102
{ACAD_REACTORS
330
D
102
}
330
D
100
AcDbGroup
300

 70
     1
 71
     1
  0
GROUP
  5
240F2
102
{ACAD_REACTORS
330
D
102
}
330
D
100
AcDbGroup
300

 70
     1
 71
     1
  0
GROUP
  5
19259
102
{ACAD_REACTORS
330
D
102
}
330
D
100
AcDbGroup
300

 70
     1
 71
     1
  0
GROUP
  5
1EB7D
102
{ACAD_REACTORS
330
D
102
}
330
D
100
AcDbGroup
300

 70
     1
 71
     1
  0
GROUP
  5
FBFF
102
{ACAD_REACTORS
330
D
102
}
330
D
100
AcDbGroup
300

 70
     1
 71
     1
  0
GROUP
  5
19881
102
{ACAD_REACTORS
330
D
102
}
330
D
100
AcDbGroup
300

 70
     1
 71
     1
  0
GROUP
  5
23BB3
102
{ACAD_REACTORS
330
D
102
}
330
D
100
AcDbGroup
300

 70
     1
 71
     1
  0
GROUP
  5
1F90E
102
{ACAD_REACTORS
330
D
102
}
330
D
100
AcDbGroup
300

 70
     1
 71
     1
  0
GROUP
  5
ACAB
102
{ACAD_REACTORS
330
D
102
}
330
D
100
AcDbGroup
300

 70
     1
 71
     1
  0
GROUP
  5
18F22
102
{ACAD_REACTORS
330
D
102
}
330
D
100
AcDbGroup
300

 70
     1
 71
     1
  0
GROUP
  5
1B729
102
{ACAD_REACTORS
330
D
102
}
330
D
100
AcDbGroup
300

 70
     1
 71
     1
  0
GROUP
  5
18FA6
102
{ACAD_REACTORS
330
D
102
}
330
D
100
AcDbGroup
300

 70
     1
 71
     1
  0
GROUP
  5
17B11
102
{ACAD_REACTORS
330
D
102
}
330
D
100
AcDbGroup
300

 70
     1
 71
     1
  0
GROUP
  5
20010
102
{ACAD_REACTORS
330
D
102
}
330
D
100
AcDbGroup
300

 70
     1
 71
     1
  0
GROUP
  5
24725
102
{ACAD_REACTORS
330
D
102
}
330
D
100
AcDbGroup
300

 70
     1
 71
     1
  0
GROUP
  5
20222
102
{ACAD_REACTORS
330
D
102
}
330
D
100
AcDbGroup
300

 70
     1
 71
     1
  0
GROUP
  5
240EF
102
{ACAD_REACTORS
330
D
102
}
330
D
100
AcDbGroup
300

 70
     1
 71
     1
  0
GROUP
  5
22AAC
102
{ACAD_REACTORS
330
D
102
}
330
D
100
AcDbGroup
300

 70
     1
 71
     1
  0
GROUP
  5
FC9A
102
{ACAD_REACTORS
330
D
102
}
330
D
100
AcDbGroup
300

 70
     1
 71
     1
  0
GROUP
  5
1EB7C
102
{ACAD_REACTORS
330
D
102
}
330
D
100
AcDbGroup
300

 70
     1
 71
     1
  0
GROUP
  5
24A03
102
{ACAD_REACTORS
330
D
102
}
330
D
100
AcDbGroup
300

 70
     1
 71
     1
  0
GROUP
  5
20209
102
{ACAD_REACTORS
330
D
102
}
330
D
100
AcDbGroup
300

 70
     1
 71
     1
  0
GROUP
  5
ACA2
102
{ACAD_REACTORS
330
D
102
}
330
D
100
AcDbGroup
300

 70
     1
 71
     1
  0
GROUP
  5
2001C
102
{ACAD_REACTORS
330
D
102
}
330
D
100
AcDbGroup
300

 70
     1
 71
     1
  0
GROUP
  5
24A98
102
{ACAD_REACTORS
330
D
102
}
330
D
100
AcDbGroup
300

 70
     1
 71
     1
  0
GROUP
  5
24B44
102
{ACAD_REACTORS
330
D
102
}
330
D
100
AcDbGroup
300

 70
     1
 71
     1
  0
GROUP
  5
17901
102
{ACAD_REACTORS
330
D
102
}
330
D
100
AcDbGroup
300

 70
     1
 71
     1
  0
GROUP
  5
24B56
102
{ACAD_REACTORS
330
D
102
}
330
D
100
AcDbGroup
300

 70
     1
 71
     1
  0
GROUP
  5
1D6B6
102
{ACAD_REACTORS
330
D
102
}
330
D
100
AcDbGroup
300

 70
     1
 71
     1
  0
GROUP
  5
23BB4
102
{ACAD_REACTORS
330
D
102
}
330
D
100
AcDbGroup
300

 70
     1
 71
     1
  0
GROUP
  5
1D670
102
{ACAD_REACTORS
330
D
102
}
330
D
100
AcDbGroup
300

 70
     1
 71
     1
  0
GROUP
  5
18FA8
102
{ACAD_REACTORS
330
D
102
}
330
D
100
AcDbGroup
300

 70
     1
 71
     1
  0
GROUP
  5
232CA
102
{ACAD_REACTORS
330
D
102
}
330
D
100
AcDbGroup
300

 70
     1
 71
     1
  0
GROUP
  5
242B6
102
{ACAD_REACTORS
330
D
102
}
330
D
100
AcDbGroup
300

 70
     1
 71
     1
  0
GROUP
  5
20016
102
{ACAD_REACTORS
330
D
102
}
330
D
100
AcDbGroup
300

 70
     1
 71
     1
  0
GROUP
  5
1D68E
102
{ACAD_REACTORS
330
D
102
}
330
D
100
AcDbGroup
300

 70
     1
 71
     1
  0
GROUP
  5
20022
102
{ACAD_REACTORS
330
D
102
}
330
D
100
AcDbGroup
300

 70
     1
 71
     1
  0
GROUP
  5
19F87
102
{ACAD_REACTORS
330
D
102
}
330
D
100
AcDbGroup
300

 70
     1
 71
     1
  0
GROUP
  5
169DA
102
{ACAD_REACTORS
330
D
102
}
330
D
100
AcDbGroup
300

 70
     1
 71
     1
  0
GROUP
  5
24CED
102
{ACAD_REACTORS
330
D
102
}
330
D
100
AcDbGroup
300

 70
     1
 71
     1
340
24CEC
340
24CEB
  0
GROUP
  5
ACA1
102
{ACAD_REACTORS
330
D
102
}
330
D
100
AcDbGroup
300

 70
     1
 71
     1
  0
GROUP
  5
24CF0
102
{ACAD_REACTORS
330
D
102
}
330
D
100
AcDbGroup
300

 70
     1
 71
     1
340
24CEE
340
24CEF
  0
GROUP
  5
1F8FA
102
{ACAD_REACTORS
330
D
102
}
330
D
100
AcDbGroup
300

 70
     1
 71
     1
  0
GROUP
  5
18F23
102
{ACAD_REACTORS
330
D
102
}
330
D
100
AcDbGroup
300

 70
     1
 71
     1
  0
GROUP
  5
AC9A
102
{ACAD_REACTORS
330
D
102
}
330
D
100
AcDbGroup
300

 70
     1
 71
     1
  0
GROUP
  5
FB6B
102
{ACAD_REACTORS
330
D
102
}
330
D
100
AcDbGroup
300

 70
     1
 71
     1
  0
GROUP
  5
224AC
102
{ACAD_REACTORS
330
D
102
}
330
D
100
AcDbGroup
300

 70
     1
 71
     1
  0
GROUP
  5
1738A
102
{ACAD_REACTORS
330
D
102
}
330
D
100
AcDbGroup
300

 70
     1
 71
     1
  0
GROUP
  5
1A691
102
{ACAD_REACTORS
330
D
102
}
330
D
100
AcDbGroup
300

 70
     1
 71
     1
  0
GROUP
  5
18F20
102
{ACAD_REACTORS
330
D
102
}
330
D
100
AcDbGroup
300

 70
     1
 71
     1
  0
GROUP
  5
2472A
102
{ACAD_REACTORS
330
D
102
}
330
D
100
AcDbGroup
300

 70
     1
 71
     1
  0
GROUP
  5
240ED
102
{ACAD_REACTORS
330
D
102
}
330
D
100
AcDbGroup
300

 70
     1
 71
     1
  0
GROUP
  5
173BF
102
{ACAD_REACTORS
330
D
102
}
330
D
100
AcDbGroup
300

 70
     1
 71
     1
  0
GROUP
  5
20025
102
{ACAD_REACTORS
330
D
102
}
330
D
100
AcDbGroup
300

 70
     1
 71
     1
  0
GROUP
  5
20CA6
102
{ACAD_REACTORS
330
D
102
}
330
D
100
AcDbGroup
300

 70
     1
 71
     1
  0
GROUP
  5
240F1
102
{ACAD_REACTORS
330
D
102
}
330
D
100
AcDbGroup
300

 70
     1
 71
     1
  0
GROUP
  5
20028
102
{ACAD_REACTORS
330
D
102
}
330
D
100
AcDbGroup
300

 70
     1
 71
     1
  0
GROUP
  5
1D6AC
102
{ACAD_REACTORS
330
D
102
}
330
D
100
AcDbGroup
300

 70
     1
 71
     1
  0
GROUP
  5
2244A
102
{ACAD_REACTORS
330
D
102
}
330
D
100
AcDbGroup
300

 70
     1
 71
     1
  0
GROUP
  5
16058
102
{ACAD_REACTORS
330
D
102
}
330
D
100
AcDbGroup
300

 70
     1
 71
     1
  0
GROUP
  5
24A0A
102
{ACAD_REACTORS
330
D
102
}
330
D
100
AcDbGroup
300

 70
     1
 71
     1
  0
GROUP
  5
1F8FF
102
{ACAD_REACTORS
330
D
102
}
330
D
100
AcDbGroup
300

 70
     1
 71
     1
  0
GROUP
  5
22E4B
102
{ACAD_REACTORS
330
D
102
}
330
D
100
AcDbGroup
300

 70
     1
 71
     1
  0
GROUP
  5
19256
102
{ACAD_REACTORS
330
D
102
}
330
D
100
AcDbGroup
300

 70
     1
 71
     1
  0
GROUP
  5
19794
102
{ACAD_REACTORS
330
D
102
}
330
D
100
AcDbGroup
300

 70
     1
 71
     1
  0
GROUP
  5
242BC
102
{ACAD_REACTORS
330
D
102
}
330
D
100
AcDbGroup
300

 70
     1
 71
     1
  0
GROUP
  5
1D710
102
{ACAD_REACTORS
330
D
102
}
330
D
100
AcDbGroup
300

 70
     1
 71
     1
  0
GROUP
  5
20218
102
{ACAD_REACTORS
330
D
102
}
330
D
100
AcDbGroup
300

 70
     1
 71
     1
  0
GROUP
  5
196C2
102
{ACAD_REACTORS
330
D
102
}
330
D
100
AcDbGroup
300

 70
     1
 71
     1
  0
GROUP
  5
24A02
102
{ACAD_REACTORS
330
D
102
}
330
D
100
AcDbGroup
300

 70
     1
 71
     1
  0
GROUP
  5
173BD
102
{ACAD_REACTORS
330
D
102
}
330
D
100
AcDbGroup
300

 70
     1
 71
     1
  0
GROUP
  5
17389
102
{ACAD_REACTORS
330
D
102
}
330
D
100
AcDbGroup
300

 70
     1
 71
     1
  0
GROUP
  5
242D9
102
{ACAD_REACTORS
330
D
102
}
330
D
100
AcDbGroup
300

 70
     1
 71
     1
  0
GROUP
  5
242DF
102
{ACAD_REACTORS
330
D
102
}
330
D
100
AcDbGroup
300

 70
     1
 71
     1
  0
GROUP
  5
242E0
102
{ACAD_REACTORS
330
D
102
}
330
D
100
AcDbGroup
300

 70
     1
 71
     1
  0
GROUP
  5
242BD
102
{ACAD_REACTORS
330
D
102
}
330
D
100
AcDbGroup
300

 70
     1
 71
     1
  0
GROUP
  5
249FA
102
{ACAD_REACTORS
330
D
102
}
330
D
100
AcDbGroup
300

 70
     1
 71
     1
  0
GROUP
  5
2472D
102
{ACAD_REACTORS
330
D
102
}
330
D
100
AcDbGroup
300

 70
     1
 71
     1
  0
GROUP
  5
19729
102
{ACAD_REACTORS
330
D
102
}
330
D
100
AcDbGroup
300

 70
     1
 71
     1
  0
GROUP
  5
1D698
102
{ACAD_REACTORS
330
D
102
}
330
D
100
AcDbGroup
300

 70
     1
 71
     1
  0
GROUP
  5
24A1F
102
{ACAD_REACTORS
330
D
102
}
330
D
100
AcDbGroup
300

 70
     1
 71
     1
  0
GROUP
  5
FB6C
102
{ACAD_REACTORS
330
D
102
}
330
D
100
AcDbGroup
300

 70
     1
 71
     1
  0
GROUP
  5
2471E
102
{ACAD_REACTORS
330
D
102
}
330
D
100
AcDbGroup
300

 70
     1
 71
     1
  0
GROUP
  5
227B2
102
{ACAD_REACTORS
330
D
102
}
330
D
100
AcDbGroup
300

 70
     1
 71
     1
  0
GROUP
  5
19A52
102
{ACAD_REACTORS
330
D
102
}
330
D
100
AcDbGroup
300

 70
     1
 71
     1
  0
GROUP
  5
20213
102
{ACAD_REACTORS
330
D
102
}
330
D
100
AcDbGroup
300

 70
     1
 71
     1
  0
GROUP
  5
24726
102
{ACAD_REACTORS
330
D
102
}
330
D
100
AcDbGroup
300

 70
     1
 71
     1
  0
GROUP
  5
19F67
102
{ACAD_REACTORS
330
D
102
}
330
D
100
AcDbGroup
300

 70
     1
 71
     1
  0
GROUP
  5
24A11
102
{ACAD_REACTORS
330
D
102
}
330
D
100
AcDbGroup
300

 70
     1
 71
     1
  0
GROUP
  5
2472B
102
{ACAD_REACTORS
330
D
102
}
330
D
100
AcDbGroup
300

 70
     1
 71
     1
  0
GROUP
  5
22498
102
{ACAD_REACTORS
330
D
102
}
330
D
100
AcDbGroup
300

 70
     1
 71
     1
  0
GROUP
  5
224D1
102
{ACAD_REACTORS
330
D
102
}
330
D
100
AcDbGroup
300

 70
     1
 71
     1
  0
GROUP
  5
242CB
102
{ACAD_REACTORS
330
D
102
}
330
D
100
AcDbGroup
300

 70
     1
 71
     1
  0
GROUP
  5
242E6
102
{ACAD_REACTORS
330
D
102
}
330
D
100
AcDbGroup
300

 70
     1
 71
     1
  0
GROUP
  5
242E7
102
{ACAD_REACTORS
330
D
102
}
330
D
100
AcDbGroup
300

 70
     1
 71
     1
  0
GROUP
  5
24717
102
{ACAD_REACTORS
330
D
102
}
330
D
100
AcDbGroup
300

 70
     1
 71
     1
  0
GROUP
  5
1D6A2
102
{ACAD_REACTORS
330
D
102
}
330
D
100
AcDbGroup
300

 70
     1
 71
     1
  0
GROUP
  5
24A17
102
{ACAD_REACTORS
330
D
102
}
330
D
100
AcDbGroup
300

 70
     1
 71
     1
  0
GROUP
  5
242AE
102
{ACAD_REACTORS
330
D
102
}
330
D
100
AcDbGroup
300

 70
     1
 71
     1
  0
GROUP
  5
1D6C0
102
{ACAD_REACTORS
330
D
102
}
330
D
100
AcDbGroup
300

 70
     1
 71
     1
  0
GROUP
  5
ACBD
102
{ACAD_REACTORS
330
D
102
}
330
D
100
AcDbGroup
300

 70
     1
 71
     1
  0
GROUP
  5
24A68
102
{ACAD_REACTORS
330
D
102
}
330
D
100
AcDbGroup
300

 70
     1
 71
     1
  0
GROUP
  5
106C6
102
{ACAD_REACTORS
330
D
102
}
330
D
100
AcDbGroup
300

 70
     1
 71
     1
  0
GROUP
  5
24914
102
{ACAD_REACTORS
330
D
102
}
330
D
100
AcDbGroup
300

 70
     1
 71
     1
  0
GROUP
  5
20227
102
{ACAD_REACTORS
330
D
102
}
330
D
100
AcDbGroup
300

 70
     1
 71
     1
  0
GROUP
  5
242C3
102
{ACAD_REACTORS
330
D
102
}
330
D
100
AcDbGroup
300

 70
     1
 71
     1
  0
GROUP
  5
24A10
102
{ACAD_REACTORS
330
D
102
}
330
D
100
AcDbGroup
300

 70
     1
 71
     1
  0
GROUP
  5
19A51
102
{ACAD_REACTORS
330
D
102
}
330
D
100
AcDbGroup
300

 70
     1
 71
     1
  0
GROUP
  5
1F909
102
{ACAD_REACTORS
330
D
102
}
330
D
100
AcDbGroup
300

 70
     1
 71
     1
  0
GROUP
  5
2472C
102
{ACAD_REACTORS
330
D
102
}
330
D
100
AcDbGroup
300

 70
     1
 71
     1
  0
GROUP
  5
24718
102
{ACAD_REACTORS
330
D
102
}
330
D
100
AcDbGroup
300

 70
     1
 71
     1
  0
GROUP
  5
24719
102
{ACAD_REACTORS
330
D
102
}
330
D
100
AcDbGroup
300

 70
     1
 71
     1
  0
GROUP
  5
19F99
102
{ACAD_REACTORS
330
D
102
}
330
D
100
AcDbGroup
300

 70
     1
 71
     1
  0
GROUP
  5
173BE
102
{ACAD_REACTORS
330
D
102
}
330
D
100
AcDbGroup
300

 70
     1
 71
     1
  0
GROUP
  5
19255
102
{ACAD_REACTORS
330
D
102
}
330
D
100
AcDbGroup
300

 70
     1
 71
     1
  0
GROUP
  5
1F918
102
{ACAD_REACTORS
330
D
102
}
330
D
100
AcDbGroup
300

 70
     1
 71
     1
  0
GROUP
  5
18F21
102
{ACAD_REACTORS
330
D
102
}
330
D
100
AcDbGroup
300

 70
     1
 71
     1
  0
GROUP
  5
1D684
102
{ACAD_REACTORS
330
D
102
}
330
D
100
AcDbGroup
300

 70
     1
 71
     1
  0
GROUP
  5
24A49
102
{ACAD_REACTORS
330
D
102
}
330
D
100
AcDbGroup
300

 70
     1
 71
     1
  0
GROUP
  5
FCB8
102
{ACAD_REACTORS
330
D
102
}
330
D
100
AcDbGroup
300

 70
     1
 71
     1
  0
GROUP
  5
2471A
102
{ACAD_REACTORS
330
D
102
}
330
D
100
AcDbGroup
300

 70
     1
 71
     1
  0
GROUP
  5
2472E
102
{ACAD_REACTORS
330
D
102
}
330
D
100
AcDbGroup
300

 70
     1
 71
     1
  0
GROUP
  5
2471D
102
{ACAD_REACTORS
330
D
102
}
330
D
100
AcDbGroup
300

 70
     1
 71
     1
  0
GROUP
  5
2472F
102
{ACAD_REACTORS
330
D
102
}
330
D
100
AcDbGroup
300

 70
     1
 71
     1
  0
GROUP
  5
2471F
102
{ACAD_REACTORS
330
D
102
}
330
D
100
AcDbGroup
300

 70
     1
 71
     1
  0
GROUP
  5
242D1
102
{ACAD_REACTORS
330
D
102
}
330
D
100
AcDbGroup
300

 70
     1
 71
     1
  0
GROUP
  5
19A5A
102
{ACAD_REACTORS
330
D
102
}
330
D
100
AcDbGroup
300

 70
     1
 71
     1
  0
GROUP
  5
242A8
102
{ACAD_REACTORS
330
D
102
}
330
D
100
AcDbGroup
300

 70
     1
 71
     1
  0
GROUP
  5
20019
102
{ACAD_REACTORS
330
D
102
}
330
D
100
AcDbGroup
300

 70
     1
 71
     1
  0
GROUP
  5
19786
102
{ACAD_REACTORS
330
D
102
}
330
D
100
AcDbGroup
300

 70
     1
 71
     1
  0
GROUP
  5
24A18
102
{ACAD_REACTORS
330
D
102
}
330
D
100
AcDbGroup
300

 70
     1
 71
     1
  0
GROUP
  5
1738B
102
{ACAD_REACTORS
330
D
102
}
330
D
100
AcDbGroup
300

 70
     1
 71
     1
  0
GROUP
  5
227B1
102
{ACAD_REACTORS
330
D
102
}
330
D
100
AcDbGroup
300

 70
     1
 71
     1
  0
GROUP
  5
242C4
102
{ACAD_REACTORS
330
D
102
}
330
D
100
AcDbGroup
300

 70
     1
 71
     1
  0
GROUP
  5
198F1
102
{ACAD_REACTORS
330
D
102
}
330
D
100
AcDbGroup
300

 70
     1
 71
     1
  0
GROUP
  5
24729
102
{ACAD_REACTORS
330
D
102
}
330
D
100
AcDbGroup
300

 70
     1
 71
     1
  0
GROUP
  5
242A7
102
{ACAD_REACTORS
330
D
102
}
330
D
100
AcDbGroup
300

 70
     1
 71
     1
  0
GROUP
  5
20CA2
102
{ACAD_REACTORS
330
D
102
}
330
D
100
AcDbGroup
300

 70
     1
 71
     1
  0
GROUP
  5
24A4B
102
{ACAD_REACTORS
330
D
102
}
330
D
100
AcDbGroup
300

 70
     1
 71
     1
  0
GROUP
  5
24A4C
102
{ACAD_REACTORS
330
D
102
}
330
D
100
AcDbGroup
300

 70
     1
 71
     1
  0
GROUP
  5
19AA4
102
{ACAD_REACTORS
330
D
102
}
330
D
100
AcDbGroup
300

 70
     1
 71
     1
  0
GROUP
  5
24A6E
102
{ACAD_REACTORS
330
D
102
}
330
D
100
AcDbGroup
300

 70
     1
 71
     1
  0
GROUP
  5
24A74
102
{ACAD_REACTORS
330
D
102
}
330
D
100
AcDbGroup
300

 70
     1
 71
     1
  0
GROUP
  5
240EE
102
{ACAD_REACTORS
330
D
102
}
330
D
100
AcDbGroup
300

 70
     1
 71
     1
  0
GROUP
  5
256A8
102
{ACAD_REACTORS
330
D
102
}
330
D
100
AcDbGroup
300

 70
     1
 71
     1
340
25679
340
2567A
340
2567B
340
2567C
340
2567D
340
2567E
340
25674
340
25675
340
25671
340
256A7
340
2569F
340
256A1
340
25676
340
256A0
340
25673
340
256A4
340
256A2
340
25677
340
25680
340
2567F
340
25685
340
25686
340
256A3
340
25681
340
25682
340
25683
340
25684
340
25687
340
25688
340
2568C
340
25690
340
25689
340
2568A
340
2568B
340
2568E
340
2568F
340
25691
340
25692
340
25693
340
25695
340
2568D
340
25694
  0
GROUP
  5
25723
102
{ACAD_REACTORS
330
D
102
}
330
D
100
AcDbGroup
300

 70
     1
 71
     1
340
25707
340
25706
340
25705
340
25704
340
25703
340
256BB
340
256BA
340
256B9
340
256BC
340
256BF
340
256BE
340
256BD
340
256C1
340
256C0
340
256C3
340
256C2
340
256C4
340
25708
340
256CC
340
256CB
340
256CA
340
256C9
340
256C5
340
2570D
340
2570C
340
2570B
340
2570A
340
25709
340
25711
340
25710
340
2570F
340
2571F
340
2571E
340
2571D
340
2571C
340
2571B
340
2571A
340
25719
340
25718
340
25717
340
25716
340
25715
340
25714
340
25713
340
25712
340
2570E
340
25722
340
25721
340
25720
  0
GROUP
  5
24720
102
{ACAD_REACTORS
330
D
102
}
330
D
100
AcDbGroup
300

 70
     1
 71
     1
  0
LAYOUT
  5
FB5D
102
{ACAD_REACTORS
330
DB2
102
}
330
DB2
100
AcDbPlotSettings
  1

  2
\\HONAMI\LBP-910
  4
A3
  6

 40
5.873749732971191
 41
5.873747825622558
 42
5.873748779296875
 43
5.873748779296875
 44
296.9259948730469
 45
419.9466552734374
 46
0.0
 47
0.0
 48
-134.0496161171158
 49
-116.2294073187233
140
1105.745250909008
141
633.2284101676227
142
1.0
143
2.866823569012708
 70
 11952
 72
     1
 73
     1
 74
     1
  7
monochrome.ctb
 75
     0
147
0.3488181173089717
148
98.7130430422485
149
74.96499340265336
100
AcDbLayout
  1
Model
 70
     1
 71
     0
 10
0.0
 20
0.0
 11
12.0
 21
9.0
 12
0.0
 22
0.0
 32
0.0
 14
0.0
 24
0.0
 34
0.0
 15
0.0
 25
0.0
 35
0.0
146
0.0
 13
0.0
 23
0.0
 33
0.0
 16
1.0
 26
0.0
 36
0.0
 17
0.0
 27
1.0
 37
0.0
 76
     0
330
18
  0
LAYOUT
  5
FB5E
102
{ACAD_REACTORS
330
DB2
102
}
330
DB2
100
AcDbPlotSettings
  1

  2
HP 750C_aaa3.pc3
  4
User257
  6

 40
4.995333194732666
 41
9.990656852722167
 42
4.995330810546875
 43
9.99066162109375
 44
296.9683227539062
 45
419.9466552734374
 46
-1.28
 47
2.0
 48
0.0
 49
0.0
140
0.0
141
0.0
142
1.0
143
1.0
 70
   688
 72
     1
 73
     1
 74
     1
  7
monochrome.ctb
 75
    16
147
1.0
148
0.0231376894987534
149
1.521140436086625
100
AcDbLayout
  1
外形図
 70
     0
 71
     1
 10
-12.0137993105925
 20
-5.236473630819291
 11
407.9328559628449
 21
291.7318491230869
 12
0.0
 22
0.0
 32
0.0
 14
-0.0118438918668744
 24
-0.0117952579000758
 34
-0.0000000349181948
 15
404.5174582662729
 25
288.0025265431731
 35
0.0000000814935746
146
0.0
 13
0.0
 23
0.0
 33
0.0
 16
1.0
 26
0.0
 36
0.0
 17
0.0
 27
1.0
 37
0.0
 76
     0
330
15
331
23
  0
MLINESTYLE
  5
1C
102
{ACAD_REACTORS
330
1B
102
}
330
1B
100
AcDbMlineStyle
  2
STANDARD
 70
     0
  3

 62
   256
 51
90.0
 52
90.0
 71
     2
 49
0.5
 62
   256
  6
BYLAYER
 49
-0.5
 62
   256
  6
BYLAYER
  0
ACDBPLACEHOLDER
  5
FB5C
102
{ACAD_REACTORS
330
FB5B
102
}
330
FB5B
  0
DICTIONARYVAR
  5
106A7
102
{ACAD_REACTORS
330
106A6
102
}
330
106A6
100
DictionaryVariables
280
     0
  1
96
  0
XRECORD
  5
1A9A1
102
{ACAD_REACTORS
330
1A99F
102
}
330
1A99F
100
AcDbXrecord
280
     1
330
187D7
330
0
330
0
330
0
330
0
330
0
330
0
330
0
330
0
330
0
330
79
330
115F
330
0
330
0
330
0
330
0
330
0
330
0
330
0
330
0
330
0
330
0
330
0
330
0
330
0
330
0
330
0
330
0
330
0
330
0
330
0
330
0
330
0
330
0
330
0
330
0
330
0
330
0
330
0
330
0
330
0
330
0
330
0
330
0
  0
XRECORD
  5
254EE
102
{ACAD_REACTORS
330
254ED
102
}
330
254ED
100
AcDbXrecord
280
     1
  1
0
  1
*0
  1
*
  1
*
 70
     0
  1
*
  1
*
  0
XRECORD
  5
254EF
102
{ACAD_REACTORS
330
254ED
102
}
330
254ED
100
AcDbXrecord
280
     1
  1
11
  1
*11
  1
*
  1
*
 70
     0
  1
*
  1
*
  0
XRECORD
  5
254F0
102
{ACAD_REACTORS
330
254ED
102
}
330
254ED
100
AcDbXrecord
280
     1
  1
150_
  1
150_*
  1
*
  1
*
 70
     0
  1
*
  1
*
  0
XRECORD
  5
254F1
102
{ACAD_REACTORS
330
254ED
102
}
330
254ED
100
AcDbXrecord
280
     1
  1
160_
  1
160_*
  1
*
  1
*
 70
     0
  1
*
  1
*
  0
XRECORD
  5
254F2
102
{ACAD_REACTORS
330
254ED
102
}
330
254ED
100
AcDbXrecord
280
     1
  1
170_
  1
170_*
  1
*
  1
*
 70
     0
  1
*
  1
*
  0
XRECORD
  5
254F3
102
{ACAD_REACTORS
330
254ED
102
}
330
254ED
100
AcDbXrecord
280
     1
  1
171_
  1
171_*
  1
*
  1
*
 70
     0
  1
*
  1
*
  0
XRECORD
  5
254F4
102
{ACAD_REACTORS
330
254ED
102
}
330
254ED
100
AcDbXrecord
280
     1
  1
350_
  1
350_*
  1
*
  1
*
 70
     0
  1
*
  1
*
  0
XRECORD
  5
254F5
102
{ACAD_REACTORS
330
254ED
102
}
330
254ED
100
AcDbXrecord
280
     1
  1
4
  1
*4
  1
*
  1
*
 70
     0
  1
*
  1
*
  0
XRECORD
  5
254F6
102
{ACAD_REACTORS
330
254ED
102
}
330
254ED
100
AcDbXrecord
280
     1
  1
5
  1
*5
  1
*
  1
*
 70
     0
  1
*
  1
*
  0
XRECORD
  5
254F7
102
{ACAD_REACTORS
330
254ED
102
}
330
254ED
100
AcDbXrecord
280
     1
  1
7
  1
*7
  1
*
  1
*
 70
     0
  1
*
  1
*
  0
XRECORD
  5
254F8
102
{ACAD_REACTORS
330
254ED
102
}
330
254ED
100
AcDbXrecord
280
     1
  1
kiseki
  1
kiseki*
  1
*
  1
*
 70
     0
  1
*
  1
*
  0
ENDSEC
  0
EOF
